<?xml version="1.0" standalone="no"?>
<!DOCTYPE svg PUBLIC "-//W3C//DTD SVG 1.1//EN" "http://www.w3.org/Graphics/SVG/1.1/DTD/svg11.dtd" >
<svg xmlns="http://www.w3.org/2000/svg">
<metadata></metadata>
<defs>
<font id="_.regular" horiz-adv-x="921" >
<font-face units-per-em="2048" ascent="1638" descent="-410" />
<missing-glyph horiz-adv-x="512" />
<glyph horiz-adv-x="2048" />
<glyph horiz-adv-x="2048" />
<glyph unicode="&#xd;" horiz-adv-x="681" />
<glyph unicode=" "  horiz-adv-x="512" />
<glyph unicode="&#x09;" horiz-adv-x="512" />
<glyph unicode="&#xa0;" horiz-adv-x="512" />
<glyph unicode="!" horiz-adv-x="471" d="M123 1434h225l-35 -1055h-163zM139 -10v225h185v-225h-185z" />
<glyph unicode="&#x22;" horiz-adv-x="675" d="M82 1434h205l-51 -482h-103zM389 1434h205l-51 -482h-103z" />
<glyph unicode="#" horiz-adv-x="1167" d="M41 410v143h215l51 328h-205v143h236l61 410h185l-62 -410h226l61 410h184l-61 -410h194v-143h-225l-51 -328h215v-143h-236l-61 -410h-184l61 410h-225l-62 -410h-184l62 410h-195zM430 553h246l51 328h-246z" />
<glyph unicode="$" horiz-adv-x="911" d="M72 20v93h317v540q-57 27 -114.5 58.5t-102.5 81t-72.5 119t-27.5 173.5q0 166 76.5 257.5t240.5 107.5v168h123v-166q78 -4 146.5 -15.5t109.5 -23.5v-92h-256v-533q57 -27 116.5 -57.5t105.5 -77.5t76 -115.5t30 -168.5q0 -172 -75 -265.5t-253 -115.5v-172h-123v164 h-10q-92 0 -176 12t-131 28zM256 1085q0 -90 37 -142t96 -89v449q-133 -46 -133 -218zM512 135q78 29 110.5 85.5t32.5 148.5q0 86 -41 137t-102 86v-457z" />
<glyph unicode="%" horiz-adv-x="1392" d="M61 1147q0 154 74 230.5t213 76.5t213 -76.5t74 -230.5t-74 -230.5t-213 -76.5t-213 76.5t-74 230.5zM205 0l799 1434h184l-799 -1434h-184zM215 1147q0 -100 36 -142t97 -42t97 42t36 142t-35.5 142t-97.5 42q-61 0 -97 -42t-36 -142zM758 287q0 154 73.5 230.5 t212.5 76.5t213 -76.5t74 -230.5t-73.5 -230.5t-213.5 -76.5q-139 0 -212.5 76.5t-73.5 230.5zM911 287q0 -100 36 -142.5t97 -42.5t97.5 42.5t36.5 142.5t-36 142t-98 42q-61 0 -97 -42t-36 -142z" />
<glyph unicode="&#x26;" horiz-adv-x="1054" d="M72 369q0 92 12 176t29 131h143v-307q0 -80 13.5 -130.5t35 -78t47 -37.5t47.5 -10q31 0 55.5 9t47 32.5t47 65.5t55.5 108q-111 158 -181.5 269.5t-109.5 197.5t-53 153.5t-14 136.5q0 186 89 277.5t259 91.5q92 0 176 -12t131 -29v-92h-266q-92 0 -148.5 -59.5 t-56.5 -176.5q0 -49 7 -100t32 -115.5t74 -148.5t133 -199l112 277h185l-185 -451l246 -348h-205l-112 164q-27 -47 -54.5 -81t-62.5 -57.5t-83 -34.5t-118 -11q-154 0 -240.5 94t-86.5 295z" />
<glyph unicode="'" horiz-adv-x="368" d="M82 1434h205l-51 -482h-103z" />
<glyph unicode="(" horiz-adv-x="503" d="M102 573q0 100 13.5 211t46.5 232t88 251t139 269l115 -61q-51 -109 -88 -213.5t-61.5 -214t-36 -226t-11.5 -248.5q0 -131 11.5 -247.5t36 -226t61.5 -215t88 -212.5l-115 -61q-84 137 -139 268t-88 252t-46.5 231.5t-13.5 210.5z" />
<glyph unicode=")" horiz-adv-x="503" d="M0 -328q51 106 88 212t61.5 215.5t36 226t11.5 247.5t-11.5 248t-36 226.5t-61.5 214t-88 213.5l115 61q84 -139 139 -269t88 -251t46 -232t13 -211t-13 -210.5t-46 -231.5t-88 -252t-139 -268z" />
<glyph unicode="*" horiz-adv-x="880" d="M41 1055l33 143l284 -61v297h164v-297l285 61l33 -143l-267 -51l144 -267l-133 -71l-144 266l-143 -266l-133 71l143 267z" />
<glyph unicode="+" horiz-adv-x="880" d="M61 543v143h297v338h164v-338h297v-143h-297v-338h-164v338h-297z" />
<glyph unicode="," horiz-adv-x="348" d="M82 215h194l-61 -451h-133v451z" />
<glyph unicode="-" horiz-adv-x="737" d="M61 543v143h615v-143h-615z" />
<glyph unicode="." horiz-adv-x="348" d="M82 -10v225h184v-225h-184z" />
<glyph unicode="/" horiz-adv-x="798" d="M0 0l614 1434h185l-615 -1434h-184z" />
<glyph unicode="0" horiz-adv-x="1044" d="M102 717q0 215 30 357.5t84 226t132 118.5t174 35t174 -35t132.5 -118.5t84 -226t29.5 -357.5t-29.5 -357.5t-84 -226.5t-132.5 -118.5t-174 -34.5t-174 34.5t-132 118.5t-84 226.5t-30 357.5zM287 717q0 -184 20.5 -303t54 -188.5t75.5 -96.5t85 -27t85 27t76 96.5 t54.5 188t20.5 303.5q0 184 -20.5 303t-54.5 188.5t-76 96t-85 26.5t-85 -26.5t-75.5 -96t-54 -188.5t-20.5 -303z" />
<glyph unicode="1" horiz-adv-x="573" d="M20 1290v103q47 16 131.5 28.5t176.5 12.5h102v-1434h-184v1290h-226z" />
<glyph unicode="2" horiz-adv-x="798" d="M20 0v164q154 193 256.5 318.5t164 218t87 166t25.5 157.5q0 162 -58.5 229.5t-166.5 67.5h-287v92q47 16 131 28.5t176 12.5q201 0 295 -99.5t94 -330.5q0 -100 -30.5 -186t-95 -184.5t-163 -220.5t-233.5 -290h522v-143h-717z" />
<glyph unicode="3" horiz-adv-x="849" d="M31 20v93h266q154 0 220.5 64.5t66.5 211.5q0 154 -66.5 220.5t-220.5 66.5h-143v143h122q139 0 203 62.5t64 193.5q0 123 -58.5 184.5t-167.5 61.5h-266v92q47 16 131 28.5t176 12.5q369 0 369 -379q0 -117 -46 -191.5t-138 -121.5v-8q61 -16 104 -52t69.5 -85.5 t39 -107.5t12.5 -120q0 -215 -100.5 -312t-329.5 -97q-92 0 -176 12t-131 28z" />
<glyph unicode="4" horiz-adv-x="962" d="M61 369v163l512 902h205v-922h123v-143h-123v-369h-184v369h-533zM236 512h358v625h-8z" />
<glyph unicode="5" horiz-adv-x="911" d="M92 20v93h266q154 0 220.5 67.5t66.5 229.5t-66.5 229.5t-220.5 67.5h-235v727h665v-134h-481v-460h92q229 0 329.5 -100.5t100.5 -329.5q0 -115 -23.5 -197t-75.5 -134t-134 -75.5t-197 -23.5q-92 0 -176 12t-131 28z" />
<glyph unicode="6" horiz-adv-x="931" d="M102 410v450q0 162 27 274.5t77 183.5t125 103.5t171 32.5q92 0 176 -12t131 -29v-92h-266q-57 0 -104.5 -25.5t-81 -84t-52 -154.5t-18.5 -238q47 16 115.5 28.5t129.5 12.5q154 0 241 -102.5t87 -347.5q0 -231 -93 -330.5t-286 -99.5t-286 99t-93 331zM287 410 q0 -84 14 -142.5t41 -95.5t61.5 -53.5t77.5 -16.5t78 16.5t61.5 53.5t41 95.5t14.5 142.5q0 184 -62.5 255.5t-193.5 71.5h-133v-327z" />
<glyph unicode="7" horiz-adv-x="839" d="M41 1290v144h737v-164q-139 -340 -230 -658.5t-138 -611.5h-185q92 584 369 1290h-553z" />
<glyph unicode="8" horiz-adv-x="983" d="M82 369q0 74 21.5 134t56.5 107t79 80t89 53v9q-37 14 -76 42.5t-69.5 71.5t-50 100.5t-19.5 129.5q0 358 379 358t378 -358q0 -72 -19.5 -129.5t-50 -100.5t-69.5 -71.5t-76 -42.5v-9q45 -20 89 -53t79 -80t56.5 -107.5t21.5 -133.5q0 -201 -96 -295t-313 -94t-313.5 94 t-96.5 295zM266 369q0 -139 58.5 -203t167.5 -64t167 63.5t58 203.5q0 115 -62.5 182t-162.5 115q-100 -47 -163 -115t-63 -182zM297 1096q0 -109 54.5 -172.5t140.5 -94.5q86 31 140 94.5t54 172.5q0 117 -54 176t-140 59t-140.5 -59.5t-54.5 -175.5z" />
<glyph unicode="9" horiz-adv-x="931" d="M72 1024q0 231 93 330.5t286 99.5t285.5 -99.5t92.5 -330.5v-451q0 -162 -26.5 -274.5t-76.5 -183t-125 -103t-171 -32.5q-92 0 -176 12t-131 28v93h266q57 0 104.5 25.5t81 84t52 154.5t18.5 237q-47 -16 -115.5 -28.5t-130.5 -12.5q-154 0 -240.5 102.5t-86.5 348.5z M256 1024q0 -184 62.5 -256t193.5 -72h133v328q0 84 -14.5 142.5t-41 95t-61 53t-77.5 16.5t-78 -16.5t-61.5 -53t-41 -95t-14.5 -142.5z" />
<glyph unicode=":" horiz-adv-x="348" d="M82 -10v225h184v-225h-184zM82 799v225h184v-225h-184z" />
<glyph unicode=";" horiz-adv-x="337" d="M82 215h194l-61 -451h-133v451zM82 799v225h184v-225h-184z" />
<glyph unicode="&#x3c;" horiz-adv-x="819" d="M82 430v174l655 410v-195l-471 -295v-14l471 -295v-195z" />
<glyph unicode="=" horiz-adv-x="880" d="M61 358v154h758v-154h-758zM61 717v153h758v-153h-758z" />
<glyph unicode="&#x3e;" horiz-adv-x="819" d="M82 20v195l471 295v14l-471 295v195l655 -410v-174z" />
<glyph unicode="?" horiz-adv-x="757" d="M20 1321v92q47 16 131.5 28.5t176.5 12.5q186 0 277 -94t91 -295q0 -86 -23.5 -150.5t-58 -115.5t-76.5 -95.5t-77 -92.5t-58.5 -103t-23.5 -129h-164q0 90 21.5 155.5t55.5 118t71.5 96.5t71.5 90t55.5 100t21.5 126q0 131 -58.5 193.5t-166.5 62.5h-267zM205 -10v225 h184v-225h-184z" />
<glyph unicode="@" horiz-adv-x="1699" d="M102 635q0 414 191.5 616.5t546.5 202.5q184 0 325.5 -48t237.5 -139t145 -222.5t49 -296.5q0 -158 -27.5 -265.5t-93 -174t-173 -95.5t-269.5 -29l-10 62h-10q-39 -39 -96.5 -60.5t-118.5 -21.5t-116.5 23.5t-98.5 75.5t-67.5 134t-24.5 197q0 145 23.5 243.5t75.5 158 t134 85t197 25.5q31 0 67.5 -3t73.5 -9.5t69.5 -13.5t55.5 -15v-748q53 0 95 18.5t70.5 67t44 131t15.5 214.5q0 287 -147.5 435t-425.5 148q-131 0 -233.5 -37t-173.5 -119.5t-108.5 -215t-37.5 -324.5q0 -188 39 -319.5t117.5 -212t197.5 -117.5t281 -37h266v-92 q-47 -16 -131 -28.5t-176 -12.5q-385 0 -582 201.5t-197 617.5zM676 594q0 -84 14.5 -142.5t39 -95.5t58 -53t72.5 -16t80 12t64 29v655h-82q-61 0 -107.5 -17.5t-77 -61.5t-46 -119.5t-15.5 -190.5z" />
<glyph unicode="A" horiz-adv-x="1044" d="M41 0l348 1434h266l349 -1434h-185l-92 369h-410l-92 -369h-184zM348 512h348l-170 717h-8z" />
<glyph unicode="B" horiz-adv-x="1024" d="M143 20v1393q78 23 157 32t171 9q217 0 313.5 -93t96.5 -286q0 -92 -36 -172t-128 -131v-8q123 -35 174 -135.5t51 -239.5q0 -109 -24.5 -185.5t-80 -126.5t-145.5 -73.5t-221 -23.5q-92 0 -171 9t-157 31zM328 113h143q154 0 220.5 64.5t66.5 211.5q0 162 -66.5 229.5 t-220.5 67.5h-143v-573zM328 819h123q245 0 245 254q0 248 -245 248h-123v-502z" />
<glyph unicode="C" horiz-adv-x="890" d="M102 717q0 215 30 357.5t85 226t135 118.5t180 35q92 0 176.5 -12t131.5 -29v-92h-267q-61 0 -113 -26.5t-91 -95.5t-60.5 -185.5t-21.5 -296.5t22.5 -297t62.5 -185.5t96 -95t126 -26.5h266v-93q-47 -16 -131 -28t-176 -12q-109 0 -191.5 34.5t-141 118.5t-88.5 226.5 t-30 357.5z" />
<glyph unicode="D" horiz-adv-x="1064" d="M143 20v1393q78 23 157 32t171 9q123 0 215 -35t153.5 -118.5t92.5 -226t31 -357.5t-31 -357.5t-92.5 -226.5t-153.5 -118.5t-215 -34.5q-92 0 -171 9t-157 31zM328 113h143q70 0 126 26.5t96 95t62.5 185.5t22.5 297t-22.5 296.5t-62.5 185.5t-96 95.5t-126 26.5h-143 v-1208z" />
<glyph unicode="E" d="M143 0v1434h697v-144h-512v-471h450v-143h-450v-533h512v-143h-697z" />
<glyph unicode="F" horiz-adv-x="880" d="M143 0v1434h697v-144h-512v-502h430v-143h-430v-645h-185z" />
<glyph unicode="G" horiz-adv-x="1024" d="M102 717q0 215 30 357.5t88.5 226t141 118.5t191.5 35q92 0 176 -12t131 -29v-92h-266q-70 0 -126 -26.5t-96 -95.5t-62.5 -185.5t-22.5 -296.5t22.5 -297t66.5 -185.5t109.5 -95t149.5 -26.5h82v665h184v-758q-47 -16 -131 -28t-176 -12q-123 0 -215 34.5t-153.5 118.5 t-92.5 226.5t-31 357.5z" />
<glyph unicode="H" horiz-adv-x="1085" d="M143 0v1434h185v-635h430v635h184v-1434h-184v655h-430v-655h-185z" />
<glyph unicode="I" horiz-adv-x="471" d="M143 0v1434h185v-1434h-185z" />
<glyph unicode="J" horiz-adv-x="716" d="M0 20v93h184q53 0 95.5 17t71 60t44 117t15.5 185v942h184v-942q0 -145 -23.5 -243.5t-74 -158t-128 -85t-184.5 -25.5q-47 0 -96 12t-88 28z" />
<glyph unicode="K" horiz-adv-x="1003" d="M143 0v1434h185v-697l399 697h215l-420 -707l461 -727h-215l-440 717v-717h-185z" />
<glyph unicode="L" horiz-adv-x="860" d="M143 0v1434h185v-1291h512v-143h-697z" />
<glyph unicode="M" horiz-adv-x="1515" d="M113 0l82 1434h225l334 -983h8l334 983h225l82 -1434h-184l-62 1065h-10l-297 -881h-184l-297 881h-11l-61 -1065h-184z" />
<glyph unicode="N" horiz-adv-x="1105" d="M143 0v1434h205l420 -1014h10v1014h185v-1434h-205l-420 1014h-10v-1014h-185z" />
<glyph unicode="O" horiz-adv-x="1085" d="M102 717q0 215 30 357.5t87 226t138.5 118.5t185.5 35t185 -35t138.5 -118.5t87 -226t29.5 -357.5t-29.5 -357.5t-87 -226.5t-138.5 -118.5t-185 -34.5t-185.5 34.5t-138.5 118.5t-87 226.5t-30 357.5zM287 717q0 -184 21.5 -303t56 -188.5t82 -96.5t96.5 -27t96 27 t82 96.5t56.5 188t21.5 303.5q0 184 -21.5 303t-56.5 188.5t-82 96t-96 26.5t-96.5 -26.5t-82 -96t-56 -188.5t-21.5 -303z" />
<glyph unicode="P" horiz-adv-x="1003" d="M143 0v1413q78 23 157 32t171 9q123 0 209 -25.5t139 -85t78 -158t25 -243.5q0 -150 -24 -250t-72 -160.5t-120.5 -86t-173.5 -25.5q-47 0 -106 6t-98 14v-440h-185zM328 563h143q70 0 120 17.5t83 60.5t48 116.5t15 184.5t-15 184.5t-48 116.5t-83 60.5t-120 17.5h-143 v-758z" />
<glyph unicode="Q" horiz-adv-x="1105" d="M102 717q0 215 30 357.5t87 226t138.5 118.5t185.5 35t185 -35t138.5 -118.5t87 -226t29.5 -357.5q0 -240 -37 -384.5t-106 -230.5q78 0 138 -12t107 -29v-81h-542q-104 0 -185.5 34.5t-138.5 118.5t-87 226.5t-30 357.5zM287 717q0 -184 21.5 -303t56 -188.5t82 -96.5 t96.5 -27t96 27t82 96.5t56.5 188t21.5 303.5q0 184 -21.5 303t-56.5 188.5t-82 96t-96 26.5t-96.5 -26.5t-82 -96t-56 -188.5t-21.5 -303z" />
<glyph unicode="R" horiz-adv-x="1034" d="M143 0v1413q78 23 157 32t171 9q123 0 209 -24.5t139 -83t78 -152.5t25 -231q0 -104 -13.5 -180t-39 -130.5t-64.5 -88.5t-88 -52l246 -512h-205l-226 471h-204v-471h-185zM328 614h143q70 0 120 17.5t83 57.5t48 106.5t15 167.5q0 104 -15 172.5t-48 109.5t-83 58.5 t-120 17.5h-143v-707z" />
<glyph unicode="S" horiz-adv-x="911" d="M72 20v93h266q176 0 246.5 62.5t70.5 193.5q0 90 -43 141t-108.5 87t-140 68.5t-140 82t-108.5 128t-43 209.5q0 186 94 277.5t295 91.5q92 0 176 -12t131 -29v-92h-266q-246 0 -246 -236q0 -94 43 -149t108.5 -93t140.5 -70t140.5 -80t108.5 -123.5t43 -200.5 q0 -100 -24.5 -173t-79 -121t-142.5 -71.5t-215 -23.5q-92 0 -176 12t-131 28z" />
<glyph unicode="T" horiz-adv-x="880" d="M20 1290v144h840v-144h-328v-1290h-184v1290h-328z" />
<glyph unicode="U" horiz-adv-x="1064" d="M123 492v942h184v-942q0 -115 15.5 -191t44 -120t70.5 -61.5t95 -17.5t95.5 17.5t71 61.5t44 120t15.5 191v942h184v-942q0 -145 -23.5 -243.5t-73.5 -158t-128 -85t-185 -25.5q-109 0 -185.5 25.5t-126.5 85t-73.5 157.5t-23.5 244z" />
<glyph unicode="V" horiz-adv-x="1003" d="M41 1434h184l273 -1239h8l272 1239h185l-328 -1434h-266z" />
<glyph unicode="W" horiz-adv-x="1474" d="M41 1434h184l185 -1106h10l225 839h184l226 -839h10l184 1106h185l-236 -1434h-225l-232 860h-8l-231 -860h-226z" />
<glyph unicode="X" horiz-adv-x="942" d="M31 0l307 737l-277 697h185l225 -574l225 574h185l-277 -697l307 -737h-184l-256 614l-256 -614h-184z" />
<glyph unicode="Y" d="M20 1434h185l256 -727l256 727h184l-348 -983v-451h-184v451z" />
<glyph unicode="Z" horiz-adv-x="829" d="M41 0v133l532 1157h-522v144h737v-134l-532 -1157h522v-143h-737z" />
<glyph unicode="[" horiz-adv-x="532" d="M143 -369v1885h389v-123h-204v-1639h204v-123h-389z" />
<glyph unicode="\" horiz-adv-x="798" d="M0 1434h184l615 -1434h-185z" />
<glyph unicode="]" horiz-adv-x="532" d="M0 -246h205v1639h-205v123h389v-1885h-389v123z" />
<glyph unicode="^" horiz-adv-x="911" d="M61 922l308 512h174l307 -512l-133 -82l-256 409h-10l-256 -409z" />
<glyph unicode="_" horiz-adv-x="614" d="M0 0h614v-143h-614v143z" />
<glyph unicode="`" horiz-adv-x="348" d="M41 1434h195l71 -328h-123z" />
<glyph unicode="a" d="M92 307q0 96 22.5 157.5t62.5 97.5t96.5 49.5t125.5 13.5q47 0 102.5 -6.5t102.5 -14.5v92q0 70 -15.5 114t-44 68.5t-70.5 34t-95 9.5h-205v82q47 16 115.5 28t130.5 12q92 0 160.5 -14t114.5 -52t69.5 -106.5t23.5 -175.5v-696h-153l-10 61h-11q-39 -39 -96.5 -60 t-118.5 -21q-70 0 -126 13t-96 50t-62.5 100.5t-22.5 163.5zM276 307q0 -61 14.5 -101t39 -62.5t58.5 -32t73 -9.5t80 12.5t63 28.5v359h-143q-78 0 -131.5 -40t-53.5 -155z" />
<glyph unicode="b" horiz-adv-x="962" d="M143 41v1393h185v-441q47 23 95 37t109 14q80 0 143.5 -25.5t106.5 -87t65.5 -163.5t22.5 -256t-23.5 -256t-72.5 -163.5t-124 -87t-179 -25.5q-92 0 -171 15t-157 46zM328 102h143q49 0 89 17.5t67.5 63.5t43 126t15.5 203t-15.5 202t-43 125t-67.5 64.5t-89 18.5 q-39 0 -80 -12.5t-63 -28.5v-779z" />
<glyph unicode="c" horiz-adv-x="768" d="M92 512q0 154 23.5 256t70.5 163.5t118 87t167 25.5q61 0 130 -12t116 -28v-82h-205q-57 0 -101 -18.5t-74 -64.5t-45.5 -125t-15.5 -202t15.5 -203t47.5 -126t80 -63.5t113 -17.5h205v-82q-47 -16 -115.5 -28t-129.5 -12q-104 0 -179 25.5t-124.5 87t-73 163.5 t-23.5 256z" />
<glyph unicode="d" horiz-adv-x="962" d="M92 512q0 154 22.5 256t65.5 163.5t106.5 87t143.5 25.5q61 0 109.5 -14t95.5 -37v441h184v-1434h-153l-11 61h-10q-39 -39 -96 -60t-119 -21q-80 0 -143.5 25.5t-106.5 87t-65.5 163.5t-22.5 256zM276 512q0 -123 15.5 -203t43 -126t67.5 -63.5t90 -17.5q39 0 79.5 12.5 t63.5 28.5v738q-23 16 -64 28.5t-79 12.5q-49 0 -89.5 -18.5t-68 -64.5t-43 -125t-15.5 -202z" />
<glyph unicode="e" horiz-adv-x="901" d="M92 512q0 154 22.5 256t67.5 163.5t112.5 87t156.5 25.5q88 0 155.5 -25.5t112.5 -87t67.5 -163.5t22.5 -256v-61h-533q0 -100 16.5 -167t50.5 -107t88 -57.5t132 -17.5h205v-82q-47 -16 -115.5 -28t-130.5 -12q-115 0 -196.5 25.5t-134 87t-76 163.5t-23.5 256zM276 573 h349q0 104 -14.5 173t-38 110t-55.5 58.5t-66 17.5q-35 0 -67 -17.5t-55.5 -58.5t-38 -109.5t-14.5 -173.5z" />
<glyph unicode="f" horiz-adv-x="655" d="M41 870v134h123v81q0 106 21.5 175t60.5 107t91 52.5t114 14.5q23 0 53.5 -3.5t62 -9.5t61 -13t48.5 -15v-82h-184q-23 0 -48.5 -9.5t-47 -34t-35 -68.5t-13.5 -114v-81h287v-93q-47 -16 -115.5 -28.5t-130.5 -12.5h-41v-870h-184v870h-123z" />
<glyph unicode="g" horiz-adv-x="952" d="M92 512q0 154 23.5 256t73 163.5t124 87t179.5 25.5q92 0 170.5 -15t156.5 -46v-901q0 -145 -23.5 -243.5t-73.5 -158t-128 -85t-184 -25.5q-61 0 -130 12t-116 29v82h205q70 0 120 16.5t82.5 56t48 104.5t15.5 161q-47 -23 -95 -37t-110 -14q-80 0 -143.5 25.5 t-106.5 87t-65.5 163.5t-22.5 256zM276 512q0 -123 15.5 -203t43 -126t67.5 -63.5t90 -17.5q39 0 79.5 12.5t63.5 28.5v779h-143q-49 0 -89.5 -18.5t-68 -64.5t-43 -125t-15.5 -202z" />
<glyph unicode="h" horiz-adv-x="983" d="M143 0v1434h185v-441q47 23 101 37t124 14q66 0 120 -13t94 -48t61.5 -94.5t21.5 -151.5v-737h-184v737q0 53 -14.5 89t-41 57.5t-61.5 30t-78 8.5q-39 0 -80 -12.5t-63 -28.5v-881h-185z" />
<glyph unicode="i" horiz-adv-x="471" d="M143 0v1024h185v-1024h-185zM143 1167v226h185v-226h-185z" />
<glyph unicode="j" horiz-adv-x="491" d="M-123 -307h143q23 0 48.5 9t47 33.5t35 68.5t13.5 114v1106h184v-1106q0 -109 -21.5 -176.5t-60.5 -105t-91 -52t-114 -14.5q-47 0 -96 12t-88 29v82zM164 1167v226h184v-226h-184z" />
<glyph unicode="k" horiz-adv-x="890" d="M143 0v1434h185v-881l297 471h204l-317 -481l358 -543h-204l-338 532v-532h-185z" />
<glyph unicode="l" horiz-adv-x="471" d="M143 0v1434h185v-1434h-185z" />
<glyph unicode="m" horiz-adv-x="1413" d="M133 0v1024h154l10 -61h10q39 39 87 60t118 21t129 -19t100 -71q25 23 57.5 39.5t66.5 27.5t68 17t60 6q61 0 113.5 -13t91.5 -48t60.5 -94.5t21.5 -151.5v-737h-184v737q0 53 -14.5 89t-37 57.5t-52 30t-60.5 8.5q-47 0 -89 -12.5t-65 -28.5q8 -23 14.5 -60t6.5 -84 v-737h-185v737q0 53 -14 89t-36.5 57.5t-52.5 30t-60 8.5q-39 0 -75 -12.5t-59 -28.5v-881h-184z" />
<glyph unicode="n" horiz-adv-x="972" d="M133 0v1024h154l10 -61h10q39 39 96.5 60t118.5 21q74 0 132.5 -13t99.5 -48t63.5 -94.5t22.5 -151.5v-737h-185v737q0 53 -14 89t-41 57.5t-61.5 30t-77.5 8.5q-39 0 -80 -12.5t-64 -28.5v-881h-184z" />
<glyph unicode="o" horiz-adv-x="942" d="M92 512q0 150 24.5 252t73 164.5t119 89t162.5 26.5t163 -26.5t119 -89t72.5 -164.5t24.5 -252t-24.5 -252t-72.5 -164.5t-119 -89t-163 -26.5t-162.5 26.5t-119 89t-73 164.5t-24.5 252zM276 512q0 -123 16.5 -204t43 -129t61.5 -67.5t74 -19.5t74 19.5t61.5 67.5 t43 129t16.5 204t-16.5 204t-43 129t-61.5 67.5t-74 19.5t-74 -19.5t-61.5 -67.5t-43 -129t-16.5 -204z" />
<glyph unicode="p" horiz-adv-x="952" d="M133 -410v1434h154l10 -61h10q39 39 96.5 60t118.5 21q80 0 143.5 -25.5t106.5 -87t65.5 -163.5t22.5 -256t-22.5 -256t-65.5 -163.5t-106.5 -87t-143.5 -25.5q-61 0 -109 14t-96 37v-441h-184zM317 143q23 -16 64 -28.5t80 -12.5q49 0 89 17.5t67.5 63.5t43 126 t15.5 203t-15.5 202t-43 125t-67.5 64.5t-89 18.5q-39 0 -80 -12.5t-64 -28.5v-738z" />
<glyph unicode="q" horiz-adv-x="952" d="M92 512q0 154 23.5 256t73 163.5t124 87t179.5 25.5q92 0 170.5 -15t156.5 -46v-1393h-184v441q-47 -23 -95 -37t-110 -14q-80 0 -143.5 25.5t-106.5 87t-65.5 163.5t-22.5 256zM276 512q0 -123 15.5 -203t43 -126t67.5 -63.5t90 -17.5q39 0 79.5 12.5t63.5 28.5v779 h-143q-49 0 -89.5 -18.5t-68 -64.5t-43 -125t-15.5 -202z" />
<glyph unicode="r" horiz-adv-x="686" d="M133 0v1024h156l10 -82h10q37 31 99.5 56.5t154.5 25.5h103v-154h-205q-39 0 -76 -9t-68 -32v-829h-184z" />
<glyph unicode="s" horiz-adv-x="808" d="M72 778q0 154 92 210t276 56q61 0 130 -12t116 -28v-82h-205q-109 0 -167 -33t-58 -111q0 -61 36 -97t89 -62.5t115.5 -50t116 -60.5t89 -93.5t35.5 -148.5q0 -84 -23.5 -139t-73.5 -88t-128 -46t-184 -13q-61 0 -130 12t-116 28v82h205q139 0 202.5 36t63.5 128 q0 61 -36 97t-89 63t-115.5 50.5t-116 60t-89 93t-35.5 148.5z" />
<glyph unicode="t" horiz-adv-x="706" d="M41 870v134h123v245h184v-245h287v-93q-47 -16 -115.5 -28.5t-130.5 -12.5h-41v-542q0 -70 13.5 -114t35 -68.5t47 -34t48.5 -9.5h184v-82q-18 -8 -48 -15t-61.5 -13t-62.5 -9t-53 -3q-61 0 -113.5 14t-91.5 52t-60.5 105.5t-21.5 176.5v542h-123z" />
<glyph unicode="u" horiz-adv-x="972" d="M133 287v737h184v-737q0 -53 14.5 -89t41 -57.5t61.5 -30t78 -8.5q39 0 80 12.5t63 28.5v881h185v-1024h-154l-10 61h-10q-39 -39 -96.5 -60t-118.5 -21q-74 0 -132.5 13t-99.5 48t-63.5 94.5t-22.5 151.5z" />
<glyph unicode="v" horiz-adv-x="880" d="M31 1024h174l231 -850h8l232 850h174l-277 -1024h-266z" />
<glyph unicode="w" horiz-adv-x="1249" d="M31 1024h174l141 -778h10l187 573h164l186 -573h10l141 778h175l-185 -1024h-225l-180 553h-8l-181 -553h-225z" />
<glyph unicode="x" horiz-adv-x="819" d="M31 0l256 522l-248 502h184l187 -379l186 379h184l-248 -502l256 -522h-184l-194 399l-195 -399h-184z" />
<glyph unicode="y" horiz-adv-x="972" d="M133 287v737h184v-737q0 -53 14.5 -89t41 -57.5t61.5 -30t78 -8.5q39 0 80 12.5t63 28.5v881h185v-942q0 -145 -23.5 -243.5t-74 -158t-128 -85t-184.5 -25.5q-61 0 -130 12t-116 29v82h205q70 0 120 16.5t83 56t48 104t15 161.5q-47 -23 -95 -37t-109 -14 q-74 0 -132.5 13t-99.5 48t-63.5 94.5t-22.5 151.5z" />
<glyph unicode="z" horiz-adv-x="757" d="M41 0v123l461 768h-441v133h656v-123l-459 -768h449v-133h-666z" />
<glyph unicode="{" horiz-adv-x="593" d="M41 512v123q39 12 68.5 30.5t51 49t33 76t11.5 110.5v266q0 106 23.5 175t71.5 107t121 52.5t173 14.5v-123q-47 0 -84 -9.5t-64.5 -34t-42 -68.5t-14.5 -114v-225q0 -84 -11 -141.5t-32.5 -97t-51.5 -68.5t-69 -57v-9q39 -29 69 -58.5t51.5 -69.5t32.5 -96t11 -140v-225 q0 -70 14.5 -114t42 -68.5t64.5 -34t84 -9.5v-123q-100 0 -173 14.5t-121 52.5t-71.5 105.5t-23.5 176.5v266q0 66 -11.5 110.5t-33 75.5t-51 49.5t-68.5 30.5z" />
<glyph unicode="|" horiz-adv-x="471" d="M143 -410v1844h185v-1844h-185z" />
<glyph unicode="}" horiz-adv-x="593" d="M0 -246q45 0 83 9.5t65.5 34t42 68.5t14.5 114v225q0 84 11 140t32.5 96t51.5 70t69 58v9q-39 29 -69 57.5t-51.5 68t-32.5 97t-11 141.5v225q0 70 -14.5 114t-42 68.5t-65.5 34t-83 9.5v123q100 0 173 -14.5t121 -52.5t71.5 -106.5t23.5 -175.5v-266q0 -66 11.5 -111 t33 -75.5t51 -49t68.5 -30.5v-123q-39 -12 -68.5 -30.5t-51 -49.5t-33 -76t-11.5 -110v-266q0 -109 -23.5 -176.5t-71.5 -105.5t-121 -52.5t-173 -14.5v123z" />
<glyph unicode="~" d="M61 737h144q0 -70 24.5 -111.5t77.5 -41.5q35 0 61.5 25.5t58.5 56t75 56.5t112 26q137 0 191.5 -88.5t54.5 -249.5h-143q0 70 -24.5 111.5t-78.5 41.5q-35 0 -61.5 -25.5t-58 -56t-74.5 -56.5t-113 -26t-117 22.5t-75.5 65.5t-41 106.5t-12.5 143.5z" />
<glyph unicode="&#xa2;" horiz-adv-x="768" d="M92 512q0 143 20.5 241.5t60.5 161t101.5 92t145.5 35.5v125h123v-127q47 -6 93 -16t81 -20v-82h-174v-820h194v-82q-37 -12 -89 -23t-105 -15v-105h-123v107q-86 8 -147.5 38.5t-101.5 93t-59.5 160t-19.5 236.5zM276 512q0 -186 35 -275.5t109 -117.5v788 q-72 -27 -108 -116t-36 -279z" />
<glyph unicode="&#xa3;" horiz-adv-x="849" d="M72 655v144h123v225q0 137 23.5 222t73.5 131t127 61.5t185 15.5q47 0 96.5 -12t87.5 -29v-92h-184q-53 0 -95 -10.5t-70.5 -42t-44 -90t-15.5 -154.5v-225h307v-144h-307v-176q0 -154 -27.5 -225.5t-75.5 -101.5v-9h533v-143h-717v102q47 31 75 102.5t28 225.5v225h-123 z" />
<glyph unicode="&#xa5;" d="M20 1434h185l256 -727l256 727h184l-215 -605h113v-143h-164l-43 -123h207v-143h-246v-420h-184v420h-246v143h205l-43 123h-162v143h110z" />
<glyph unicode="&#xa8;" horiz-adv-x="593" d="M41 1188v225h184v-225h-184zM369 1188v225h184v-225h-184z" />
<glyph unicode="&#xa9;" horiz-adv-x="1658" d="M92 717q0 176 52.5 316.5t147.5 238.5t231 150.5t306 52.5q168 0 305.5 -52.5t232.5 -150.5t147.5 -238.5t52.5 -316.5t-52.5 -316.5t-147.5 -239t-232.5 -150.5t-305.5 -52q-170 0 -306 52t-231 150.5t-147.5 239t-52.5 316.5zM276 717q0 -154 40 -272.5t114 -198.5 t175.5 -122t223.5 -42q123 0 224.5 42t175.5 122t113.5 198.5t39.5 272.5t-39.5 272.5t-113.5 198.5t-175.5 122t-224.5 42t-224 -42t-175 -122t-114 -199t-40 -272zM502 717q0 145 22.5 234t66.5 137.5t109.5 63.5t149.5 15q70 0 129 -12t106 -29v-82h-194q-53 0 -95 -11 t-71 -45t-44 -99.5t-15 -171.5q0 -109 15 -173.5t44 -98t71 -45t95 -11.5h215v-82q-47 -16 -116.5 -28.5t-139.5 -12.5q-84 0 -149.5 15.5t-109.5 63.5t-66.5 137.5t-22.5 234.5z" />
<glyph unicode="&#xab;" horiz-adv-x="890" d="M41 512l317 420l134 -82l-246 -334v-8l246 -334l-134 -82zM379 512l317 420l133 -82l-245 -334v-8l245 -334l-133 -82z" />
<glyph unicode="&#xad;" horiz-adv-x="737" d="M61 543v143h615v-143h-615z" />
<glyph unicode="&#xae;" horiz-adv-x="1658" d="M92 717q0 176 52.5 316.5t147.5 238.5t231 150.5t306 52.5q168 0 305.5 -52.5t232.5 -150.5t147.5 -238.5t52.5 -316.5t-52.5 -316.5t-147.5 -239t-232.5 -150.5t-305.5 -52q-170 0 -306 52t-231 150.5t-147.5 239t-52.5 316.5zM276 717q0 -154 40 -272.5t114 -198.5 t175.5 -122t223.5 -42q123 0 224.5 42t175.5 122t113.5 198.5t39.5 272.5t-39.5 272.5t-113.5 198.5t-175.5 122t-224.5 42t-224 -42t-175 -122t-114 -199t-40 -272zM543 287v839q53 16 118.5 28.5t157.5 12.5q76 0 137.5 -13t103.5 -46t64.5 -88t22.5 -139 q0 -61 -13.5 -103.5t-35 -70t-47 -44t-47.5 -28.5l163 -348h-174l-143 307h-143v-307h-164zM707 717h112q61 0 112.5 35.5t51.5 128.5q0 92 -51 127.5t-113 35.5h-112v-327z" />
<glyph unicode="&#xb4;" horiz-adv-x="348" d="M41 1147l72 266h194l-143 -266h-123z" />
<glyph unicode="&#xb8;" horiz-adv-x="409" d="M41 -246h133q61 0 62 51q0 51 -62 52h-113v174h103v-82h31q86 0 130 -41t44 -103q0 -61 -44 -102t-130 -41q-35 0 -63 4t-48 10q-23 8 -43 17v61z" />
<glyph unicode="&#xbb;" horiz-adv-x="890" d="M61 174l246 334v8l-246 334l134 82l317 -420l-317 -420zM399 174l246 334v8l-246 334l133 82l318 -420l-318 -420z" />
<glyph unicode="&#x2c6;" horiz-adv-x="583" d="M41 1126l154 267h194l154 -267h-123l-129 152l-127 -152h-123z" />
<glyph unicode="&#x2dc;" horiz-adv-x="573" d="M41 1372h102q0 -92 52 -92q18 0 33.5 19.5t34 42t43 42t63.5 19.5q86 0 124.5 -49t38.5 -166h-102q0 92 -51 92q-18 0 -33.5 -19.5t-34 -42t-43 -42t-63.5 -19.5q-86 0 -125 49t-39 166z" />
<glyph unicode="&#x401;" d="M143 0v1434h697v-144h-512v-471h450v-143h-450v-533h512v-143h-697zM225 1577v225h185v-225h-185zM553 1577v225h184v-225h-184z" />
<glyph unicode="&#x402;" horiz-adv-x="1136" d="M0 1290v144h737v-144h-297v-409q39 8 101.5 14t124.5 6q193 0 285.5 -95t92.5 -304v-174q0 -184 -74.5 -266t-211.5 -82q-31 0 -72 9t-72 31v82h103q61 0 102 51.5t41 174.5v174q0 131 -64.5 193.5t-211.5 62.5h-144v-758h-184v1290h-256z" />
<glyph unicode="&#x403;" horiz-adv-x="839" d="M143 0v1434h656v-144h-471v-1290h-185zM389 1536l72 266h194l-143 -266h-123z" />
<glyph unicode="&#x404;" horiz-adv-x="890" d="M102 717q0 215 30 357.5t85 226t135 118.5t180 35q92 0 176.5 -12t131.5 -29v-92h-267q-57 0 -108 -25.5t-89 -85t-61.5 -158t-27.5 -243.5h430v-143h-430q4 -162 26.5 -268.5t61.5 -170t94 -89t125 -25.5h266v-93q-47 -16 -131 -28t-176 -12q-109 0 -191.5 34.5 t-141 118.5t-88.5 226.5t-30 357.5z" />
<glyph unicode="&#x405;" horiz-adv-x="911" d="M72 20v93h266q176 0 246.5 62.5t70.5 193.5q0 90 -43 141t-108.5 87t-140 68.5t-140 82t-108.5 128t-43 209.5q0 186 94 277.5t295 91.5q92 0 176 -12t131 -29v-92h-266q-246 0 -246 -236q0 -94 43 -149t108.5 -93t140.5 -70t140.5 -80t108.5 -123.5t43 -200.5 q0 -100 -24.5 -173t-79 -121t-142.5 -71.5t-215 -23.5q-92 0 -176 12t-131 28z" />
<glyph unicode="&#x406;" horiz-adv-x="471" d="M143 0v1434h185v-1434h-185z" />
<glyph unicode="&#x407;" horiz-adv-x="471" d="M-20 1577v225h184v-225h-184zM143 0v1434h185v-1434h-185zM307 1577v225h185v-225h-185z" />
<glyph unicode="&#x408;" horiz-adv-x="716" d="M0 20v93h184q53 0 95.5 17t71 60t44 117t15.5 185v942h184v-942q0 -145 -23.5 -243.5t-74 -158t-128 -85t-184.5 -25.5q-47 0 -96 12t-88 28z" />
<glyph unicode="&#x409;" horiz-adv-x="1617" d="M0 0v92q43 0 78 16.5t61.5 56.5t44 104.5t21.5 160.5l51 1004h686v-584q39 8 98.5 14t106.5 6q199 0 294 -102t95 -348q0 -119 -24.5 -203t-78 -136t-139.5 -76.5t-209 -24.5q-92 0 -170.5 9t-156.5 31v1270h-324l-45 -860q-6 -123 -29.5 -209t-59.5 -139t-82 -77.5 t-95 -24.5q-51 0 -88 10q-20 4 -35 10zM942 113h143q139 0 203 68.5t64 238.5t-63.5 238.5t-203.5 68.5h-143v-614z" />
<glyph unicode="&#x40a;" horiz-adv-x="1617" d="M143 0v1434h185v-605h430v605h184v-625q39 8 98.5 14t106.5 6q201 0 295 -99t94 -331q0 -111 -24.5 -190.5t-78 -130.5t-139.5 -74.5t-209 -23.5q-92 0 -170.5 8t-154.5 30l-2 -18v686h-430v-686h-185zM942 113h143q139 0 203 66.5t64 219.5q0 154 -63.5 220.5 t-203.5 66.5h-143v-573z" />
<glyph unicode="&#x40b;" horiz-adv-x="1146" d="M0 1290v144h737v-144h-297v-409q39 8 102 14t124 6q193 0 285.5 -95t92.5 -304v-502h-184v502q0 131 -64.5 193.5t-211.5 62.5h-144v-758h-184v1290h-256z" />
<glyph unicode="&#x40c;" horiz-adv-x="1013" d="M143 0v1434h185v-615h71q53 0 100.5 39t73.5 146l52 204q61 246 235 246q27 0 49.5 -3t38.5 -7q20 -6 35 -10v-93q-78 0 -112.5 -35.5t-51.5 -97.5l-51 -204q-16 -63 -33.5 -107.5t-40 -73t-49.5 -45t-61 -26.5v-9q39 -10 70.5 -26.5t57 -45t45 -72.5t31.5 -107l52 -267 q10 -53 48 -93t116 -40v-92q-14 -6 -35 -10q-37 -10 -88 -10q-92 0 -152.5 61t-83.5 184l-51 267q-20 109 -72.5 146.5t-122.5 37.5h-71v-676h-185zM451 1516l71 266h195l-144 -266h-122z" />
<glyph unicode="&#x40e;" horiz-adv-x="942" d="M0 1434h184l226 -779q33 -113 143 -112l164 891h184l-205 -1106q-35 -184 -112.5 -266t-214.5 -82q-47 0 -102.5 12t-102.5 28v93h143q43 0 77 14t61.5 49t48 92.5t32.5 141.5q-119 0 -192.5 64.5t-108.5 180.5zM184 1690l82 82q31 -31 83 -62t122 -31t122 31t83 62 l82 -82q-39 -70 -113 -112t-174 -42t-174 42t-113 112z" />
<glyph unicode="&#x40f;" horiz-adv-x="1085" d="M143 0v1434h185v-1291h430v1291h184v-1434h-307l-31 -307h-123l-30 307h-308z" />
<glyph unicode="&#x410;" horiz-adv-x="1044" d="M41 0l348 1434h266l349 -1434h-185l-92 369h-410l-92 -369h-184zM348 512h348l-170 717h-8z" />
<glyph unicode="&#x411;" horiz-adv-x="1003" d="M143 20v1414h717v-144h-532v-420h143q123 0 209 -24.5t139 -77.5t78 -139t25 -209q0 -119 -25 -203t-78 -136t-139 -76.5t-209 -24.5q-92 0 -171 9t-157 31zM328 113h143q139 0 202.5 68.5t63.5 238.5t-63.5 238.5t-202.5 68.5h-143v-614z" />
<glyph unicode="&#x412;" horiz-adv-x="1024" d="M143 20v1393q78 23 157 32t171 9q217 0 313.5 -93t96.5 -286q0 -92 -36 -172t-128 -131v-8q123 -35 174 -135.5t51 -239.5q0 -109 -24.5 -185.5t-80 -126.5t-145.5 -73.5t-221 -23.5q-92 0 -171 9t-157 31zM328 113h143q154 0 220.5 64.5t66.5 211.5q0 162 -66.5 229.5 t-220.5 67.5h-143v-573zM328 819h123q246 0 245 256q0 246 -245 246h-123v-502z" />
<glyph unicode="&#x413;" horiz-adv-x="839" d="M143 0v1434h656v-144h-471v-1290h-185z" />
<glyph unicode="&#x414;" horiz-adv-x="1116" d="M20 143h103q25 45 47 107q18 53 34.5 131t20.5 182l41 871h666v-1291h133v-450h-113q-47 123 -61 307h-696q-16 -184 -62 -307h-113v450zM307 143h441v1147h-304l-34 -727q-4 -104 -20.5 -182t-35.5 -131q-23 -61 -47 -107z" />
<glyph unicode="&#x415;" d="M143 0v1434h697v-144h-512v-471h450v-143h-450v-533h512v-143h-697z" />
<glyph unicode="&#x416;" horiz-adv-x="1515" d="M10 0v92q78 0 116 40t48 93l51 267q12 63 31.5 107t45.5 72.5t57.5 45t70.5 26.5v9q-35 10 -61.5 26.5t-49 45t-40 72.5t-33.5 108l-51 204q-16 61 -51 97t-113 36v93l35 10q16 4 37.5 7t50.5 3q174 0 235 -246l51 -204q27 -106 74 -145.5t100 -39.5h52v615h184v-615h51 q53 0 100.5 39t73.5 146l51 204q61 246 236 246q27 0 49.5 -3t38.5 -7q20 -6 35 -10v-93q-78 0 -113 -35.5t-51 -97.5l-51 -204q-16 -63 -33.5 -107.5t-40 -73t-49.5 -45t-62 -26.5v-9q39 -10 71 -26.5t57.5 -45t45 -72.5t31.5 -107l51 -267q10 -53 48 -93t116 -40v-92 q-14 -6 -35 -10q-37 -10 -88 -10q-92 0 -152.5 61t-82.5 184l-51 267q-20 109 -72.5 146.5t-122.5 37.5h-51v-676h-184v676h-52q-70 0 -122 -38t-72 -146l-51 -267q-47 -246 -236 -245q-51 0 -88 10q-20 4 -35 10z" />
<glyph unicode="&#x417;" horiz-adv-x="870" d="M31 20v93h286q154 0 220.5 64.5t66.5 211.5q0 154 -66.5 220.5t-220.5 66.5h-143v143h123q139 0 202.5 62.5t63.5 193.5q0 123 -63.5 184.5t-202.5 61.5h-246v92q23 8 55.5 15.5t69.5 13.5t74 9t67 3q231 0 331 -93t100 -286q0 -123 -46.5 -196.5t-138.5 -116.5v-8 q123 -35 174 -134.5t51 -230.5q0 -109 -24.5 -185.5t-79.5 -126.5t-145 -73.5t-222 -23.5q-78 0 -158.5 12t-127.5 28z" />
<glyph unicode="&#x418;" horiz-adv-x="1105" d="M143 0v1434h185v-1065h10l410 1065h215v-1434h-185v1065h-10l-420 -1065h-205z" />
<glyph unicode="&#x419;" horiz-adv-x="1105" d="M143 0v1434h185v-1065h10l410 1065h215v-1434h-185v1065h-10l-420 -1065h-205zM266 1710l82 82q31 -31 83 -61.5t122 -30.5t122 30.5t83 61.5l82 -82q-39 -70 -113 -112t-174 -42t-174 42t-113 112z" />
<glyph unicode="&#x41a;" horiz-adv-x="1013" d="M143 0v1434h185v-615h71q53 0 100.5 39t73.5 146l52 204q61 246 235 246q27 0 49.5 -3t38.5 -7q20 -6 35 -10v-93q-78 0 -112.5 -35.5t-51.5 -97.5l-51 -204q-16 -63 -33.5 -107.5t-40 -73t-49.5 -45t-61 -26.5v-9q39 -10 70.5 -26.5t57 -45t45 -72.5t31.5 -107l52 -267 q10 -53 48 -93t116 -40v-92q-14 -6 -35 -10q-37 -10 -88 -10q-92 0 -152.5 61t-83.5 184l-51 267q-20 109 -72.5 146.5t-122.5 37.5h-71v-676h-185z" />
<glyph unicode="&#x41b;" horiz-adv-x="1085" d="M0 0v92q43 0 78 16.5t61.5 56.5t44 104.5t21.5 160.5l51 1004h686v-1434h-184v1290h-324l-45 -860q-6 -123 -29.5 -209t-59.5 -139t-82 -77.5t-95 -24.5q-51 0 -88 10q-20 4 -35 10z" />
<glyph unicode="&#x41c;" horiz-adv-x="1515" d="M113 0l82 1434h225l334 -983h8l334 983h225l82 -1434h-184l-62 1065h-10l-297 -881h-184l-297 881h-11l-61 -1065h-184z" />
<glyph unicode="&#x41d;" horiz-adv-x="1085" d="M143 0v1434h185v-635h430v635h184v-1434h-184v655h-430v-655h-185z" />
<glyph unicode="&#x41e;" horiz-adv-x="1085" d="M102 717q0 215 30 357.5t87 226t138.5 118.5t185.5 35t185 -35t138.5 -118.5t87 -226t29.5 -357.5t-29.5 -357.5t-87 -226.5t-138.5 -118.5t-185 -34.5t-185.5 34.5t-138.5 118.5t-87 226.5t-30 357.5zM287 717q0 -184 21.5 -303t56 -188.5t82 -96.5t96.5 -27t96 27 t82 96.5t56.5 188t21.5 303.5q0 184 -21.5 303t-56.5 188.5t-82 96t-96 26.5t-96.5 -26.5t-82 -96t-56 -188.5t-21.5 -303z" />
<glyph unicode="&#x41f;" horiz-adv-x="1085" d="M143 0v1434h799v-1434h-184v1290h-430v-1290h-185z" />
<glyph unicode="&#x420;" horiz-adv-x="1003" d="M143 0v1413q78 23 157 32t171 9q123 0 209 -25.5t139 -85t78 -158t25 -243.5q0 -150 -24 -250t-72 -160.5t-120.5 -86t-173.5 -25.5q-47 0 -106 6t-98 14v-440h-185zM328 563h143q70 0 120 17.5t83 60.5t48 116.5t15 184.5t-15 184.5t-48 116.5t-83 60.5t-120 17.5h-143 v-758z" />
<glyph unicode="&#x421;" horiz-adv-x="890" d="M102 717q0 215 30 357.5t85 226t135 118.5t180 35q92 0 176.5 -12t131.5 -29v-92h-267q-61 0 -113 -26.5t-91 -95.5t-60.5 -185.5t-21.5 -296.5t22.5 -297t62.5 -185.5t96 -95t126 -26.5h266v-93q-47 -16 -131 -28t-176 -12q-109 0 -191.5 34.5t-141 118.5t-88.5 226.5 t-30 357.5z" />
<glyph unicode="&#x422;" horiz-adv-x="880" d="M20 1290v144h840v-144h-328v-1290h-184v1290h-328z" />
<glyph unicode="&#x423;" horiz-adv-x="952" d="M0 1434h184l215 -779q33 -113 148 -112l180 891h184l-223 -1106q-37 -184 -114 -266t-214 -82q-47 0 -102 12t-102 28v93h143q41 0 75 13t60.5 47t47 91.5t38.5 145.5q-129 0 -201.5 65.5t-103.5 179.5z" />
<glyph unicode="&#x424;" horiz-adv-x="1413" d="M61 717q0 141 39 252.5t111 189.5t174 121t229 51v144h185v-144q127 -8 229 -51t174 -121t111 -189.5t39 -252.5t-39 -253t-111 -189.5t-174 -120.5t-229 -52v-143h-185v143q-127 8 -229 51.5t-174 121t-111 189t-39 253.5zM246 717q0 -115 28.5 -203t78.5 -148.5 t117 -93t144 -36.5v962q-78 -4 -144.5 -37t-116.5 -93t-78.5 -148t-28.5 -203zM799 236q76 4 143.5 36.5t117.5 93t78.5 148.5t28.5 203t-28.5 203t-78.5 148t-118 93t-143 37v-962z" />
<glyph unicode="&#x425;" horiz-adv-x="942" d="M31 0l307 737l-277 697h185l225 -574l225 574h185l-277 -697l307 -737h-184l-256 614l-256 -614h-184z" />
<glyph unicode="&#x426;" horiz-adv-x="1105" d="M143 0v1434h185v-1291h409v1291h185v-1291h133v-450h-113q-47 123 -61 307h-738z" />
<glyph unicode="&#x427;" horiz-adv-x="1034" d="M102 932v502h185v-502q0 -131 64.5 -193.5t211.5 -62.5h144v758h184v-1434h-184v553q-39 -8 -102 -14.5t-124 -6.5q-193 0 -286 95.5t-93 304.5z" />
<glyph unicode="&#x428;" horiz-adv-x="1536" d="M143 0v1434h185v-1291h348v1291h184v-1291h348v1291h185v-1434h-1250z" />
<glyph unicode="&#x429;" horiz-adv-x="1576" d="M143 0v1434h185v-1291h348v1291h184v-1291h348v1291h185v-1291h133v-450h-113q-47 123 -61 307h-1209z" />
<glyph unicode="&#x42a;" horiz-adv-x="1126" d="M41 1290v144h410v-584q39 8 98 14t106 6q199 0 294 -102t95 -348q0 -119 -24.5 -203t-77.5 -136t-139 -76.5t-209 -24.5q-92 0 -171 9t-157 31v1270h-225zM451 113h143q139 0 202.5 68.5t63.5 238.5t-63.5 238.5t-202.5 68.5h-143v-614z" />
<glyph unicode="&#x42b;" horiz-adv-x="1413" d="M143 20v1414h185v-584q39 8 98 14t106 6q193 0 286 -102t93 -348q0 -119 -24.5 -203t-76.5 -136t-136 -76.5t-203 -24.5q-92 0 -171 9t-157 31zM328 113h143q131 0 193.5 68.5t62.5 238.5t-62.5 238.5t-193.5 68.5h-143v-614zM1085 0v1434h185v-1434h-185z" />
<glyph unicode="&#x42c;" horiz-adv-x="1003" d="M143 20v1414h185v-584q39 8 98 14t106 6q199 0 294.5 -102t95.5 -348q0 -119 -25 -203t-78 -136t-139 -76.5t-209 -24.5q-92 0 -171 9t-157 31zM328 113h143q139 0 202.5 68.5t63.5 238.5t-63.5 238.5t-202.5 68.5h-143v-614z" />
<glyph unicode="&#x42d;" horiz-adv-x="890" d="M31 20v93h266q70 0 125 25.5t94 89t61.5 170t26.5 268.5h-430v143h430q-4 145 -27.5 243.5t-62.5 158t-89 85t-108 25.5h-266v92q47 16 131 28.5t176 12.5q100 0 180 -35t135.5 -118.5t85 -226t29.5 -357.5t-29.5 -357.5t-88 -226.5t-142.5 -118.5t-190 -34.5 q-92 0 -176 12t-131 28z" />
<glyph unicode="&#x42e;" horiz-adv-x="1443" d="M143 0v1434h185v-635h153q12 188 44 314t86.5 202t129 107.5t170.5 31.5q100 0 180 -35t135.5 -118.5t85 -226t29.5 -357.5t-29.5 -357.5t-85 -226.5t-135 -118.5t-180.5 -34.5q-96 0 -170.5 31.5t-129 109.5t-86 208t-44.5 326h-153v-655h-185zM666 717 q0 -184 21.5 -303t55 -188.5t77.5 -96.5t91 -27q45 0 90.5 27t79 96.5t55 188t21.5 303.5q0 184 -21.5 303t-55 188.5t-79 96t-90.5 26.5q-47 0 -91 -26.5t-77.5 -96t-55 -188.5t-21.5 -303z" />
<glyph unicode="&#x42f;" horiz-adv-x="1024" d="M20 0v92q78 0 113 36t51 97l41 174q23 100 62 155.5t92 72.5v8q-49 8 -99.5 34.5t-89 75t-63.5 118t-25 161.5q0 115 25 197t78 134t139 75.5t209 23.5q92 0 171 -9t157 -32v-1413h-185v584h-82q-61 0 -114.5 -39t-79.5 -146l-41 -174q-61 -246 -236 -245q-47 0 -84 10 q-20 4 -39 10zM287 1024q0 -162 63.5 -229.5t202.5 -67.5h143v594h-143q-139 0 -202.5 -67.5t-63.5 -229.5z" />
<glyph unicode="&#x430;" d="M92 307q0 96 22.5 157.5t62.5 97.5t96.5 49.5t125.5 13.5q47 0 102.5 -6.5t102.5 -14.5v92q0 70 -15.5 114t-44 68.5t-70.5 34t-95 9.5h-205v82q47 16 115.5 28t130.5 12q92 0 160.5 -14t114.5 -52t69.5 -106.5t23.5 -175.5v-696h-153l-10 61h-11q-39 -39 -96.5 -60 t-118.5 -21q-70 0 -126 13t-96 50t-62.5 100.5t-22.5 163.5zM276 307q0 -61 14.5 -101t39 -62.5t58.5 -32t73 -9.5t80 12.5t63 28.5v359h-143q-78 0 -131.5 -40t-53.5 -155z" />
<glyph unicode="&#x431;" horiz-adv-x="972" d="M113 481v338q0 176 26.5 294t87 189.5t158.5 103.5t240 38l225 10l10 -82q-53 -23 -116.5 -43t-149.5 -29q-78 -8 -133 -30.5t-92 -65.5t-54.5 -109.5t-17.5 -162.5q47 23 96 37t119 14q88 0 155.5 -25.5t112.5 -84t67.5 -154.5t22.5 -238q0 -141 -23.5 -237.5 t-70.5 -154.5t-117.5 -83.5t-166.5 -25.5t-167 25.5t-118 83.5t-70.5 154.5t-23.5 237.5zM297 481q0 -115 14.5 -190.5t41 -119.5t61.5 -61.5t78 -17.5t77.5 17.5t61 61.5t41 120t14.5 190q0 111 -15.5 184.5t-45 116.5t-73.5 60.5t-101 17.5q-47 0 -89.5 -12t-64.5 -29 v-338z" />
<glyph unicode="&#x432;" d="M133 20v984q78 23 153.5 31.5t153.5 8.5q88 0 156 -13t113 -46t67.5 -88t22.5 -139q0 -49 -12.5 -85t-33 -60.5t-46 -40t-52.5 -25.5v-8q35 -10 68 -28.5t59.5 -49.5t42 -74t15.5 -100q0 -92 -23.5 -151.5t-71 -94.5t-118 -48t-166.5 -13q-92 0 -171 9t-157 31zM317 102 h144q92 0 143 38t51 147t-51 146.5t-143 37.5h-144v-369zM317 594h123q78 0 126 36t48 128t-48 128t-126 36h-123v-328z" />
<glyph unicode="&#x433;" horiz-adv-x="747" d="M133 0v1024h594v-133h-410v-891h-184z" />
<glyph unicode="&#x434;" horiz-adv-x="1013" d="M20 133h93q23 35 54.5 104.5t37.5 192.5l31 594h604v-891h123v-430h-113q-23 61 -38 140t-24 157h-593q-8 -78 -23.5 -157t-38.5 -140h-113v430zM297 133h358v758h-241l-25 -461q-6 -123 -38 -192.5t-54 -104.5z" />
<glyph unicode="&#x435;" horiz-adv-x="901" d="M92 512q0 154 22.5 256t67.5 163.5t112.5 87t156.5 25.5q88 0 155.5 -25.5t112.5 -87t67.5 -163.5t22.5 -256v-61h-533q0 -100 16.5 -167t50.5 -107t88 -57.5t132 -17.5h205v-82q-47 -16 -115.5 -28t-130.5 -12q-115 0 -196.5 25.5t-134 87t-76 163.5t-23.5 256zM276 573 h349q0 104 -14.5 173t-38 110t-55.5 58.5t-66 17.5q-35 0 -67 -17.5t-55.5 -58.5t-38 -109.5t-14.5 -173.5z" />
<glyph unicode="&#x436;" horiz-adv-x="1314" d="M20 0v82q61 0 88 20.5t35 51.5l52 194q27 100 68.5 139t96.5 52v8q-47 12 -79.5 50t-65.5 130l-51 143q-10 31 -36 51.5t-87 20.5v82q16 4 37 10q16 4 35.5 7t40.5 3q86 0 129 -41.5t75 -132.5l52 -143q25 -70 53.5 -96.5t60.5 -26.5h41v420h185v-420h41q33 0 61.5 26.5 t52.5 96.5l51 143q33 90 76 132t129 42q18 0 39 -3t37 -7q20 -6 37 -10v-82q-61 0 -87 -20.5t-36 -51.5l-51 -143q-33 -92 -66 -130t-80 -50v-8q55 -12 97.5 -51t68.5 -140l51 -194q8 -31 35 -51.5t88 -20.5v-82q-14 -6 -32 -10q-35 -10 -80 -10q-86 0 -134.5 44t-70.5 130 l-51 194q-35 123 -135 123h-41v-471h-185v471h-41q-47 0 -82.5 -30.5t-52.5 -92.5l-51 -194q-23 -86 -71 -130t-134 -44q-45 0 -80 10q-18 4 -33 10z" />
<glyph unicode="&#x437;" horiz-adv-x="778" d="M31 20v82h245q117 0 176.5 38t59.5 147q0 106 -52 145t-122 39h-174v123h153q70 0 122.5 36t52.5 128t-59.5 128t-176.5 36h-205v82q47 16 116 28t130 12q96 0 167 -13t118 -46t70.5 -88t23.5 -139q0 -49 -14.5 -85t-37 -60.5t-52 -40t-60.5 -25.5v-8q35 -10 67.5 -28.5 t59.5 -49.5t42 -74t15 -100q0 -92 -23.5 -151.5t-74.5 -94.5t-131 -48t-191 -13q-61 0 -129.5 12t-115.5 28z" />
<glyph unicode="&#x438;" horiz-adv-x="983" d="M133 0v1024h184v-696h11l307 696h215v-1024h-184v717h-11l-327 -717h-195z" />
<glyph unicode="&#x439;" horiz-adv-x="983" d="M133 0v1024h184v-696h11l307 696h215v-1024h-184v717h-11l-327 -717h-195zM205 1290l82 82q31 -31 82 -56.5t112 -25.5t112.5 25.5t82.5 56.5l82 -82q-39 -61 -107.5 -102t-169.5 -41q-100 0 -168.5 41t-107.5 102z" />
<glyph unicode="&#x43a;" horiz-adv-x="911" d="M133 0v1024h184v-420h70q33 0 61.5 26.5t53.5 96.5l51 143q33 90 76 132t129 42q18 0 38.5 -3t37.5 -7q20 -6 36 -10v-82q-61 0 -86.5 -20.5t-35.5 -51.5l-52 -143q-33 -92 -65.5 -130t-79.5 -50v-8q55 -12 97 -51t69 -140l51 -194q8 -31 34.5 -51.5t88.5 -20.5v-82 q-14 -6 -33 -10q-35 -10 -80 -10q-86 0 -134 44t-71 130l-51 194q-35 123 -135 123h-70v-471h-184z" />
<glyph unicode="&#x43b;" horiz-adv-x="964" d="M0 0v82q61 0 108.5 57.5t55.5 188.5l41 696h626v-1024h-184v891h-266l-33 -563q-10 -184 -76.5 -266t-158.5 -82q-47 0 -79 10t-34 10z" />
<glyph unicode="&#x43c;" horiz-adv-x="1290" d="M113 0l71 1024h215l242 -645h8l242 645h215l72 -1024h-174l-52 727h-10l-215 -573h-164l-215 573h-10l-51 -727h-174z" />
<glyph unicode="&#x43d;" horiz-adv-x="972" d="M133 0v1024h184v-440h338v440h185v-1024h-185v451h-338v-451h-184z" />
<glyph unicode="&#x43e;" horiz-adv-x="942" d="M92 512q0 150 24.5 252t73 164.5t119 89t162.5 26.5t163 -26.5t119 -89t72.5 -164.5t24.5 -252t-24.5 -252t-72.5 -164.5t-119 -89t-163 -26.5t-162.5 26.5t-119 89t-73 164.5t-24.5 252zM276 512q0 -123 16.5 -204t43 -129t61.5 -67.5t74 -19.5t74 19.5t61.5 67.5 t43 129t16.5 204t-16.5 204t-43 129t-61.5 67.5t-74 19.5t-74 -19.5t-61.5 -67.5t-43 -129t-16.5 -204z" />
<glyph unicode="&#x43f;" horiz-adv-x="972" d="M133 0v1024h707v-1024h-185v891h-338v-891h-184z" />
<glyph unicode="&#x440;" horiz-adv-x="952" d="M133 -410v1434h154l10 -61h10q39 39 96.5 60t118.5 21q80 0 143.5 -25.5t106.5 -87t65.5 -163.5t22.5 -256t-22.5 -256t-65.5 -163.5t-106.5 -87t-143.5 -25.5q-61 0 -109 14t-96 37v-441h-184zM317 143q23 -16 64 -28.5t80 -12.5q49 0 89 17.5t67.5 63.5t43 126 t15.5 203t-15.5 202t-43 125t-67.5 64.5t-89 18.5q-39 0 -80 -12.5t-64 -28.5v-738z" />
<glyph unicode="&#x441;" horiz-adv-x="768" d="M92 512q0 154 23.5 256t70.5 163.5t118 87t167 25.5q61 0 130 -12t116 -28v-82h-205q-57 0 -101 -18.5t-74 -64.5t-45.5 -125t-15.5 -202t15.5 -203t47.5 -126t80 -63.5t113 -17.5h205v-82q-47 -16 -115.5 -28t-129.5 -12q-104 0 -179 25.5t-124.5 87t-73 163.5 t-23.5 256z" />
<glyph unicode="&#x442;" horiz-adv-x="757" d="M20 891v133h717v-133h-266v-891h-184v891h-267z" />
<glyph unicode="&#x443;" horiz-adv-x="911" d="M41 1024h184l185 -799q14 -61 36.5 -86.5t49.5 -25.5l170 911h184l-195 -1044q-41 -215 -120.5 -312.5t-217.5 -97.5q-47 0 -96 12t-88 29v82h143q39 0 68 11t52.5 43t41 88.5t33.5 144.5q-100 0 -159.5 64.5t-86.5 180.5z" />
<glyph unicode="&#x444;" horiz-adv-x="1228" d="M82 512q0 254 116.5 380t323.5 142v400h185v-400q207 -16 323.5 -142t116.5 -380t-117 -381t-323 -141v-400h-185v400q-207 14 -323.5 141t-116.5 381zM266 512q0 -109 18.5 -182.5t52.5 -120.5t81 -69.5t104 -26.5v798q-57 -4 -104 -26.5t-81 -69.5t-52.5 -122 t-18.5 -181zM707 113q57 4 104 26.5t81 69.5t52.5 120.5t18.5 182.5q0 106 -18.5 181t-52.5 122t-81 69.5t-104 26.5v-798z" />
<glyph unicode="&#x445;" horiz-adv-x="819" d="M31 0l256 522l-248 502h184l187 -379l186 379h184l-248 -502l256 -522h-184l-194 399l-195 -399h-184z" />
<glyph unicode="&#x446;" horiz-adv-x="1003" d="M133 0v1024h184v-891h328v891h184v-891h123v-430h-112q-23 61 -38.5 140t-23.5 157h-645z" />
<glyph unicode="&#x447;" horiz-adv-x="931" d="M92 666v358h184v-358q0 -100 56.5 -137t148.5 -37h133v532h185v-1024h-185v389q-39 -8 -102 -14t-133 -6q-61 0 -113.5 13t-91.5 47t-60.5 91.5t-21.5 145.5z" />
<glyph unicode="&#x448;" horiz-adv-x="1372" d="M133 0v1024h184v-891h277v891h184v-891h277v891h184v-1024h-1106z" />
<glyph unicode="&#x449;" horiz-adv-x="1413" d="M133 0v1024h184v-891h277v891h184v-891h277v891h184v-891h123v-430h-113q-23 61 -38 140t-23 157h-1055z" />
<glyph unicode="&#x44a;" horiz-adv-x="1034" d="M41 891v133h389v-399q47 8 95 14t110 6q74 0 132 -14.5t99 -51t63.5 -102t22.5 -170.5q0 -100 -23.5 -163.5t-70.5 -100.5t-117.5 -50t-167.5 -13q-92 0 -170.5 9t-156.5 31v871h-205zM430 102h143q92 0 143.5 41t51.5 164t-51 164t-144 41h-143v-410z" />
<glyph unicode="&#x44b;" horiz-adv-x="1290" d="M133 20v1004h184v-399q47 8 95.5 14t109.5 6q70 0 126.5 -14.5t96 -51t62 -102t22.5 -170.5q0 -100 -23.5 -163.5t-69.5 -100.5t-114.5 -50t-160.5 -13t-171 9t-157 31zM317 102h144q86 0 135 41t49 164t-49 164t-135 41h-144v-410zM973 0v1024h184v-1024h-184z" />
<glyph unicode="&#x44c;" d="M133 20v1004h184v-399q47 8 95.5 14t109.5 6q74 0 132.5 -14.5t99.5 -51t63.5 -102t22.5 -170.5q0 -100 -23.5 -163.5t-71 -100.5t-118 -50t-166.5 -13q-92 0 -171 9t-157 31zM317 102h144q92 0 143 41t51 164t-51 164t-143 41h-144v-410z" />
<glyph unicode="&#x44d;" horiz-adv-x="768" d="M31 20v82h205q66 0 111.5 17.5t76.5 58.5t47 109.5t21 173.5h-318v133h318q-8 178 -63.5 253t-172.5 75h-205v82q47 16 116 28t130 12q96 0 167 -25.5t118 -87t70.5 -163.5t23.5 -256t-23.5 -256t-73 -163.5t-124 -87t-179.5 -25.5q-61 0 -129.5 12t-115.5 28z" />
<glyph unicode="&#x44e;" horiz-adv-x="1280" d="M133 0v1024h184v-430h134q16 240 107 345t261 105q92 0 161 -26.5t115 -89t69.5 -164.5t23.5 -252t-23.5 -252t-69.5 -164.5t-115 -89t-161 -26.5q-170 0 -262 108.5t-106 362.5h-134v-451h-184zM635 512q0 -123 14.5 -204t39 -129t58 -67.5t72.5 -19.5t73 19.5 t58.5 67.5t39 129t14.5 204t-14.5 204t-39 129t-58.5 67.5t-73 19.5t-72.5 -19.5t-58 -67.5t-39 -129t-14.5 -204z" />
<glyph unicode="&#x44f;" horiz-adv-x="911" d="M20 0v82q61 0 87 20.5t36 51.5l52 143q25 70 54.5 98.5t69.5 40.5v8q-51 2 -96 23.5t-78.5 58.5t-53 88.5t-19.5 112.5q0 96 25.5 157.5t74.5 97.5t119.5 49t159.5 13q92 0 170.5 -9t156.5 -31v-1004h-184v399h-70q-96 0 -135 -102l-51 -143q-33 -90 -76 -132t-129 -42 q-39 0 -76 10q-20 4 -37 10zM256 727q0 -115 51 -155t144 -40h143v390h-143q-92 0 -143.5 -40t-51.5 -155z" />
<glyph unicode="&#x451;" horiz-adv-x="901" d="M92 512q0 154 22.5 256t67.5 163.5t112.5 87t156.5 25.5q88 0 155.5 -25.5t112.5 -87t67.5 -163.5t22.5 -256v-61h-533q0 -100 16.5 -167t50.5 -107t88 -57.5t132 -17.5h205v-82q-47 -16 -115.5 -28t-130.5 -12q-115 0 -196.5 25.5t-134 87t-76 163.5t-23.5 256z M195 1167v226h184v-226h-184zM276 573h349q0 104 -14.5 173t-38 110t-55.5 58.5t-66 17.5q-35 0 -67 -17.5t-55.5 -58.5t-38 -109.5t-14.5 -173.5zM522 1167v226h185v-226h-185z" />
<glyph unicode="&#x452;" horiz-adv-x="972" d="M41 1116v133h123v185h184v-185h287v-92q-47 -16 -115.5 -28.5t-130.5 -12.5h-41v-184q47 23 101.5 37t123.5 14q66 0 120.5 -13.5t94 -48t61 -94t21.5 -151.5v-369q0 -184 -62.5 -255.5t-193.5 -71.5q-39 0 -70.5 9t-62.5 31v82h82q61 0 92 41t31 164v369q0 53 -14.5 89 t-41 57.5t-61 29.5t-77.5 8q-39 0 -80 -12t-64 -29v-819h-184v1116h-123z" />
<glyph unicode="&#x453;" horiz-adv-x="747" d="M133 0v1024h594v-133h-410v-891h-184zM358 1147l72 266h195l-144 -266h-123z" />
<glyph unicode="&#x454;" horiz-adv-x="768" d="M92 512q0 154 23.5 256t70.5 163.5t118 87t167 25.5q61 0 130 -12t116 -28v-82h-205q-117 0 -172 -75t-64 -253h318v-133h-318q4 -104 19.5 -173t46.5 -110t78 -58.5t112 -17.5h205v-82q-47 -16 -115.5 -28t-129.5 -12q-104 0 -179 25.5t-124.5 87t-73 163.5t-23.5 256z " />
<glyph unicode="&#x455;" horiz-adv-x="808" d="M72 778q0 154 92 210t276 56q61 0 130 -12t116 -28v-82h-205q-109 0 -167 -33t-58 -111q0 -61 36 -97t89 -62.5t115.5 -50t116 -60.5t89 -93.5t35.5 -148.5q0 -84 -23.5 -139t-73.5 -88t-128 -46t-184 -13q-61 0 -130 12t-116 28v82h205q139 0 202.5 36t63.5 128 q0 61 -36 97t-89 63t-115.5 50.5t-116 60t-89 93t-35.5 148.5z" />
<glyph unicode="&#x456;" horiz-adv-x="450" d="M133 0v1024h184v-1024h-184zM133 1167v226h184v-226h-184z" />
<glyph unicode="&#x457;" horiz-adv-x="450" d="M-31 1167v226h185v-226h-185zM133 0v1024h184v-1024h-184zM297 1167v226h184v-226h-184z" />
<glyph unicode="&#x458;" horiz-adv-x="491" d="M-123 -307h143q23 0 48.5 9t47 33.5t35 68.5t13.5 114v1106h184v-1106q0 -109 -21.5 -176.5t-60.5 -105t-91 -52t-114 -14.5q-47 0 -96 12t-88 29v82zM164 1167v226h184v-226h-184z" />
<glyph unicode="&#x459;" horiz-adv-x="1433" d="M0 0v82q61 0 108.5 57.5t55.5 188.5l41 696h624v-399q47 8 95.5 14t109.5 6q74 0 132.5 -14.5t99.5 -51t63.5 -102t22.5 -170.5q0 -100 -23.5 -163.5t-71 -100.5t-118 -50t-166.5 -13q-92 0 -171 9t-157 31v871h-264l-33 -563q-10 -184 -76.5 -266t-158.5 -82 q-47 0 -79 10t-34 10zM829 102h144q92 0 143 41t51 164t-51 164t-143 41h-144v-410z" />
<glyph unicode="&#x45a;" horiz-adv-x="1443" d="M133 0v1024h184v-420h338v420h185v-440q47 8 95 14t109 6q74 0 132.5 -13t99.5 -49t63.5 -97.5t22.5 -157.5q0 -92 -23.5 -151.5t-70.5 -94.5t-118 -48t-167 -13q-92 0 -171 9t-157 31v451h-338v-471h-184zM840 102h143q92 0 143.5 38t51.5 147t-51.5 146.5t-143.5 37.5 h-143v-369z" />
<glyph unicode="&#x45b;" horiz-adv-x="1003" d="M41 1116v133h123v185h184v-185h287v-92q-47 -16 -115.5 -28.5t-130.5 -12.5h-41v-184q47 23 101.5 37t123.5 14q66 0 120.5 -13.5t94 -48t61 -94t21.5 -151.5v-676h-184v676q0 53 -14.5 89t-41 57.5t-61 29.5t-77.5 8q-39 0 -80 -12t-64 -29v-819h-184v1116h-123z" />
<glyph unicode="&#x45c;" horiz-adv-x="911" d="M133 0v1024h184v-420h70q33 0 61.5 26.5t53.5 96.5l51 143q33 90 76 132t129 42q18 0 38.5 -3t37.5 -7q20 -6 36 -10v-82q-61 0 -86.5 -20.5t-35.5 -51.5l-52 -143q-33 -92 -65.5 -130t-79.5 -50v-8q55 -12 97 -51t69 -140l51 -194q8 -31 34.5 -51.5t88.5 -20.5v-82 q-14 -6 -33 -10q-35 -10 -80 -10q-86 0 -134 44t-71 130l-51 194q-35 123 -135 123h-70v-471h-184zM399 1147l72 266h195l-144 -266h-123z" />
<glyph unicode="&#x45e;" horiz-adv-x="911" d="M41 1024h184l185 -799q14 -61 36.5 -86.5t49.5 -25.5l170 911h184l-195 -1044q-41 -215 -120.5 -312.5t-217.5 -97.5q-47 0 -96 12t-88 29v82h143q39 0 68 11t52.5 43t41 88.5t33.5 144.5q-100 0 -159.5 64.5t-86.5 180.5zM184 1290l82 82q31 -31 82.5 -56.5t112.5 -25.5 t112.5 25.5t81.5 56.5l82 -82q-39 -61 -107.5 -102t-168.5 -41t-169 41t-108 102z" />
<glyph unicode="&#x45f;" horiz-adv-x="972" d="M133 0v1024h184v-891h338v891h185v-1024h-262l-31 -287h-123l-31 287h-260z" />
<glyph unicode="&#x490;" horiz-adv-x="839" d="M143 0v1434h508l15 174h133v-318h-471v-1290h-185z" />
<glyph unicode="&#x491;" horiz-adv-x="747" d="M133 0v1024h445l16 184h133v-317h-410v-891h-184z" />
<glyph unicode="&#x2000;" horiz-adv-x="901" />
<glyph unicode="&#x2001;" horiz-adv-x="1802" />
<glyph unicode="&#x2002;" horiz-adv-x="901" />
<glyph unicode="&#x2003;" horiz-adv-x="1802" />
<glyph unicode="&#x2004;" horiz-adv-x="600" />
<glyph unicode="&#x2005;" horiz-adv-x="450" />
<glyph unicode="&#x2006;" horiz-adv-x="300" />
<glyph unicode="&#x2007;" horiz-adv-x="300" />
<glyph unicode="&#x2008;" horiz-adv-x="225" />
<glyph unicode="&#x2009;" horiz-adv-x="360" />
<glyph unicode="&#x200a;" horiz-adv-x="100" />
<glyph unicode="&#x2010;" horiz-adv-x="737" d="M61 543v143h615v-143h-615z" />
<glyph unicode="&#x2011;" horiz-adv-x="737" d="M61 543v143h615v-143h-615z" />
<glyph unicode="&#x2012;" horiz-adv-x="737" d="M61 543v143h615v-143h-615z" />
<glyph unicode="&#x2013;" horiz-adv-x="942" d="M61 502v143h820v-143h-820z" />
<glyph unicode="&#x2014;" horiz-adv-x="1310" d="M61 502v143h1188v-143h-1188z" />
<glyph unicode="&#x2018;" horiz-adv-x="348" d="M82 983l61 451h133v-451h-194z" />
<glyph unicode="&#x2019;" horiz-adv-x="348" d="M82 983v451h194l-61 -451h-133z" />
<glyph unicode="&#x201a;" horiz-adv-x="348" d="M82 215h194l-61 -451h-133v451z" />
<glyph unicode="&#x201c;" horiz-adv-x="655" d="M72 983l61 451h133v-451h-194zM379 983l61 451h133v-451h-194z" />
<glyph unicode="&#x201d;" horiz-adv-x="655" d="M82 983v451h194l-61 -451h-133zM389 983v451h195l-62 -451h-133z" />
<glyph unicode="&#x201e;" horiz-adv-x="655" d="M82 215h194l-61 -451h-133v451zM389 215h195l-62 -451h-133v451z" />
<glyph unicode="&#x2022;" horiz-adv-x="512" d="M92 553v326h328v-326h-328z" />
<glyph unicode="&#x2026;" horiz-adv-x="1044" d="M82 -10v225h184v-225h-184zM430 -10v225h184v-225h-184zM778 -10v225h185v-225h-185z" />
<glyph unicode="&#x202f;" horiz-adv-x="360" />
<glyph unicode="&#x2039;" horiz-adv-x="604" d="M41 512l369 492l133 -82l-297 -406v-8l297 -406l-133 -82z" />
<glyph unicode="&#x203a;" horiz-adv-x="604" d="M61 102l297 406v8l-297 406l134 82l368 -492l-368 -492z" />
<glyph unicode="&#x205f;" horiz-adv-x="450" />
<glyph unicode="&#x20ac;" horiz-adv-x="952" d="M20 512l21 133h123v143h-144l21 134h133q14 154 50 256t90.5 163.5t125 87t154.5 25.5q92 0 176 -12t131 -29v-92h-266q-49 0 -94 -17.5t-82 -62.5t-62.5 -123t-38.5 -196h420l-20 -134h-410v-143h379l-20 -133h-349q12 -119 38 -196.5t65 -123t88 -62.5t106 -17h267v-93 q-47 -16 -131 -28t-177 -12q-92 0 -166.5 25.5t-130 87t-92.5 163.5t-51 256h-154z" />
<glyph unicode="&#x2122;" horiz-adv-x="1361" d="M20 1331v103h502v-103h-184v-512h-133v512h-185zM563 819l41 615h158l170 -379l170 379h158l40 -615h-131l-28 420l-148 -328h-123l-147 328l-29 -420h-131z" />
<glyph unicode="&#xe000;" horiz-adv-x="1025" d="M0 0v1025h1025v-1025h-1025z" />
</font>
</defs>
</svg>
