<?xml version="1.0" standalone="no"?>
<!DOCTYPE svg PUBLIC "-//W3C//DTD SVG 1.1//EN" "http://www.w3.org/Graphics/SVG/1.1/DTD/svg11.dtd" >
<svg>
<metadata>
Created by FontForge 20090622 at Mon Mar 12 09:16:39 2018
 By deploy user
Copyright (c) 2005 Parachute&#194;&#168;, www.parachute.gr.  All rights reserved.
</metadata>
<defs>
<font id="PFSquareSansPro-Bold" horiz-adv-x="1818" >
  <font-face 
    font-family="PF Square Sans Pro"
    font-weight="700"
    font-stretch="normal"
    units-per-em="1000"
    panose-1="2 0 8 0 0 0 0 2 0 4"
    ascent="750"
    descent="-250"
    x-height="493"
    cap-height="665"
    bbox="-215.333 -333.966 1760 927.9"
    underline-thickness="50"
    underline-position="-50"
    unicode-range="U+0020-U+FB05"
  />
<missing-glyph horiz-adv-x="455" 
d="M0 700h455v-700h-455v700zM332 84l-105 189l-103 -189h208zM332 616h-210l105 -187zM84 173l97 178l-97 178v-356zM371 173v355l-97 -179z" />
    <glyph glyph-name="ff" unicode="ff" horiz-adv-x="717" 
d="M577 738q29 0 69 -5t72 -19q16 -7 18 -16.5t0 -20.5l-13 -63q-2 -14 -12.5 -14.5t-20.5 1.5q-29 4 -54 5t-33 1q-68 0 -68 -67v-47h109q14 0 18 -5t4 -16v-76q0 -11 -4 -16.5t-18 -5.5h-110v-353q0 -8 -3.5 -14.5t-17.5 -6.5h-109q-13 0 -17.5 5.5t-4.5 15.5
q0 89 0.5 176.5t0.5 176.5h-137v-353q0 -8 -3.5 -14.5t-17.5 -6.5h-108q-14 0 -18.5 5.5t-4.5 15.5q0 89 0.5 176.5t0.5 176.5h-43q-22 0 -22 22v75q0 22 22 22h43v49q0 82 48 128.5t151 46.5q30 0 69.5 -4.5t71.5 -16.5q50 42 142 42zM317 587q-42 0 -56 -20.5t-14 -55.5
v-18h136v52q0 10 0.5 19.5t1.5 17.5q-24 3 -41 4t-27 1z" />
    <glyph glyph-name="fi" unicode="fi" horiz-adv-x="593" 
d="M301 725q16 0 37 -1t42.5 -4t42 -8t36.5 -12q17 -8 18 -16t-1 -21l-11 -63q-4 -14 -14 -14q-5 0 -14 0.5t-17 2.5q-24 2 -45.5 3.5t-40.5 1.5q-40 0 -63.5 -14.5t-23.5 -52.5v-34h267q14 0 17.5 -7t3.5 -15v-450q0 -8 -3.5 -14.5t-17.5 -6.5h-109q-13 0 -17.5 5.5
t-4.5 15.5v353h-137v-353q0 -8 -3.5 -14.5t-17.5 -6.5h-108q-14 0 -18.5 5.5t-4.5 15.5v353h-42q-22 0 -22 22v75q0 22 22 22h43v56q0 41 11 73.5t35.5 55.5t64 35t95.5 12z" />
    <glyph glyph-name="fl" unicode="fl" horiz-adv-x="587" 
d="M244 374v-352q0 -8 -3.5 -15t-17.5 -7h-109q-13 0 -17.5 6t-4.5 16v352h-42q-22 0 -22 23v75q0 22 22 22h43v56q0 41 11 73.5t35.5 55.5t63.5 35t96 12q31 0 73.5 -5t73.5 -17l65 16q14 3 18 -2t4 -15v-681q0 -8 -3.5 -15t-17.5 -7h-110q-22 0 -22 22v570q-27 3 -48 3
q-40 0 -63.5 -14.5t-23.5 -52.5v-34h76q22 0 22 -22v-75q0 -23 -22 -23h-77z" />
    <glyph glyph-name="ffi" unicode="ffi" horiz-adv-x="877" 
d="M586 738q16 0 37 -1.5t42.5 -4.5t42 -8t36.5 -12q15 -6 18 -13t1 -18l-14 -68q-3 -14 -9.5 -15t-17.5 1q-26 4 -54 5.5t-49 1.5q-40 0 -63 -14.5t-23 -52.5v-46h266q14 0 17.5 -7t3.5 -15v-450q0 -8 -3.5 -14.5t-17.5 -6.5h-108q-13 0 -17.5 5.5t-4.5 15.5
q0 89 -0.5 176.5t-0.5 176.5h-137v-353q0 -8 -3.5 -14.5t-17.5 -6.5h-109q-22 0 -22 21v74.5v70t0.5 86t0.5 122.5h-134v-353q0 -8 -3.5 -14.5t-17.5 -6.5h-108q-14 0 -18.5 5.5t-4.5 15.5v77v74t0.5 86.5t0.5 115.5h-43q-22 0 -22 22v75q0 22 22 22h43v49q0 82 48 128.5
t151 46.5q43 0 78 -5.5t62 -14.5q25 20 62 30.5t90 10.5zM380 540q0 22 3 42q-23 3 -40 4t-26 1q-42 0 -56 -21t-14 -56v-17h133v47z" />
    <glyph glyph-name="ffl" unicode="ffl" horiz-adv-x="877" 
d="M586 738q15 0 34.5 -1t39.5 -4t39.5 -7.5t34.5 -10.5l65 17q6 2 9 2q12 0 12 -16v-697q0 -8 -3.5 -14.5t-17.5 -6.5h-108q-13 0 -17.5 5.5t-4.5 15.5q0 146 -0.5 291t-0.5 292q-14 1 -26 1.5t-23 0.5q-40 0 -63 -14.5t-23 -52.5v-46h75q22 0 22 -22v-75q0 -22 -22 -22
h-77v-353q0 -8 -3.5 -14.5t-17.5 -6.5h-108q-13 0 -17.5 5.5t-4.5 15.5v353h-134v-353q0 -8 -3.5 -14.5t-17.5 -6.5h-108q-14 0 -18.5 5.5t-4.5 15.5v77v74t0.5 86.5t0.5 115.5h-43q-22 0 -22 22v75q0 22 22 22h43v49q0 81 48.5 128.5t150.5 46.5q43 0 78 -5.5t62 -14.5
q25 20 62 30.5t90 10.5zM247 493h133v47q0 22 3 42q-23 3 -40 4t-26 1q-38 0 -54 -17.5t-16 -50.5v-26z" />
    <glyph glyph-name="ft" unicode="ft" horiz-adv-x="721" 
d="M278 719q18 0 45 -2.5t57 -11.5q15 -4 18.5 -12t1.5 -19l-12 -76q-2 -11 -9 -12.5t-18 0.5q-19 2 -27 2.5t-19 0.5q-68 0 -68 -68v-28h155v91q0 14 5.5 18.5t16.5 7.5l101 27q11 3 18 -1t7 -18v-125h102q14 0 17.5 -5t3.5 -16v-76q0 -11 -3.5 -16.5t-17.5 -5.5h-103
l1 -200q0 -29 10 -37.5t46 -8.5q19 0 34.5 1t37.5 3q10 0 16.5 -1t8.5 -15l10 -69q3 -11 -2.5 -19.5t-15.5 -12.5q-18 -7 -39 -11.5t-42 -7t-39 -3.5t-30 -1q-45 0 -73 12.5t-43.5 33.5t-21.5 49.5t-6 60.5v226h-155v-353q0 -8 -3.5 -14.5t-17.5 -6.5h-108q-14 0 -18.5 5.5
t-4.5 15.5q0 89 0.5 176.5t0.5 176.5h-43q-22 0 -22 22v75q0 22 22 22h43v45q0 40 9 73.5t30.5 57.5t56.5 37t87 13z" />
    <glyph glyph-name="fj" unicode="fj" horiz-adv-x="593" 
d="M302 726q16 0 37 -1.5t42.5 -4.5t42 -7.5t36.5 -11.5q17 -8 18 -17t-1 -20l-12 -63q-2 -12 -8.5 -13.5t-24.5 0.5q-26 2 -51.5 4.5t-45.5 2.5q-40 0 -63.5 -14.5t-23.5 -52.5v-34h267q14 0 17.5 -7.5t3.5 -14.5v-453q0 -67 -17.5 -112.5t-51.5 -72.5t-82.5 -37.5
t-111.5 -8.5q-6 0 -15.5 4t-10.5 18l-7 78q-2 12 2 17t17 8q36 7 59.5 13.5t38 17t20.5 27.5t6 45v358h-136v-352q0 -8 -3.5 -15t-17.5 -7h-109q-13 0 -17.5 6t-4.5 16v352h-42q-22 0 -22 23v75q0 22 22 22h42v56q0 82 47 129t160 47z" />
    <glyph glyph-name="ffj" unicode="ffj" horiz-adv-x="877" 
d="M531 374v-353q0 -8 -3.5 -14.5t-17.5 -6.5h-109q-22 0 -22 21v74.5v70t0.5 86t0.5 122.5h-134v-353q0 -8 -3.5 -14.5t-17.5 -6.5h-108q-14 0 -18.5 5.5t-4.5 15.5v77v74t0.5 86.5t0.5 115.5h-43q-22 0 -22 22v75q0 22 22 22h43v49q0 82 48 128.5t151 46.5q32 0 70 -4.5
t70 -15.5q25 20 62 30.5t90 10.5q37 0 81 -6t77 -20q15 -6 17.5 -15.5t0.5 -20.5l-13 -63q-2 -15 -12 -15t-21 2q-29 4 -52.5 5t-44.5 1q-40 0 -63 -14.5t-23 -52.5v-46h266q14 0 17.5 -7t3.5 -15v-431q0 -14 -0.5 -27.5t-1.5 -26.5q-8 -108 -70 -153t-171 -45h-15
t-14.5 2.5t-11 7t-5.5 13.5l-7 77q-1 11 3 17t16 9q36 7 60 13.5t38.5 16.5t20.5 26.5t6 44.5v359h-137zM317 587q-42 0 -56 -20.5t-14 -55.5v-18h133v51q0 21 3 38q-23 3 -40 4t-26 1z" />
    <glyph glyph-name=".notdef" horiz-adv-x="455" 
d="M0 700h455v-700h-455v700zM332 84l-105 189l-103 -189h208zM332 616h-210l105 -187zM84 173l97 178l-97 178v-356zM371 173v355l-97 -179z" />
    <glyph glyph-name="carriagereturn" unicode="&#x21b5;" horiz-adv-x="854" 
d="M717 693h98v-419h-552l119 -118l-69 -69l-235 236l235 236l69 -69l-119 -119h454v322z" />
    <glyph glyph-name="space" unicode=" " horiz-adv-x="294" 
 />
    <glyph glyph-name="ampersand" unicode="&#x26;" horiz-adv-x="746" 
d="M672 -47q-7 -9 -14 -12.5t-24 4.5q-15 7 -34.5 18.5t-39.5 25.5l-39.5 28.5l-35.5 27.5q-48 -30 -103.5 -43.5t-115.5 -13.5q-47 0 -88.5 11.5t-72.5 35t-48.5 60t-17.5 86.5q0 66 38.5 121t107.5 97q-21 33 -31 64t-10 49q0 34 11 63.5t33 52t54.5 35.5t75.5 13
q39 0 70.5 -12t53.5 -32.5t34 -48.5t12 -59q0 -51 -33.5 -95t-90.5 -69l29 -41t29 -36t32 -34.5t38 -36.5q32 38 54 86t30 101q4 21 6.5 25.5t21.5 4.5h69q19 0 24.5 -6t4.5 -29q-2 -37 -12.5 -75.5t-27 -74.5t-36 -67t-37.5 -52q55 -46 115 -81q13 -8 12.5 -14.5
t-8.5 -18.5zM275 103q26 -1 55.5 6t58.5 24q-41 41 -78.5 86t-59.5 79q-34 -23 -53.5 -49.5t-19.5 -57.5q0 -44 28 -66t69 -22zM353 523q0 16 -11 27t-30 11q-20 0 -30.5 -14.5t-10.5 -29.5q0 -25 25 -60q26 15 41.5 30.5t15.5 35.5z" />
    <glyph glyph-name="quotesingle" unicode="'" horiz-adv-x="228" 
d="M160 438q0 -5 -3.5 -9.5t-11.5 -4.5h-65q-14 0 -14 14l-11 209q0 16 18 16h82q11 0 13.5 -6t2.5 -10z" />
    <glyph glyph-name="parenleft" unicode="(" horiz-adv-x="340" 
d="M204 305q0 -98 23.5 -186.5t64.5 -157.5q10 -17 8.5 -24t-14.5 -14l-57 -33q-14 -8 -21.5 -7t-18.5 15q-28 37 -53.5 82.5t-44.5 97t-30 108.5t-11 119q0 59 11.5 114.5t30.5 106t44 95t53 82.5q11 14 18.5 15t20.5 -7l58 -33q13 -7 15 -14t-9 -24q-42 -70 -65 -155
t-23 -180z" />
    <glyph glyph-name="parenright" unicode=")" horiz-adv-x="341" 
d="M142 305q0 95 -23 180t-66 155q-10 17 -8 24t14 14l58 33q14 8 21.5 7t18.5 -15q28 -38 53 -82.5t44 -95t30 -106t11 -114.5q0 -62 -11 -119t-30 -108.5t-44 -97t-53 -82.5q-11 -14 -18.5 -15t-21.5 7l-58 33q-12 7 -13.5 14t7.5 24q42 69 65.5 157.5t23.5 186.5z" />
    <glyph glyph-name="asterisk" unicode="*" horiz-adv-x="434" 
d="M373 381q-8 -12 -15 -13t-20 5l-69 32l-6 -68q-2 -16 -5 -19.5t-19 -3.5h-47q-14 0 -17.5 3.5t-5.5 19.5l-7 68l-66 -29q-9 -5 -17 -5.5t-15 10.5l-23 34q-5 8 -3.5 14t14.5 15l58 44l-59 37q-11 8 -13.5 14.5t5.5 20.5l16 31q8 15 16 14.5t21 -6.5l67 -28l5 70
q1 14 5.5 18.5t21.5 4.5h40q16 0 22 -5.5t7 -18.5l4 -71l71 33q13 6 17.5 5.5t12.5 -13.5l20 -30q13 -18 -1 -27l-69 -47l64 -47q14 -9 14 -15t-8 -19z" />
    <glyph glyph-name="plus" unicode="+" horiz-adv-x="597" 
d="M364 380h141q13 0 17 -4.5t4 -15.5v-71q0 -11 -4 -16t-17 -5h-141v-147q0 -13 -4.5 -16.5t-14.5 -3.5h-91q-12 0 -17 3.5t-5 16.5v147h-140q-20 0 -20 21v70q0 21 20 21h140v138q0 21 22 21h90q20 0 20 -21v-138z" />
    <glyph glyph-name="comma" unicode="," horiz-adv-x="238" 
d="M200 32q0 -33 -9.5 -63.5t-25 -55.5t-35 -44.5t-39.5 -31.5q-22 -12 -37 5l-26 26q-11 12 -10.5 18t14.5 20q18 18 25.5 37.5t7.5 36.5q0 33 -23 59q-13 14 -14 24t17 23l65 50q15 11 25.5 7t22.5 -15q20 -20 31 -46.5t11 -49.5z" />
    <glyph glyph-name="hyphen" unicode="-" horiz-adv-x="411" 
d="M364 378q13 0 17 -4.5t4 -14.5v-77q0 -11 -4 -16t-17 -5h-312q-21 0 -21 21v76q0 20 21 20h312z" />
    <glyph glyph-name="period" unicode="." horiz-adv-x="231" 
d="M195 66q0 -14 -3 -28t-11.5 -24.5t-24.5 -17t-41 -6.5q-26 0 -42 6.5t-24.5 17.5t-11 24.5t-2.5 27.5q0 32 16 53.5t64 21.5q25 0 40.5 -5.5t24.5 -15.5t12 -24t3 -30z" />
    <glyph glyph-name="slash" unicode="/" horiz-adv-x="319" 
d="M141 -46q-2 -8 -8 -12t-13 -4h-95q-22 0 -17 21l23 97.5l30 124l33 137.5l32.5 137l29.5 123.5l24 97.5q3 17 21 17h93q10 0 14 -6.5t2 -17.5z" />
    <glyph glyph-name="zero" unicode="0" horiz-adv-x="597" 
d="M296 -9q-62 0 -106.5 16.5t-74 44.5t-46.5 64t-25.5 75t-11 77.5t-2.5 72.5q0 22 2.5 55.5t11.5 70.5t26.5 74t47 66t73 47.5t105.5 18.5q92 0 146.5 -32t83 -80.5t37 -107t8.5 -112.5q0 -30 -2.5 -67.5t-12 -76.5t-27.5 -76t-48.5 -66t-75.5 -46.5t-109 -17.5zM296 539
q-33 0 -53.5 -16t-32.5 -43.5t-16 -65.5t-4 -82q0 -42 4 -80t15.5 -66t32.5 -44.5t54 -16.5q35 0 57.5 14.5t35 41.5t17.5 65.5t5 85.5q0 49 -4.5 87.5t-17 65t-35 40.5t-58.5 14z" />
    <glyph glyph-name="one" unicode="1" horiz-adv-x="597" 
d="M123 0q-21 0 -21 21v88q0 20 21 20h106v386h-94q-12 0 -18 3t-6 15v49q0 11 3 19.5t16 14.5l88 37q17 8 31.5 10t31.5 2h80q23 0 23 -23v-513h116q12 0 16 -5t4 -15v-88q0 -11 -3.5 -16t-16.5 -5h-377z" />
    <glyph glyph-name="two" unicode="2" horiz-adv-x="597" 
d="M273 130h241q13 0 16.5 -5t3.5 -16v-88q0 -11 -3.5 -16t-15.5 -5h-451q-21 0 -21 21v71q0 10 3 20t13 20l68 64l26 24.5l23.5 22.5l18 17t9.5 9t16 15l31.5 29.5l33.5 31.5t22 22q24 23 39 48t15 54q0 36 -19.5 51.5t-75.5 15.5q-45 0 -92 -4t-80 -8q-18 -2 -25 1t-10 20
l-8 56q-2 12 1.5 22.5t26.5 19.5q20 8 47.5 13.5t55 9t51.5 5t38 1.5q69 0 117 -13t78 -37.5t44 -60t14 -80.5q0 -33 -6 -59.5t-18.5 -50t-31 -45.5t-43.5 -47l-34 -32.5l-33.5 -32l-38.5 -35.5l-48 -44z" />
    <glyph glyph-name="three" unicode="3" horiz-adv-x="597" 
d="M382 233q0 25 -13.5 38t-45.5 19l-133 24q-18 3 -24 10.5t-6 24.5v38q0 16 2 23.5t10 14.5l60 53l61 53q0 1 -0.5 1.5t-0.5 1.5h-215q-21 0 -21 21v87q0 21 21 21h416q14 0 18 -5.5t4 -16.5v-55q0 -18 -4 -31.5t-18 -27.5q0 -2 -15.5 -16.5l-36 -32.5l-39.5 -34t-25 -22
q1 -1 1 -4l63 -15q56 -14 79 -54.5t23 -103.5q0 -75 -20 -124t-57 -77.5t-88.5 -40t-115.5 -11.5q-14 0 -37.5 1.5t-50 5t-53 9t-46.5 13.5q-25 9 -30.5 19.5t-2.5 24.5l11 55q3 14 9.5 19t26.5 3q41 -6 83.5 -10t79.5 -6q27 0 51 3t41.5 14.5t27.5 32.5t10 57z" />
    <glyph glyph-name="four" unicode="4" horiz-adv-x="597" 
d="M336 464l-144 -184v-4h149v187zM492 21q0 -7 -3.5 -14t-17.5 -7h-111q-12 0 -16.5 6t-4.5 15v128h-292q-11 0 -19 5t-8 19v77q0 7 1.5 15t9.5 17l291 363q8 9 17 13.5t23 4.5h110q13 0 16.5 -7t3.5 -13v-364h66q12 0 16 -5t4 -15v-89q0 -11 -4 -16t-16 -5h-66v-128z" />
    <glyph glyph-name="five" unicode="5" horiz-adv-x="597" 
d="M382 234q0 25 -15 38t-44 18l-221 38q-27 5 -33.5 19t-3.5 37l40 244q3 19 12 27.5t31 8.5h341q21 0 21 -21v-87q0 -21 -22 -21h-248l-15 -94l172 -25q66 -10 106.5 -52.5t40.5 -117.5t-20 -124t-56.5 -78.5t-88 -41t-114.5 -11.5q-14 0 -37.5 1.5t-50 5t-53 9
t-46.5 13.5q-25 9 -30.5 19.5t-2.5 24.5l11 55q3 14 9.5 19t26.5 3q41 -6 83.5 -10t78.5 -4q28 0 51.5 3.5t40.5 14.5t26.5 32t9.5 57z" />
    <glyph glyph-name="six" unicode="6" horiz-adv-x="597" 
d="M565 200q0 -58 -23 -98t-61 -64.5t-86 -35.5t-98 -11q-92 0 -143.5 24.5t-77.5 67t-32 101t-6 127.5q0 39 3 81t13 82t28.5 76t49 63t75 43t106.5 16q10 0 30.5 -0.5t46.5 -3.5t55 -8.5t56 -15.5q23 -8 27.5 -17t1.5 -24l-12 -55q-4 -16 -10.5 -21t-20.5 -3
q-37 5 -82 8.5t-93 3.5q-59 0 -82.5 -33t-28.5 -90q26 3 47 4.5t39 2.5t34.5 1.5t34.5 0.5q103 0 156 -55t53 -167zM407 199q0 48 -16 71t-59 23q-22 0 -53.5 -2t-82.5 -7q-1 -40 1.5 -72.5t13.5 -54.5q8 -15 28 -25.5t62 -10.5q20 0 39 3t34 12t24 24t9 39z" />
    <glyph glyph-name="seven" unicode="7" horiz-adv-x="597" 
d="M259 -4q-7 -11 -13.5 -15t-21.5 3l-92 41q-15 7 -16 13.5t6 20.5l238 476h-297q-20 0 -20 20v88q0 22 20 22h461q13 0 17 -6t4 -17v-61q0 -17 -5 -28.5t-13 -27.5z" />
    <glyph glyph-name="eight" unicode="8" horiz-adv-x="597" 
d="M296 673q53 0 98 -11t77.5 -35t51 -61t18.5 -88q0 -15 -5 -33t-15 -35t-25 -32.5t-35 -24.5v-1q51 -22 75.5 -65t24.5 -94q0 -48 -19.5 -85.5t-55 -63.5t-85 -39.5t-108.5 -13.5t-108 11t-83.5 35t-53.5 62t-19 92q0 51 24 92.5t73 67.5q-39 19 -58 54.5t-19 69.5
q0 49 18 86t50 62t77.5 37.5t101.5 12.5zM382 472q0 35 -24.5 51t-61.5 16q-47 0 -67.5 -18.5t-20.5 -48.5q0 -26 23.5 -41.5t65.5 -24.5q48 8 66.5 25.5t18.5 40.5zM401 203q0 22 -9 38t-24 27t-35 18t-43 12q-18 -3 -36 -9.5t-33 -17t-24 -27t-9 -39.5q0 -41 29.5 -61
t75.5 -20q49 0 78.5 22.5t29.5 56.5z" />
    <glyph glyph-name="nine" unicode="9" horiz-adv-x="597" 
d="M36 458q0 58 23 99t61 66.5t85.5 37t97.5 11.5q91 0 143 -24.5t78 -67.5t32.5 -101.5t6.5 -126.5q0 -39 -3 -81t-13 -82t-29 -76t-49.5 -63t-75 -43t-106.5 -16q-9 0 -29.5 0.5t-47 3t-55.5 8t-55 16.5q-22 8 -27.5 17t-0.5 24l11 54q5 16 11 21t20 3q37 -5 80.5 -8.5
t91.5 -3.5q59 0 83.5 32.5t29.5 89.5q-26 -3 -46.5 -4.5t-38.5 -2l-35 -1t-35 -0.5q-103 0 -155.5 53t-52.5 165zM194 461q0 -48 15.5 -70t59.5 -22q21 0 52.5 2t82.5 7q0 35 -2.5 71t-11.5 54q-8 16 -29 26t-61 10q-20 0 -39 -3t-34 -12t-24 -24t-9 -39z" />
    <glyph glyph-name="colon" unicode=":" horiz-adv-x="234" 
d="M197 66q0 -14 -3 -28t-11.5 -24.5t-24.5 -17t-41 -6.5q-27 0 -42.5 6.5t-24 17.5t-11 24.5t-2.5 27.5q0 32 16 53.5t64 21.5q25 0 40.5 -5.5t24.5 -15.5t12 -24t3 -30zM197 379q0 -14 -3 -28t-11.5 -24.5t-24.5 -17t-41 -6.5q-27 0 -42.5 6.5t-24 17.5t-11 24.5
t-2.5 27.5q0 31 16 53t64 22q25 0 40.5 -5.5t24.5 -15.5t12 -24t3 -30z" />
    <glyph glyph-name="semicolon" unicode=";" horiz-adv-x="234" 
d="M197 379q0 -14 -3 -28t-11.5 -24.5t-24.5 -17t-41 -6.5q-27 0 -42.5 6.5t-24 17.5t-11 24.5t-2.5 27.5q0 31 16 53t64 22q25 0 40.5 -5.5t24.5 -15.5t12 -24t3 -30zM199 32q0 -33 -9.5 -63.5t-24.5 -55.5t-34.5 -44.5t-39.5 -31.5q-21 -11 -38 5l-25 26q-11 12 -10.5 18
t14.5 20q18 18 25.5 37.5t7.5 36.5q0 33 -23 59q-13 14 -14 24t17 23l65 50q15 11 25.5 7t22.5 -15q20 -20 30.5 -46.5t10.5 -49.5z" />
    <glyph glyph-name="less" unicode="&#x3c;" horiz-adv-x="597" 
d="M503 196q8 -3 11.5 -7.5t3.5 -15.5v-101q0 -8 -5 -10.5t-12 1.5l-405 205q-6 2 -11 7t-5 16v70q0 11 4 15t11 8l406 206q9 5 12.5 0.5t3.5 -11.5v-96q0 -11 -4 -15t-11 -8l-250 -131v-4l251 -129v0z" />
    <glyph glyph-name="equal" unicode="=" horiz-adv-x="597" 
d="M505 472q13 0 17 -5t4 -15v-72q0 -11 -4 -16t-17 -5h-412q-21 0 -21 21v71q0 21 21 21h412zM505 288q13 0 17 -5t4 -15v-72q0 -11 -4 -16t-17 -5h-412q-21 0 -21 21v71q0 21 21 21h412z" />
    <glyph glyph-name="greater" unicode="&#x3e;" horiz-adv-x="597" 
d="M348 325v4l-251 131q-6 4 -10.5 8t-4.5 15v96q0 7 3.5 11.5t13.5 -0.5l406 -206q6 -4 10 -8t4 -15v-70q0 -11 -5 -16t-10 -7l-405 -205q-8 -4 -13 -1.5t-5 10.5v101q0 11 4 15.5t11 7.5z" />
    <glyph glyph-name="question" unicode="?" horiz-adv-x="436" 
d="M403 509q0 -27 -8 -48t-21 -37t-28 -29t-29 -23q-20 -14 -34.5 -27.5t-24 -28t-14.5 -32t-5 -40.5v-38q0 -9 -3 -15.5t-14 -6.5h-99q-11 0 -15.5 4t-6.5 16q-2 15 -2.5 27t-0.5 23q0 37 7.5 64.5t21.5 49.5t34 41.5t46 40.5q15 13 24 24t9 26q0 26 -18.5 36.5t-61.5 10.5
q-22 0 -47.5 -2t-48.5 -4q-19 -2 -23.5 1t-6.5 16l-6 58q-2 14 1 20t18 13q18 7 37.5 12t38 7t34.5 3t28 1q106 0 162 -41.5t56 -121.5zM248 64q0 -14 -3 -27t-11.5 -23.5t-23.5 -17t-40 -6.5q-26 0 -41 6.5t-23.5 17t-11 23.5t-2.5 27q0 15 3.5 28.5t12.5 23t24 15.5t38 6
q48 0 63 -20.5t15 -52.5z" />
    <glyph glyph-name="at" unicode="@" horiz-adv-x="905" 
d="M469 723q96 0 167 -28t117.5 -76.5t69 -113.5t22.5 -138q0 -57 -16.5 -98.5t-43.5 -69.5t-61.5 -41.5t-71.5 -13.5q-44 0 -77 14.5t-49 43.5q-26 -17 -58.5 -28.5t-67.5 -11.5q-65 0 -93 29t-28 90q0 72 41.5 102.5t117.5 30.5q31 1 44 1.5t23 1.5q0 30 -15.5 39t-47.5 9
q-14 0 -40 -1.5t-58 -4.5q-12 -2 -19.5 -1t-10.5 15l-7 34q-3 14 3 19.5t14 10.5q11 6 26.5 10.5t33.5 7t36.5 4t34.5 1.5q49 0 80.5 -10t48.5 -29t23.5 -46.5t6.5 -62.5v-131q0 -4 1 -10.5t5.5 -13t13.5 -11t25 -4.5q32 0 55.5 30.5t23.5 90.5q0 55 -17 103t-50 83.5
t-82.5 55.5t-115.5 20q-71 0 -128 -21t-97 -58t-61.5 -86.5t-21.5 -106.5q0 -59 16 -109t50.5 -86.5t88 -57t129.5 -20.5q6 0 19.5 1t31 2.5t37.5 4.5t38 6q14 2 20 2t10 -10l9 -33q4 -14 3.5 -25.5t-13.5 -18.5q-15 -8 -35 -13.5t-41.5 -9t-43 -5t-38.5 -1.5
q-102 0 -175 27.5t-120 77t-69.5 117.5t-22.5 149t31 149t86 117.5t130 77.5t163 28zM385 281q0 -14 6.5 -22.5t25.5 -8.5q18 0 41 8.5t46 21.5q0 13 -0.5 26.5t-0.5 26.5h-70q-23 0 -35.5 -11.5t-12.5 -40.5z" />
    <glyph glyph-name="A" unicode="A" horiz-adv-x="618" 
d="M170 28q-5 -16 -13 -22t-22 -6h-111q-11 0 -15 4.5t1 21.5l193 610q5 14 12 21.5t27 7.5h126q21 0 27.5 -8t11.5 -22l201 -611q3 -12 1 -18t-13 -6h-124q-17 0 -23 7.5t-11 23.5l-33 119h-199zM340 382l-32 122h-5l-33 -121l-30 -111h130z" />
    <glyph glyph-name="B" unicode="B" horiz-adv-x="620" 
d="M569 197q0 -47 -17 -83.5t-46 -62t-66.5 -38.5t-78.5 -13h-271q-14 0 -18.5 6t-4.5 16v620q0 10 4.5 16t17.5 6l254 1q103 0 155.5 -49.5t52.5 -135.5q0 -12 -3 -29t-10.5 -35t-22 -35t-36.5 -28l1 -4q29 -11 46.5 -30t27 -41t12.5 -43.5t3 -37.5zM406 205q0 31 -18 53
t-59 22h-103v-147h103q44 0 60.5 21t16.5 51zM388 469q0 27 -16.5 45t-54.5 18h-91v-124h96q31 0 48.5 17t17.5 44z" />
    <glyph glyph-name="C" unicode="C" horiz-adv-x="593" 
d="M58 329q0 61 11.5 122.5t43 110.5t88 79.5t147.5 30.5q47 0 97.5 -7.5t90.5 -24.5q15 -7 23 -15.5t4 -27.5l-13 -58q-3 -14 -9.5 -18t-24.5 -2q-42 5 -81.5 8t-71.5 3q-42 0 -68.5 -15.5t-41.5 -42.5t-20.5 -63t-5.5 -77q0 -47 5.5 -84.5t20.5 -63.5t41.5 -39.5
t67.5 -13.5t74.5 3t80.5 8q19 2 25 -1.5t10 -18.5l13 -53q5 -19 -2.5 -28.5t-22.5 -16.5q-19 -8 -42.5 -14.5t-49 -11t-51 -6.5t-48.5 -2q-90 0 -147 29.5t-89 77.5t-43.5 109t-11.5 123z" />
    <glyph glyph-name="D" unicode="D" horiz-adv-x="658" 
d="M90 0q-14 0 -18.5 6t-4.5 16v620q0 10 4.5 16t17.5 6h218q87 0 144 -27t90 -72t46.5 -105t13.5 -126q0 -67 -13 -127.5t-46 -106.5t-90 -73t-145 -27h-217zM436 327q0 106 -34 155t-106 49h-71v-398h64q34 0 61 10.5t46 33.5t29.5 60t10.5 90z" />
    <glyph glyph-name="E" unicode="E" horiz-adv-x="558" 
d="M68 642q0 10 4.5 16.5t17.5 6.5h397q21 0 21 -22v-91q0 -9 -4.5 -15t-17.5 -6h-259v-121h226q23 0 23 -21v-91q0 -9 -4.5 -15t-18.5 -6h-226v-144h264q22 0 22 -22v-91q0 -9 -4.5 -14.5t-17.5 -5.5h-401q-13 0 -17.5 6t-4.5 15v621z" />
    <glyph glyph-name="F" unicode="F" horiz-adv-x="525" 
d="M67 643q0 9 4.5 15.5t18.5 6.5h389q22 0 22 -22v-91q0 -9 -4.5 -15t-18.5 -6h-251v-121h215q22 0 22 -21v-91q0 -10 -4.5 -15.5t-17.5 -5.5h-215v-255q0 -8 -3.5 -15t-17.5 -7h-116q-13 0 -17.5 6t-4.5 16z" />
    <glyph glyph-name="G" unicode="G" horiz-adv-x="645" 
d="M228 332q0 -43 4.5 -80t19 -64.5t40 -43t67.5 -15.5q18 0 37.5 2t35.5 5v120h-68q-14 0 -18.5 5.5t-4.5 15.5v84q0 10 4.5 15.5t18.5 5.5h199q11 0 17 -6.5t6 -14.5v-125.5t-1 -158.5q0 -17 -5 -31.5t-26 -22.5q-24 -9 -51 -15.5t-54.5 -10t-54.5 -5.5t-49 -2
q-87 0 -143 27.5t-87.5 74.5t-43.5 108.5t-12 129.5q0 61 11.5 122t43 110t88 79.5t146.5 30.5q48 0 98.5 -7.5t89.5 -24.5q15 -6 23 -15t4 -28l-13 -59q-3 -15 -9.5 -18t-24.5 -1q-42 5 -80 8.5t-70 3.5q-42 0 -69 -15.5t-42.5 -42.5t-21 -63.5t-5.5 -77.5z" />
    <glyph glyph-name="H" unicode="H" horiz-adv-x="647" 
d="M421 642q0 10 5 16.5t17 6.5h116q14 0 17.5 -7.5t3.5 -15.5v-620q0 -8 -3.5 -15t-17.5 -7h-116q-22 0 -22 22v256h-195v-256q0 -8 -3.5 -15t-17.5 -7h-116q-22 0 -22 22v620q0 10 5 16.5t17 6.5h116q14 0 17.5 -7.5t3.5 -15.5v-230h195v230z" />
    <glyph glyph-name="I" unicode="I" horiz-adv-x="304" 
d="M72 642q0 10 4.5 16.5t16.5 6.5h117q14 0 17.5 -7.5t3.5 -15.5v-620q0 -8 -3.5 -15t-17.5 -7h-117q-12 0 -16.5 6t-4.5 16v620z" />
    <glyph glyph-name="J" unicode="J" horiz-adv-x="473" 
d="M236 642q0 10 4.5 16.5t17.5 6.5h115q14 0 18 -7.5t4 -15.5v-260.5t-1 -204.5q0 -88 -52.5 -137t-165.5 -49q-12 0 -28.5 1t-34.5 3.5t-36.5 6t-34.5 9.5q-26 9 -32.5 17t-1.5 27l15 65q5 15 9 17.5t18 0.5q26 -3 51.5 -5t47.5 -2q27 0 44 5.5t26.5 15.5t13 24.5
t3.5 31.5v434z" />
    <glyph glyph-name="K" unicode="K" horiz-adv-x="619" 
d="M222 406l72 94l117 145q8 10 18.5 15t26.5 5h129q16 0 19 -8.5t-6 -19.5l-215 -259l223 -348q11 -16 5 -23t-17 -7h-132q-18 0 -27 7.5t-17 18.5l-139 227l-59 -73v-158q0 -8 -3.5 -15t-17.5 -7h-116q-13 0 -17.5 6t-4.5 16v620q0 10 4.5 16.5t17.5 6.5h116
q14 0 17.5 -7.5t3.5 -15.5v-236h2z" />
    <glyph glyph-name="L" unicode="L" horiz-adv-x="525" 
d="M227 133h269q18 0 18 -17v-96q0 -9 -4.5 -14.5t-17.5 -5.5h-402q-13 0 -17.5 6t-4.5 15v621q0 10 5 16.5t17 6.5h115q22 0 22 -23v-509z" />
    <glyph glyph-name="M" unicode="M" horiz-adv-x="780" 
d="M394 289l76 157l97 194q7 12 15 18.5t28 6.5h82q14 0 17 -7.5t3 -14.5v-621q0 -8 -3 -15t-17 -7h-112q-13 0 -17.5 6t-4.5 16v306l-3 1l-35 -78l-63 -129q-7 -12 -16 -19t-26 -7h-49q-18 0 -26.5 6.5t-15.5 17.5l-65 134l-35 76l-2 -1v-307q0 -8 -3.5 -15t-17.5 -7h-112
q-12 0 -16.5 6t-4.5 16v621q0 9 4.5 15.5t16.5 6.5h86q20 0 28.5 -5.5t15.5 -18.5l97 -197l74 -155h4z" />
    <glyph glyph-name="N" unicode="N" horiz-adv-x="670" 
d="M224 372h-3v-351q0 -8 -4 -14.5t-17 -6.5h-111q-23 0 -23 21v621q0 9 5 15.5t17 6.5h82q23 0 31.5 -8t16.5 -21t26 -40l40.5 -61.5l47 -72l47 -72l40 -61.5l25.5 -39q1 0 1.5 0.5t1.5 0.5v351q0 8 4 15.5t18 7.5h111q12 0 16.5 -6t4.5 -17v-620q0 -10 -4.5 -15.5
t-16.5 -5.5h-82q-17 0 -26 6t-17 17l-76 113.5l-76 113.5z" />
    <glyph glyph-name="O" unicode="O" horiz-adv-x="689" 
d="M631 341q0 -57 -8.5 -118.5t-38.5 -113t-87.5 -85t-155.5 -33.5q-65 0 -111.5 15.5t-78 41.5t-50 61t-28.5 74t-13 79.5t-3 78.5q0 29 3.5 65.5t14 73t29.5 71.5t50.5 62t77.5 43.5t110 16.5q94 0 150.5 -29.5t87.5 -77t41 -107t10 -118.5zM468 330q0 107 -26.5 156.5
t-98.5 49.5q-67 0 -92.5 -50.5t-25.5 -155.5q0 -101 24.5 -151.5t93.5 -50.5q71 0 98 49.5t27 152.5z" />
    <glyph glyph-name="P" unicode="P" horiz-adv-x="567" 
d="M226 22q0 -8 -3.5 -15t-17.5 -7h-116q-22 0 -22 22v621q0 9 4.5 15.5t17.5 6.5h232q47 0 88 -13t72 -38.5t48.5 -64.5t17.5 -91q0 -35 -9.5 -72.5t-34.5 -69t-69 -52t-113 -20.5h-95v-222zM384 454q0 40 -23.5 59t-62.5 19h-72v-159h74q39 0 61.5 20t22.5 61z" />
    <glyph glyph-name="Q" unicode="Q" horiz-adv-x="692" 
d="M632 341q0 -36 -3 -75t-12.5 -75.5t-27 -70t-46.5 -59.5l102 -29q16 -5 18.5 -12.5t-4.5 -21.5l-36 -86q-9 -28 -41 -14l-225 94q-5 -1 -15 -1q-65 0 -111.5 15.5t-78 41.5t-50.5 61t-28.5 74t-12.5 79.5t-3 78.5q0 29 3.5 65.5t13.5 73t29 71.5t51 62t77.5 43.5
t109.5 16.5q94 0 151 -29.5t88 -77t41 -107t10 -118.5zM468 330q0 107 -26.5 156.5t-98.5 49.5q-66 0 -92 -50.5t-26 -155.5q0 -50 6 -88t19.5 -63.5t36 -38t56.5 -12.5q69 0 97 49.5t28 152.5z" />
    <glyph glyph-name="R" unicode="R" horiz-adv-x="600" 
d="M566 25q5 -11 1.5 -18t-14.5 -7h-123q-15 0 -24.5 4.5t-14.5 17.5l-102 231h-65v-231q0 -8 -3.5 -15t-17.5 -7h-115q-14 0 -18.5 6t-4.5 16v621q0 9 4.5 15.5t18.5 6.5h245q40 0 79.5 -12t70.5 -36.5t50 -63t19 -91.5q0 -25 -5.5 -51.5t-18.5 -50.5t-34 -44.5t-51 -34.5z
M388 460q0 39 -23.5 55t-58.5 16h-82v-149h80q13 0 28 3t27.5 11t20.5 23.5t8 40.5z" />
    <glyph glyph-name="S" unicode="S" horiz-adv-x="581" 
d="M274 -9q-16 0 -40 1.5t-51 5t-54.5 9.5t-51.5 15q-25 10 -28 19t0 23l12 58q5 20 12 22t27 -1l40 -4.5t45 -4.5t46 -3.5t44 -1.5q51 0 74.5 16t23.5 48q0 18 -5 29.5t-16.5 19.5t-29 13.5t-42.5 10.5q-43 9 -85 21.5t-75 34.5t-53.5 57t-20.5 89q0 49 17 87t48.5 63.5
t76.5 39t100 13.5q14 0 36.5 -0.5t49 -3.5t54 -9t51.5 -16q25 -9 28 -18.5t1 -23.5l-14 -59q-2 -10 -5 -14.5t-8 -6t-12.5 -1t-17.5 1.5q-34 5 -69.5 8t-81.5 3q-44 0 -65.5 -14t-21.5 -46q0 -16 4.5 -26t15 -17t27.5 -11.5t42 -9.5q43 -9 85 -21t75 -34t53.5 -58.5
t20.5 -95.5t-22 -99t-58.5 -64t-84 -34.5t-97.5 -10.5z" />
    <glyph glyph-name="T" unicode="T" horiz-adv-x="521" 
d="M509 552q0 -9 -4.5 -15t-17.5 -6h-148v-509q0 -8 -3.5 -15t-17.5 -7h-115q-13 0 -17.5 6t-4.5 16v509h-147q-14 0 -18 6t-4 15v91q0 10 4 16t18 6h453q22 0 22 -22v-91v0z" />
    <glyph glyph-name="U" unicode="U" horiz-adv-x="656" 
d="M327 128q51 0 78 30t27 93l-1 391q0 10 5 16.5t18 6.5h115q14 0 17.5 -7.5t3.5 -15.5l-1 -395q0 -29 -3.5 -58.5t-15.5 -60.5q-15 -37 -40.5 -63t-58 -42.5t-69.5 -24t-75 -7.5q-63 -1 -111.5 17.5t-81.5 52.5t-50 81.5t-17 104.5v395q0 10 4.5 16.5t17.5 6.5h115
q14 0 17.5 -7.5t3.5 -15.5v-391q0 -123 102 -123z" />
    <glyph glyph-name="V" unicode="V" horiz-adv-x="637" 
d="M254 402l64 -217h5l62 219l67 230q5 15 13.5 23t25.5 8h116q15 0 15.5 -8t-2.5 -17l-203 -611q-5 -13 -12.5 -21t-30.5 -8h-113q-20 0 -29 7t-13 21l-202 612q-5 11 -2 18t18 7h107q20 0 28.5 -6t12.5 -22z" />
    <glyph glyph-name="W" unicode="W" horiz-adv-x="877" 
d="M438 267l-28 -87l-47 -151q-5 -13 -12 -21t-30 -8h-93q-20 0 -29 7t-13 21l-171 612q-3 11 0 18t17 7h114q17 0 24.5 -6t11.5 -21l32 -128l12 -48l11 -43.5l8.5 -32.5t4.5 -16l36 -155h4l31 109q1 3 8 28.5t16 55.5l16.5 55.5t8.5 28.5l-47 148q-3 9 -0.5 17t13.5 8h106
q17 0 25.5 -5.5t12.5 -21.5l36 -138l13.5 -52t12.5 -47t9.5 -34.5t4.5 -16.5l33 -135h5l30 147q1 3 4 16.5l7.5 33.5l10.5 44.5l12 49.5l31 132q4 15 13 21t27 6h108q14 0 17 -7.5t-1 -18.5l-161 -610q-4 -14 -13 -21.5t-30 -7.5h-91q-23 0 -30.5 8t-12.5 21l-46 151l-26 87
h-5z" />
    <glyph glyph-name="X" unicode="X" horiz-adv-x="589" 
d="M378 339l185 -313q5 -8 4 -17t-17 -9h-125q-12 0 -19.5 4t-15.5 17l-49 94l-50 99l-49 -99l-48 -91q-7 -14 -15 -19t-23 -5h-125q-14 0 -16 8.5t5 19.5l184 311l-173 297q-6 11 -3 20t17 9h124q15 0 20.5 -4.5t12.5 -17.5l46 -89l44 -88l45 93l43 83q6 12 12.5 17t19.5 5
h127q20 1 21 -8t-4 -17z" />
    <glyph glyph-name="Y" unicode="Y" horiz-adv-x="629" 
d="M228 244l-215 396q-5 10 -2 17.5t14 7.5h119q17 0 24 -5t15 -19l66 -131l59 -120h6l62 121l64 123q8 15 15 23t24 8h120q12 0 15 -7t-2 -15l-226 -399v-222q0 -8 -3.5 -15t-16.5 -7h-116q-22 0 -22 22v222z" />
    <glyph glyph-name="Z" unicode="Z" horiz-adv-x="550" 
d="M219 133h268q14 0 18 -6t4 -15v-90q0 -10 -4 -16t-17 -6h-424q-22 0 -22 21v81q0 8 2.5 18.5t10.5 21.5l273 389h-244q-14 0 -18 6t-4 15v91q0 10 4 16t18 6h402q9 0 15 -6t6 -15l-1 -73q0 -16 -3 -26.5t-10 -21.5z" />
    <glyph glyph-name="bracketleft" unicode="[" horiz-adv-x="294" 
d="M178 25h58q21 0 21 -21v-79q0 -20 -21 -20h-178q-13 0 -17.5 6t-4.5 16v747q0 9 4.5 15t16.5 6h178q21 0 21 -20v-82q0 -8 -4.5 -13.5t-16.5 -5.5h-57v-549z" />
    <glyph glyph-name="backslash" unicode="\" horiz-adv-x="319" 
d="M9 669q-2 11 2 17.5t14 6.5h93q17 0 22 -17l171 -717q5 -21 -17 -21h-94q-8 0 -13.5 4t-7.5 12z" />
    <glyph glyph-name="bracketright" unicode="]" horiz-adv-x="294" 
d="M119 574h-58q-22 0 -22 19v82q0 9 6 14.5t15 5.5h179q13 0 17.5 -6t4.5 -15v-748q0 -9 -4.5 -15t-17.5 -6h-179q-12 0 -16.5 5.5t-4.5 14.5v79q0 10 6 15.5t15 5.5h59v549z" />
    <glyph glyph-name="asciicircum" unicode="^" horiz-adv-x="576" 
d="M288 545l-187 -210q-9 -8 -15.5 -8.5t-15.5 7.5l-37 29q-9 8 -9 12.5t8 14.5l180 256q8 10 15 14t25 4l82 -1q21 0 27 -4t12 -13l170 -256q8 -11 7.5 -16t-8.5 -12l-39 -29q-8 -8 -14.5 -7.5t-14.5 8.5z" />
    <glyph glyph-name="underscore" unicode="_" horiz-adv-x="500" 
d="M497 -47q13 0 17 -4.5t4 -15.5v-54q0 -11 -4 -16t-17 -5h-494q-21 0 -21 20v54q0 21 21 21h494z" />
    <glyph glyph-name="grave" unicode="`" horiz-adv-x="536" 
d="M229 769q7 4 14 4.5t15 -10.5l111 -159q7 -9 4.5 -14.5t-7.5 -9.5l-47 -37q-7 -6 -13.5 -3.5t-11.5 7.5l-136 139q-16 18 2 30z" />
    <glyph glyph-name="a" unicode="a" horiz-adv-x="573" 
d="M343 208h-90q-28 0 -44 -13t-16 -48q0 -23 9.5 -32t35.5 -9q23 0 53.5 11t51.5 24v67zM358 60q-20 -18 -43 -31t-47 -21.5t-47 -12t-42 -3.5q-44 0 -71.5 12.5t-42.5 32.5t-20.5 46.5t-5.5 55.5q-1 46 12.5 78t38.5 51.5t61 28t80 8.5h115v16q0 16 -3.5 27t-13 18
t-26.5 10.5t-45 3.5q-11 0 -27.5 -1l-34.5 -2t-36 -3t-33 -3q-21 -2 -27.5 0t-10.5 17l-11 52q-2 13 3.5 21.5t28.5 17.5q17 6 39.5 10.5t46 7.5t46.5 4.5t40 1.5q70 0 112.5 -13t65 -37t29.5 -59t7 -80v-158q0 -16 1.5 -25t5.5 -13.5t11 -6.5t19 -3q13 -1 17 -4.5t4 -12.5
v-64q0 -20 -29 -26q-28 -7 -62 -7q-37 0 -65 12.5t-38 52.5z" />
    <glyph glyph-name="b" unicode="b" horiz-adv-x="551" 
d="M199 486q29 9 54.5 13t46.5 4q66 0 107 -18.5t63.5 -52t30.5 -79.5t8 -101q0 -59 -9 -107.5t-34.5 -82.5t-70 -52.5t-115.5 -18.5q-25 0 -53 2t-55 5.5t-52 9t-44 13.5t-24.5 20t-5.5 29v614q0 10 4.5 16t17.5 6h110q14 0 17.5 -7.5t3.5 -14.5v-198zM352 244
q0 37 -4.5 61.5t-13.5 39t-23 21t-33 6.5q-20 0 -35 -2t-44 -9v-232q17 -3 34.5 -4t31.5 -1q18 0 34 4t28 16.5t18.5 36t6.5 63.5z" />
    <glyph glyph-name="c" unicode="c" horiz-adv-x="478" 
d="M450 59q4 -17 0 -26.5t-26 -18.5q-30 -11 -73.5 -17t-79.5 -6q-75 0 -120.5 22t-69.5 58t-32 82.5t-8 95.5q0 45 8.5 90.5t33 82t69.5 59t119 22.5q40 0 82.5 -5.5t74.5 -19.5q25 -10 21 -37l-11 -61q-4 -16 -10.5 -17.5t-27.5 0.5q-30 3 -57 5t-51 2q-51 0 -73 -28.5
t-22 -89.5q0 -73 20.5 -100.5t72.5 -27.5q21 0 54.5 2t65.5 6q16 2 21.5 0t8.5 -18z" />
    <glyph glyph-name="d" unicode="d" horiz-adv-x="553" 
d="M503 21q0 -8 -3.5 -14.5t-17.5 -6.5h-110q-12 0 -16 5t-4 15v26q-1 0 -1.5 0.5t-1.5 0.5q-33 -25 -70 -40t-72 -15q-51 0 -83.5 18.5t-51 51.5t-25.5 78.5t-7 99.5q0 60 7.5 108.5t29.5 83t62 53.5t104 19q34 0 59.5 -4.5t48.5 -11.5l1 1v194q0 10 4 16.5t17 6.5h109
q14 0 17.5 -7.5t3.5 -15.5v-662zM351 362q-26 7 -44 9t-34 2q-21 0 -36 -5.5t-24.5 -20t-13.5 -39t-4 -63.5q0 -37 3.5 -59.5t11 -35t19 -16.5t26.5 -4q12 0 25 3t26 7.5t24.5 10l20.5 9.5v202z" />
    <glyph glyph-name="e" unicode="e" horiz-adv-x="533" 
d="M198 211q1 -29 9 -47t21.5 -28.5t33 -14t44.5 -3.5q23 0 55 3t63 7q20 2 25 -0.5t9 -21.5l8 -47q3 -17 0 -26.5t-26 -18.5q-15 -5 -35.5 -9.5t-42 -7.5t-43.5 -4.5t-40 -1.5q-75 0 -121.5 21t-72 55.5t-34.5 80t-9 95.5q0 36 6 81t29 85t68.5 67t124.5 27q72 0 116 -20.5
t68.5 -53.5t33.5 -73.5t9 -80.5q0 -31 -11.5 -47.5t-43.5 -16.5h-244zM270 386q-35 0 -51.5 -21.5t-18.5 -63.5h139q0 36 -15 60.5t-54 24.5z" />
    <glyph glyph-name="f" unicode="f" horiz-adv-x="429" 
d="M247 22q0 -8 -3.5 -15t-17.5 -7h-109q-13 0 -17.5 6t-4.5 16v352h-42q-22 0 -22 23v75q0 22 22 22h43v47q0 80 46.5 128t147.5 48q14 0 32 -1t36.5 -4t37.5 -8t35 -12q17 -7 18 -16.5t-1 -19.5l-12 -63q-3 -12 -9.5 -13.5t-23.5 0.5q-29 4 -54 5.5t-33 1.5
q-38 0 -53 -17.5t-15 -50.5v-25h109q14 0 17.5 -5.5t3.5 -15.5v-76q0 -11 -3.5 -17t-17.5 -6h-110v-352z" />
    <glyph glyph-name="g" unicode="g" horiz-adv-x="552" 
d="M280 504q24 0 50.5 -2t52 -5.5t49.5 -9t43 -12.5q20 -8 25 -20.5t5 -29.5v-408q0 -48 -6.5 -89t-30 -71t-70.5 -47.5t-128 -17.5q-42 0 -85.5 6t-73.5 17q-23 9 -27.5 18.5t-2.5 21.5l12 56q3 16 10 18t24 -1q35 -5 71 -7.5t64 -2.5t46 4.5t28 13.5t13.5 23t3.5 34v24
q-29 -9 -54.5 -13t-45.5 -4q-64 0 -104.5 18.5t-64 51t-32.5 77.5t-9 99q0 56 10.5 103.5t37 82t72.5 53.5t117 19zM200 255q0 -37 4.5 -61t14 -38t24.5 -19.5t35 -5.5q15 0 33 2.5t42 8.5v223q-35 6 -66 6q-18 0 -34 -3.5t-27.5 -15.5t-18.5 -35t-7 -62z" />
    <glyph glyph-name="h" unicode="h" horiz-adv-x="558" 
d="M511 22q0 -8 -3.5 -15t-17.5 -7h-110q-22 0 -22 22v54t0.5 80.5t0.5 80.5v54q0 41 -14.5 58t-46.5 17q-11 0 -24.5 -3t-27 -7.5t-25.5 -9.5l-21 -9v-315q0 -8 -3.5 -15t-17.5 -7h-110q-12 0 -16.5 6t-4.5 16v662q0 10 4.5 16t16.5 6h111q14 0 17.5 -7t3.5 -15v-226
q31 17 71 31t78 14q56 0 88.5 -17.5t48.5 -46t20 -63.5t4 -70v-284z" />
    <glyph glyph-name="i" unicode="i" horiz-adv-x="277" 
d="M218 624q0 -14 -3 -27.5t-11.5 -24t-24 -17t-40.5 -6.5q-26 0 -42 6.5t-24.5 17.5t-11 24t-2.5 27q0 31 16 52.5t64 21.5q24 0 39.5 -5.5t24.5 -15.5t12 -23.5t3 -29.5zM213 22q0 -8 -3.5 -15t-16.5 -7h-110q-13 0 -17.5 6t-4.5 16v450q0 11 4.5 16.5t17.5 5.5h110
q13 0 16.5 -7.5t3.5 -14.5v-450z" />
    <glyph glyph-name="j" unicode="j" horiz-adv-x="292" 
d="M228 19q0 -67 -17.5 -112.5t-51 -72.5t-82.5 -37.5t-112 -8.5q-7 0 -16 4t-10 18l-7 78q-2 15 1.5 18.5t17.5 6.5q36 8 59.5 14.5t38 17t20.5 27t6 44.5v456q0 22 23 22h109q14 0 17.5 -7.5t3.5 -14.5v-453zM232 624q0 -14 -3 -27.5t-12 -24t-24.5 -17t-40.5 -6.5
q-26 0 -41.5 6.5t-24 17.5t-11 24t-2.5 27q0 31 16 52.5t63 21.5q25 0 40.5 -5.5t24.5 -15.5t12 -23.5t3 -29.5z" />
    <glyph glyph-name="k" unicode="k" horiz-adv-x="530" 
d="M204 332l63 72l60 68q9 11 18 16.5t29 5.5h114q18 0 20.5 -8t-8.5 -19l-153 -165l175 -274q8 -12 3 -20t-19 -8h-110q-23 0 -32.5 6.5t-15.5 17.5l-101 168l-46 -50v-120q0 -8 -3.5 -15t-17.5 -7h-109q-13 0 -17.5 6t-4.5 16v662q0 10 4.5 16.5t17.5 6.5h109
q14 0 17.5 -7.5t3.5 -15.5v-351z" />
    <glyph glyph-name="l" unicode="l" horiz-adv-x="300" 
d="M212 153q0 -21 10 -26t33 -6q15 -1 18 -3t5 -13l5 -75q1 -14 -16 -22q-18 -8 -42 -10.5t-38 -2.5q-65 0 -96 29.5t-31 98.5v561q0 10 4.5 16t17.5 6h109q14 0 17.5 -7t3.5 -15v-531z" />
    <glyph glyph-name="m" unicode="m" horiz-adv-x="843" 
d="M794 21q0 -8 -3.5 -14.5t-16.5 -6.5h-110q-13 0 -17.5 5.5t-4.5 15.5v263q0 46 -14 61t-42 15q-18 0 -44 -9.5t-45 -19.5v-310q0 -8 -3.5 -14.5t-17.5 -6.5h-110q-12 0 -16.5 5.5t-4.5 15.5v266q0 42 -13.5 57.5t-40.5 15.5q-18 0 -43.5 -9t-46.5 -20v-310q0 -8 -4 -14.5
t-18 -6.5h-110q-12 0 -16.5 5.5t-4.5 15.5v450q0 10 4.5 16t16.5 6h110q14 0 18 -7t4 -15v-23l1 -1q32 26 70 40.5t77 14.5q45 0 79 -16.5t50 -51.5q35 29 79.5 48.5t89.5 19.5q53 0 82.5 -17.5t44 -45.5t17.5 -63t3 -70v-285v0z" />
    <glyph glyph-name="n" unicode="n" horiz-adv-x="558" 
d="M510 21q0 -8 -3.5 -14.5t-17.5 -6.5h-110q-22 0 -22 21q0 66 0.5 131t0.5 131q0 42 -14.5 59.5t-46.5 17.5q-24 0 -52 -11.5t-46 -17.5v-310q0 -8 -3.5 -14.5t-17.5 -6.5h-109q-13 0 -17.5 5.5t-4.5 15.5v450q0 10 4.5 16t17.5 6h109q14 0 17.5 -7t3.5 -15v-24
q1 0 1.5 -0.5t1.5 -0.5q33 25 77 40.5t80 15.5q53 0 83.5 -17.5t45.5 -46t18.5 -63.5t3.5 -70v-284v0z" />
    <glyph glyph-name="o" unicode="o" horiz-adv-x="549" 
d="M508 254q0 -41 -6 -87t-30 -85t-71.5 -64.5t-129.5 -25.5q-81 0 -126.5 25.5t-68.5 64.5t-28.5 85t-5.5 87q0 34 7 77t30.5 81.5t69 64.5t122.5 26t124 -22.5t72 -58.5t33 -80.5t8 -87.5zM352 248q0 63 -14.5 94t-64.5 31q-46 0 -61.5 -32t-15.5 -93q0 -66 15 -96t60 -30
q50 0 65.5 31t15.5 95z" />
    <glyph glyph-name="p" unicode="p" horiz-adv-x="550" 
d="M512 248q0 -60 -8.5 -108t-31.5 -81t-62.5 -51t-100.5 -18q-21 0 -51 3.5t-57 11.5h-1v-178q0 -7 -3.5 -14.5t-17.5 -7.5h-110q-13 0 -17 6t-4 16v644q0 10 4.5 16t16.5 6h110q14 0 17.5 -7t3.5 -15v-24q1 0 1 -0.5t1 -0.5q33 24 70 39.5t72 15.5q52 0 84.5 -19.5
t51 -53.5t25.5 -80.5t7 -99.5zM355 246q0 36 -3.5 58t-11 35t-19 17.5t-26.5 4.5q-23 0 -50 -10.5t-45 -18.5v-201q24 -7 42.5 -9t35.5 -2q21 0 35.5 5t24 19t13.5 38.5t4 63.5z" />
    <glyph glyph-name="q" unicode="q" horiz-adv-x="552" 
d="M504 -173q0 -8 -3 -15t-17 -7h-110q-14 0 -18.5 6t-4.5 16v180q-29 -8 -54 -11.5t-45 -3.5q-64 0 -104.5 18.5t-64 51.5t-32.5 79t-9 101q0 57 10.5 105t37 82.5t72.5 54t117 19.5q50 0 104 -7t92 -22q19 -8 24 -20.5t5 -29.5v-597zM353 365q-36 6 -67 6q-18 0 -34 -4
t-27.5 -16.5t-18.5 -36.5t-7 -63q0 -38 4.5 -63t14.5 -40t24.5 -21t34.5 -6q28 0 76 12v232z" />
    <glyph glyph-name="r" unicode="r" horiz-adv-x="411" 
d="M216 424l2 -2q13 14 31.5 26.5t38.5 23t39.5 17.5t35.5 10q16 2 23.5 -1t9.5 -22l12 -98q1 -7 1 -11.5t-3 -8t-9 -6t-17 -4.5q-90 -17 -164 -43v-283q0 -8 -3.5 -15t-17.5 -7h-110q-13 0 -17.5 6t-4.5 16v450q0 10 4.5 16t17.5 6h109q14 0 18 -7.5t4 -14.5v-48z" />
    <glyph glyph-name="s" unicode="s" horiz-adv-x="488" 
d="M451 156q0 -47 -18.5 -78.5t-49.5 -50.5t-70.5 -27.5t-82.5 -8.5q-18 0 -39 1.5t-42.5 4.5t-41 7t-34.5 9q-25 9 -32 18.5t-2 29.5l11 48q3 14 9 17t23 0q35 -6 76 -9.5t67 -3.5q38 0 54 8.5t16 28.5q0 22 -12 29.5t-44 11.5q-41 6 -76.5 14t-62.5 24t-42.5 43t-15.5 71
q0 40 15.5 70t42.5 50t64.5 30t81.5 10q17 0 37.5 -1.5t41.5 -4t40.5 -6.5t35.5 -10q20 -7 29.5 -14.5t4.5 -26.5l-11 -51q-4 -14 -8.5 -17t-21.5 -1l-37 4.5t-39.5 4t-36.5 2.5t-29 1q-38 1 -47.5 -8.5t-9.5 -25.5q0 -19 17.5 -24.5t44.5 -10.5q39 -5 74 -12.5t61.5 -24.5
t42.5 -45.5t16 -75.5z" />
    <glyph glyph-name="t" unicode="t" horiz-adv-x="409" 
d="M401 45q3 -11 -2.5 -20t-15.5 -12q-18 -6 -38.5 -10t-40.5 -6.5t-37.5 -3.5t-29.5 -1q-47 0 -76 13.5t-45 35.5t-21.5 50.5t-5.5 59.5v223h-44q-12 0 -16.5 5.5t-4.5 16.5v75q0 11 4.5 16.5t16.5 5.5h45v98q0 12 6 17.5t16 8.5l101 27q11 4 18 -0.5t7 -16.5v-134h102
q14 0 17.5 -5t3.5 -16v-76q0 -11 -3.5 -16.5t-17.5 -5.5h-103l1 -186q0 -14 1.5 -24t7.5 -16.5t18 -10t34 -3.5q12 0 31 1t38 3q10 0 16 -2t8 -19z" />
    <glyph glyph-name="u" unicode="u" horiz-adv-x="555" 
d="M506 21q0 -10 -4.5 -15.5t-17.5 -5.5h-110q-14 0 -17.5 6.5t-3.5 14.5v25q-1 0 -1 0.5t-1 0.5q-34 -26 -77.5 -40.5t-79.5 -14.5q-53 0 -82.5 16t-44 42.5t-18 61t-3.5 72.5v287q0 8 3.5 15t17.5 7h110q12 0 16.5 -6t4.5 -16v-262q0 -38 13.5 -57.5t47.5 -19.5
q12 0 25 3.5t25.5 8t24 9.5t19.5 8v310q0 8 3.5 15t17.5 7h110q13 0 17.5 -6t4.5 -16v-450v0z" />
    <glyph glyph-name="v" unicode="v" horiz-adv-x="545" 
d="M276 167q0 2 6 22.5t14 45.5l20 65l58 173q3 11 9 16t24 5h103q17 0 20 -6t-2 -19l-165 -438q-6 -17 -15 -24t-29 -7h-93q-21 0 -29 7t-14 24l-164 437q-10 26 15 26h110q14 0 21 -3t12 -20l56 -176l19 -63l12.5 -43.5t6.5 -21.5h5z" />
    <glyph glyph-name="w" unicode="w" horiz-adv-x="759" 
d="M432 469l27 -89.5l26 -89.5l30 -104h4l32 125l41 159q4 14 8.5 18.5t15.5 4.5h112q14 0 16 -6.5t-1 -14.5l-138 -441q-5 -15 -12 -23t-27 -8h-84q-17 0 -24 5.5t-13 23.5l-24 72l-33 98h-3l-37 -101l-25 -69q-5 -13 -11.5 -21t-28.5 -8h-77q-20 0 -27.5 6t-12.5 22
l-149 443q-1 3 -1 8q0 14 16 14h113q13 0 19 -4t10 -17l45 -167l35 -128h5l36 113l27 79l-35 102q-3 8 0.5 15t14.5 7h100q15 0 20 -3.5t10 -20.5z" />
    <glyph glyph-name="x" unicode="x" horiz-adv-x="518" 
d="M345 252l158 -225q7 -11 3.5 -19t-17.5 -8h-117q-12 0 -19 3t-13 14l-82 131l-81 -130q-11 -18 -35 -18h-118q-13 0 -16.5 7t5.5 20l158 225l-148 216q-6 9 -4 17.5t16 8.5h117q14 0 19 -3.5t12 -13.5l75 -121l75 120q5 10 10.5 14t16.5 4h124q18 0 20 -8t-5 -18z" />
    <glyph glyph-name="y" unicode="y" horiz-adv-x="522" 
d="M263 191q5 14 12.5 37l15.5 46q9 26 18 56q11 32 23 72t23 71q4 11 10 16t24 5h100q17 0 19 -7t-3 -19l-238 -640q-5 -14 -12 -18.5t-24 -4.5h-96q-15 0 -18.5 5.5t2.5 19.5l68 183l-173 456q-10 25 16 25h107q14 0 20.5 -3t11.5 -18l47 -145l42 -137h5z" />
    <glyph glyph-name="z" unicode="z" horiz-adv-x="471" 
d="M418 122q22 0 22 -22v-78q0 -22 -22 -22h-370q-13 0 -16.5 5t-3.5 15v64q0 8 2 17t13 22l209 250h-189q-21 0 -21 22v78q0 21 21 21h350q13 0 17 -4.5t4 -15.5v-67q0 -9 -2.5 -18t-12.5 -21l-206 -246h205z" />
    <glyph glyph-name="braceleft" unicode="{" horiz-adv-x="344" 
d="M227 42q0 -22 7.5 -32t29.5 -12l26 -2q9 -1 14 -4.5t5 -14.5v-64q0 -17 -17 -19q-24 -4 -46.5 -4.5t-39.5 -0.5q-33 0 -56 10t-37 26.5t-20 37.5t-6 42v169q0 16 -0.5 29.5t-4.5 23.5t-12.5 17t-23.5 12q-17 5 -17 19v53q0 14 15 17q32 9 37.5 30t5.5 54v155
q0 22 7.5 43.5t22.5 38.5t38 27t55 10q17 0 35 -1.5t47 -4.5q11 -1 14 -6t3 -14v-65q0 -11 -5 -15t-14 -4l-27 -2q-21 -2 -28 -12.5t-7 -32.5v-131q0 -13 -2.5 -30t-9.5 -34t-20 -31t-34 -21v-3q24 -9 37 -21t19 -27t7.5 -31.5t1.5 -32.5v-142z" />
    <glyph glyph-name="bar" unicode="|" horiz-adv-x="297" 
d="M82 675q0 22 22 22h90q14 0 17 -7t3 -15v-764q0 -8 -3 -15t-17 -7h-90q-22 0 -22 22v764z" />
    <glyph glyph-name="braceright" unicode="}" horiz-adv-x="344" 
d="M109 184q0 16 1.5 32.5t7.5 31.5t19 27t37 21v3q-21 7 -34 21t-20 31t-9.5 34t-2.5 30v131q0 22 -7 32.5t-28 12.5l-27 2q-9 0 -13.5 4t-4.5 15v65q0 18 16 20q27 4 46 4.5t36 0.5q31 0 54.5 -10t38.5 -26.5t22.5 -38t7.5 -43.5v-155q0 -33 5.5 -54t37.5 -30
q15 -3 15 -17v-53q0 -14 -16 -19t-24.5 -12t-12.5 -17t-4.5 -23.5t-0.5 -29.5v-169q0 -21 -6 -42t-20 -37.5t-36.5 -26.5t-55.5 -10q-17 0 -40 0.5t-47 4.5q-16 2 -16 19v64q0 11 4.5 14.5t13.5 4.5l26 2q22 2 29.5 12t7.5 32v142z" />
    <glyph glyph-name="asciitilde" unicode="~" horiz-adv-x="597" 
d="M396 219q-20 0 -44.5 8t-50.5 18t-50.5 18t-42.5 8q-17 0 -31.5 -8.5t-34.5 -32.5q-6 -7 -9.5 -10t-16.5 4l-42 23q-5 2 -9.5 8t0.5 14q27 63 67.5 87t79.5 24q25 0 52 -7.5t53 -17t49.5 -17t41.5 -7.5q17 0 29.5 9.5t25.5 28.5q5 8 10.5 10t16.5 -5l42 -25
q10 -6 12.5 -10t-1.5 -13q-14 -32 -30.5 -52.5t-35 -32.5t-39 -17t-42.5 -5z" />
    <glyph glyph-name="dieresistonos" unicode="&#x385;" horiz-adv-x="515" 
d="M96 546q-25 0 -39.5 6t-22 15.5t-9.5 22.5t-2 27q0 29 14 48.5t59 19.5q46 0 60 -18.5t14 -49.5q0 -14 -2.5 -27t-10.5 -23t-22.5 -15.5t-38.5 -5.5zM414 546q-24 0 -38.5 6t-22 15.5t-10 22.5t-2.5 27q0 29 14.5 48.5t58.5 19.5q47 0 60.5 -18.5t13.5 -49.5
q0 -14 -2.5 -27t-10.5 -23t-22.5 -15.5t-38.5 -5.5zM357 739q23 -8 8 -29l-99 -163q-5 -8 -10 -12t-14 0l-55 22q-7 3 -10 7.5t1 15.5l72 181q5 11 12 13t14 -1z" />
    <glyph glyph-name="tonos" unicode="&#x384;" horiz-adv-x="536" 
d="M405 729q21 -11 5 -30l-117 -151q-5 -7 -11 -10.5t-15 1.5l-52 28q-6 4 -8.5 9t2.5 15l92 172q6 11 13.5 12t14.5 -3z" />
    <glyph glyph-name="dieresis" unicode="&#xa8;" horiz-adv-x="536" 
d="M177 546q-25 0 -39.5 6t-22 15.5t-9.5 22.5t-2 27q0 29 14 48.5t59 19.5q46 0 60 -18.5t14 -49.5q0 -14 -2.5 -27t-10.5 -23t-22.5 -15.5t-38.5 -5.5zM386 546q-24 0 -38.5 6t-22 15.5t-10 22.5t-2.5 27q0 29 14.5 48.5t58.5 19.5q47 0 60.5 -18.5t13.5 -49.5
q0 -14 -2.5 -27t-10.5 -23t-22.5 -15.5t-38.5 -5.5z" />
    <glyph glyph-name="sterling" unicode="&#xa3;" horiz-adv-x="597" 
d="M334 669q14 0 36 -1t47.5 -4t51.5 -8.5t49 -14.5q13 -5 16 -10.5t1 -15.5l-11 -71q-2 -14 -7.5 -17.5t-14.5 -1.5q-33 5 -64.5 8t-66.5 3q-45 0 -66 -18.5t-25 -50.5q-2 -19 -2.5 -38.5t1.5 -38.5h139q12 0 16.5 -4t4.5 -15v-71q0 -12 -4.5 -16t-16.5 -4h-135
q0 -18 -1.5 -39.5t-4.5 -43t-8.5 -40.5t-14.5 -32h52.5t64.5 -0.5t69.5 -0.5h67.5q20 0 20 -19v-86q0 -12 -4 -15.5t-16 -3.5h-428q-21 0 -21 19q-1 19 -1 37v36q0 8 5 17.5t18 19.5q21 14 32 39t15 48q2 10 3 26t1 38h-49q-12 0 -17 4t-5 16v71q0 11 5 15t17 4h46
q-1 16 -1 31v30v31t1 29q3 35 16 64t37.5 50t62 32.5t89.5 11.5z" />
    <glyph glyph-name="trademark" unicode="&#x2122;" horiz-adv-x="726" 
d="M673 663q13 0 13 -13v-288q0 -14 -13 -14h-65q-14 0 -14 14v148h-2l-15 -29l-38 -67q-8 -12 -19 -12h-21q-8 0 -11.5 2.5t-6.5 7.5l-33 64l-18 34q-1 0 -1 0.5t-1 0.5v-149q0 -14 -14 -14h-66q-14 0 -14 14v288q0 13 14 13h66q8 0 11.5 -3.5t7.5 -9.5l78 -139h1
q-1 0 11.5 21.5l27.5 47.5l39 70q4 6 7.5 9.5t11.5 3.5h64zM308 598q0 -15 -14 -15h-81v-221q0 -14 -15 -14h-64q-15 0 -15 14v221h-79q-14 0 -14 15v51q0 13 12 13h257q13 0 13 -13v-51z" />
    <glyph glyph-name="bullet" unicode="&#x2022;" horiz-adv-x="394" 
d="M197 140q-29 0 -54.5 11t-44 30t-29.5 45t-11 56t11 56t29.5 45.5t44 30.5t54.5 11t54.5 -11t44.5 -30.5t30 -45.5t11 -56t-11 -56t-30 -45t-44.5 -30t-54.5 -11z" />
    <glyph glyph-name="sfthyphen" unicode="&#xad;" horiz-adv-x="411" 
d="M364 378q13 0 17 -4.5t4 -14.5v-77q0 -11 -4 -16t-17 -5h-312q-21 0 -21 21v76q0 20 21 20h312z" />
    <glyph glyph-name="dagger" unicode="&#x2020;" horiz-adv-x="524" 
d="M48 386q-10 0 -16 4.5t-6 17.5v80q0 14 7.5 17t14.5 3h141v162q0 10 4.5 16.5t17.5 6.5h103q14 0 17.5 -7.5t3.5 -15.5v-162h143q7 0 14.5 -3t7.5 -17v-80q0 -13 -6 -17.5t-16 -4.5h-143v-410q0 -7 -3.5 -14.5t-17.5 -7.5h-103q-13 0 -17.5 5.5t-4.5 16.5v410h-141z" />
    <glyph glyph-name="Gamma" unicode="&#x393;" horiz-adv-x="517" 
d="M227 22q0 -8 -3.5 -15t-17.5 -7h-116q-13 0 -17.5 6t-4.5 16l-1 621q0 9 4.5 15.5t17.5 6.5h390q22 0 22 -22v-91q0 -9 -4.5 -15t-18.5 -6h-251v-509z" />
    <glyph glyph-name="Delta" unicode="&#x394;" horiz-adv-x="618" 
d="M607 23q2 -6 2 -9q0 -14 -14 -14h-571q-16 0 -16 14q0 3 2 11l195 610q5 14 12 21.5t29 7.5h118q22 0 28.5 -7.5t11.5 -22.5zM409 131l-20.5 74l-27 94.5l-28.5 103l-26 97.5h-5l-15.5 -62t-18.5 -66q-2 -6 -7.5 -25.5l-13 -45l-16 -53.5l-16 -52.5l-13 -42.5t-6.5 -22
h213z" />
    <glyph glyph-name="Delta" unicode="&#x2206;" horiz-adv-x="618" 
d="M607 23q2 -6 2 -9q0 -14 -14 -14h-571q-16 0 -16 14q0 3 2 11l195 610q5 14 12 21.5t29 7.5h118q22 0 28.5 -7.5t11.5 -22.5zM409 131l-20.5 74l-27 94.5l-28.5 103l-26 97.5h-5l-15.5 -62t-18.5 -66q-2 -6 -7.5 -25.5l-13 -45l-16 -53.5l-16 -52.5l-13 -42.5t-6.5 -22
h213z" />
    <glyph glyph-name="Theta" unicode="&#x398;" horiz-adv-x="692" 
d="M635 341q0 -57 -9 -118.5t-39 -113t-88 -85t-156 -33.5t-155 33.5t-86 85t-37 113t-8 118.5q0 29 3.5 65.5t14 73t29.5 71.5t51 62t78 43.5t110 16.5q94 0 151.5 -29.5t88.5 -77t41.5 -107t10.5 -118.5zM471 330q0 54 -6 92.5t-21 64t-39.5 37.5t-60.5 12
q-67 0 -93 -50.5t-26 -155.5q0 -101 25.5 -151.5t93.5 -50.5q69 0 98 49.5t29 152.5zM283 273q-8 0 -15 3.5t-7 17.5v84q0 12 6 16t16 4h128q10 0 15.5 -4t5.5 -16v-84q0 -14 -7 -17.5t-14 -3.5h-128z" />
    <glyph glyph-name="Lambda" unicode="&#x39b;" horiz-adv-x="618" 
d="M607 23q2 -6 2 -9q0 -14 -14 -14h-123q-16 0 -22 7t-11 23l-48 166.5l-49 172.5l-35 131h-5l-15 -62.5t-18 -65.5l-11 -37.5l-18 -63.5l-22 -76l-22 -75l-17.5 -60.5l-9.5 -32.5q-5 -16 -13 -21.5t-22 -5.5h-110q-16 0 -16 14q0 3 2 11l195 610q5 14 12 21.5t29 7.5h118
q22 0 28.5 -7.5t11.5 -22.5z" />
    <glyph glyph-name="Xi" unicode="&#x39e;" horiz-adv-x="579" 
d="M507 665q22 0 22 -22v-91q0 -9 -4.5 -15t-17.5 -6h-140v-121h106q22 0 22 -21v-91q0 -9 -4.5 -15t-17.5 -6h-106v-144h150q22 0 22 -22v-91q0 -9 -4.5 -14.5t-18.5 -5.5h-455q-13 0 -17.5 5.5t-4.5 14.5v91q0 22 22 22h150v144h-106q-13 0 -17.5 6t-4.5 15v91q0 21 22 21
h106v121h-140q-13 0 -17.5 6t-4.5 15v91q0 22 22 22h436v0z" />
    <glyph glyph-name="Pi" unicode="&#x3a0;" horiz-adv-x="648" 
d="M560 665q13 0 16.5 -7.5t3.5 -15.5v-620q0 -8 -3.5 -15t-16.5 -7h-116q-13 0 -17.5 6t-4.5 16v509h-196v-509q0 -8 -3.5 -15t-17.5 -7h-116q-12 0 -16.5 6t-4.5 16v620q0 10 4.5 16.5t16.5 6.5h471z" />
    <glyph glyph-name="germandbls" unicode="&#xdf;" horiz-adv-x="552" 
d="M200 5q0 -8 -4 -15t-18 -7h-110q-12 0 -16.5 6t-4.5 16v500q0 57 20 97t51 65t67.5 36t69.5 11q95 0 152.5 -45.5t57.5 -136.5q0 -11 -2.5 -27t-8.5 -33t-16.5 -34t-26.5 -29q31 -12 50.5 -32t30 -45t14 -54.5t3.5 -59.5q0 -231 -197 -230q-9 0 -20 0.5t-21 2.5
q-8 2 -17 7t-8 22l5 72q1 11 4.5 13t16.5 5q46 6 64 31.5t17 84.5q0 53 -18 79t-69 29q-11 1 -14.5 6.5t-3.5 10.5v54q0 13 6.5 17t11.5 6q32 12 44.5 35.5t12.5 54.5q0 29 -15 49t-47 20q-26 0 -43.5 -19t-17.5 -60v-503z" />
    <glyph glyph-name="registered" unicode="&#xae;" horiz-adv-x="537" 
d="M375 390q5 -11 -6 -11h-49q-11 0 -17 10l-7 17t-11 25t-11 25t-8 17h-20v-83q0 -3 -1 -7t-8 -4h-46q-7 0 -8.5 3t-1.5 8v233q0 11 11 11h93q15 0 30.5 -4.5t27.5 -14t19.5 -24.5t7.5 -36q0 -20 -8.5 -39t-31.5 -30zM303 554q0 14 -8.5 19.5t-19.5 5.5h-29v-52h29
q9 0 18.5 5t9.5 22zM273 277q-48 0 -89.5 17.5t-73 48.5t-49.5 72t-18 89t18 89t49.5 72t73 48.5t89.5 17.5t90 -17.5t73 -48.5t48.5 -72t17.5 -89t-18 -89t-49 -72t-72.5 -48.5t-89.5 -17.5zM273 676q-36 0 -67.5 -13.5t-55.5 -37t-37.5 -54.5t-13.5 -67t13.5 -67
t37.5 -54.5t55.5 -37t67.5 -13.5t67 13.5t54.5 37t37 54.5t13.5 67t-13.5 67t-37 54.5t-54.5 37t-67 13.5z" />
    <glyph glyph-name="copyright" unicode="&#xa9;" horiz-adv-x="826" 
d="M412 -14q-74 0 -138.5 27.5t-112.5 74.5t-75.5 111t-27.5 137t27.5 137t75.5 111t112.5 74.5t138.5 27.5q75 0 140 -27.5t113 -74.5t75 -111t27 -137t-28 -137t-76 -111t-113 -74.5t-138 -27.5zM412 605q-56 0 -105 -21t-86 -57.5t-58 -85.5t-21 -105t21 -105t58 -86
t86 -58t105 -21t105.5 21t86 58t58 86t21.5 105t-21.5 105t-58 85.5t-86 57.5t-105.5 21zM242 329q0 37 7 73t25.5 65t52 47t87.5 18q27 0 57 -4t53 -14q9 -4 14 -9t3 -16l-7 -35q-4 -14 -21 -11q-20 3 -45.5 4.5t-45.5 1.5q-25 0 -40.5 -9.5t-24.5 -25.5t-12.5 -37.5
t-3.5 -45.5q0 -28 3.5 -50t12.5 -37.5t24.5 -23.5t40.5 -8q24 0 44 1t48 4q16 3 21 -11l7 -31q3 -11 -1.5 -17t-13.5 -10q-23 -10 -54 -14.5t-59 -4.5q-53 0 -86.5 17.5t-52.5 45.5t-26 64t-7 73z" />
    <glyph glyph-name="Sigma" unicode="&#x3a3;" horiz-adv-x="529" 
d="M504 21q0 -10 -4 -15.5t-18 -5.5h-419q-21 0 -21 21v67q0 17 5 29t17 32l116 192l-126 181q-12 17 -14.5 28.5t-2.5 24.5v63q0 10 6 17.5t17 7.5h406q14 0 18 -6t4 -16v-91q0 -9 -4 -15t-18 -6h-251l109 -151q8 -11 14 -21t6 -18q0 -6 -2.5 -11.5t-7.5 -13.5l-116 -182
h264q14 0 18 -5.5t4 -14.5v-91v0z" />
    <glyph glyph-name="section" unicode="&#xa7;" horiz-adv-x="456" 
d="M237 675q48 0 93 -9t69 -23q11 -6 15.5 -13t0.5 -19l-17 -52q-3 -11 -7.5 -15.5t-10 -5t-12.5 1l-16 3.5q-23 4 -51.5 7.5t-48.5 3.5q-32 0 -56 -11.5t-24 -32.5q0 -14 10.5 -25.5t25 -20.5t30.5 -16t27 -13l55 -26.5t51.5 -32t38.5 -44t15 -62.5q0 -35 -14 -70t-47 -69
q27 -25 43.5 -55t16.5 -70q0 -49 -20 -81.5t-51 -52t-68.5 -28t-71.5 -8.5q-47 0 -90.5 9t-66.5 23q-11 6 -15.5 13t-0.5 19l17 52q3 11 7.5 15.5t10 5t12.5 -1.5t16 -3q31 -5 56 -8t47 -3q39 0 60 12.5t21 34.5q0 18 -20 34.5t-46.5 30.5t-53.5 25t-41 19q-17 10 -33.5 22
t-29.5 27.5t-20.5 35.5t-7.5 46q0 34 14.5 70t45.5 69q-29 23 -44.5 53.5t-15.5 71.5q0 44 17.5 75.5t46 52t65 30t73.5 9.5zM290 250q0 16 -11 27t-27 20q-13 8 -27.5 14t-30.5 14q-13 -17 -19 -33t-6 -28q0 -14 8.5 -24t22.5 -19t31 -16.5t35 -14.5q15 18 19.5 32.5
t4.5 27.5z" />
    <glyph glyph-name="degree" unicode="&#xb0;" horiz-adv-x="393" 
d="M200 364q-38 0 -68.5 12t-51.5 33t-32.5 49.5t-11.5 60.5q0 31 13 59t35.5 49.5t52 34t63.5 12.5t63.5 -12.5t51 -34t34 -49.5t12.5 -59q0 -32 -12.5 -60.5t-34.5 -49.5t-51 -33t-63 -12zM198 581q-26 0 -45.5 -19t-19.5 -45t18.5 -45t46.5 -19q26 0 45 19t19 45t-19 45
t-45 19z" />
    <glyph glyph-name="periodcentered" unicode="&#xb7;" horiz-adv-x="234" 
d="M197 269q0 -14 -3 -28t-11.5 -24.5t-24.5 -17t-41 -6.5q-27 0 -42.5 6.5t-24 17.5t-11 24.5t-2.5 27.5q0 31 16 53t64 22q25 0 40.5 -5.5t24.5 -15.5t12 -24t3 -30z" />
    <glyph glyph-name="yen" unicode="&#xa5;" horiz-adv-x="599" 
d="M84 257q-11 0 -15.5 3.5t-4.5 14.5v44q0 17 20 17h92l-147 302q-2 4 -2 10q0 15 16 15h114q17 0 23.5 -4.5t14.5 -19.5l104 -250h6l50 122t50 121q8 15 14.5 23t23.5 8h116q8 0 12 -4.5t4 -10.5t-3 -10l-76 -150.5l-76 -151.5h91q13 0 16.5 -3.5t3.5 -13.5v-44
q0 -11 -3.5 -14.5t-16.5 -3.5h-427zM511 220q13 0 16.5 -4t3.5 -14v-43q0 -11 -3.5 -15t-16.5 -4h-136v-118q0 -8 -3.5 -15t-16.5 -7h-114q-12 0 -16.5 6t-4.5 16v118h-136q-20 0 -20 19v43q0 18 20 18h427z" />
    <glyph glyph-name="Phi" unicode="&#x3a6;" horiz-adv-x="830" 
d="M340 642q0 10 4.5 16.5t17.5 6.5h115q14 0 18 -7.5t4 -15.5v-16q84 -7 137.5 -35.5t83.5 -68t41.5 -86t11.5 -89.5q0 -44 -11.5 -92.5t-42 -90t-83.5 -71.5t-137 -38v-33q0 -8 -4 -15t-18 -7h-115q-13 0 -17.5 6t-4.5 16v32q-60 4 -104.5 19t-76 38t-51.5 52t-31.5 60.5
t-16 63t-4.5 60.5q0 22 4.5 50.5t16.5 58t32.5 58t52 52t75.5 40t103 20.5v16zM221 340q0 -69 28 -107t91 -47v310q-62 -8 -90.5 -49t-28.5 -107zM613 339q0 63 -26 105t-88 50v-306q58 8 86 46.5t28 104.5z" />
    <glyph glyph-name="Psi" unicode="&#x3a8;" horiz-adv-x="799" 
d="M319 642q0 10 5 16.5t18 6.5h116q14 0 17 -7.5t3 -15.5v-358q45 5 76 38.5t31 91.5v228q0 10 4.5 16.5t17.5 6.5h111q14 0 17 -7.5t3 -15.5v-33.5t0.5 -29t0.5 -55v-111.5q0 -56 -17 -102.5t-50.5 -81t-82 -55t-111.5 -23.5v-129q0 -8 -3.5 -15t-17.5 -7h-115
q-23 0 -23 22v129q-72 3 -121.5 24.5t-80.5 56.5t-45 81.5t-14 99.5v229q0 10 4.5 16.5t16.5 6.5h113q14 0 17.5 -7.5t3.5 -15.5v-228q0 -59 30.5 -92.5t75.5 -37.5v358z" />
    <glyph glyph-name="Omega" unicode="&#x3a9;" horiz-adv-x="694" 
d="M571 132q0 -1 0.5 -1.5t0.5 -1.5h54q14 0 18 -5.5t4 -14.5v-88q0 -10 -4 -15.5t-18 -5.5h-221q-15 0 -18.5 7t-3.5 14v106q0 12 6.5 17.5l12.5 10.5q40 23 56.5 66.5t16.5 108.5q0 47 -6 85t-20.5 64.5t-39 41t-61.5 14.5q-35 0 -58.5 -15t-37.5 -42t-20.5 -64.5
t-6.5 -83.5q0 -72 14 -113t46 -60l12.5 -10.5t6.5 -19.5v-106q0 -6 -3 -13.5t-18 -7.5h-220q-14 0 -17.5 5.5t-3.5 15.5v88q0 9 4 14.5t18 5.5h57l2 2q-20 15 -32.5 41t-19.5 56t-10 60t-3 53q0 31 4.5 68t16 74t32 71t52.5 60t77 42t106 16q90 0 147 -29.5t89 -77
t44 -106.5t12 -118q0 -21 -3.5 -49t-11.5 -57t-20.5 -56.5t-31.5 -46.5z" />
    <glyph glyph-name="guillemotleft" unicode="&#xab;" horiz-adv-x="555" 
d="M150 354q5 5 12.5 11t17.5 6h119q9 0 11.5 -4.5t-2.5 -9.5l-128 -157l122 -154q3 -4 2.5 -11t-8.5 -7h-118q-11 0 -17.5 6.5t-11.5 12.5l-107 135q-10 13 -9 21.5t9 17.5zM361 354q5 5 12.5 11t17.5 6h119q9 0 11.5 -4.5t-2.5 -9.5l-128 -157l122 -154q3 -4 2.5 -11
t-8.5 -7h-118q-11 0 -17.5 6.5t-11.5 12.5l-107 135q-10 13 -8.5 21.5t8.5 17.5z" />
    <glyph glyph-name="guillemotright" unicode="&#xbb;" horiz-adv-x="555" 
d="M512 220q8 -11 8.5 -19t-8.5 -19l-108 -135q-5 -6 -11.5 -12.5t-16.5 -6.5h-120q-8 0 -8.5 6.5t2.5 10.5l124 155l-126 156q-5 5 -2.5 10t11.5 5h117q11 0 18.5 -6t12.5 -12zM301 220q8 -10 8.5 -18.5t-8.5 -19.5l-108 -135q-5 -6 -11.5 -12.5t-16.5 -6.5h-120
q-8 0 -8 6.5t3 10.5l124 155l-127 156q-4 5 -2 10t12 5h116q11 0 18.5 -6t12.5 -12z" />
    <glyph glyph-name="ellipsis" unicode="&#x2026;" horiz-adv-x="750" 
d="M195 66q0 -14 -3 -28t-12 -24.5t-24.5 -17t-40.5 -6.5q-27 0 -43 6.5t-24.5 17.5t-11 24.5t-2.5 27.5q0 16 3.5 29.5t12.5 23.5t25 16t40 6q25 0 40.5 -5.5t24.5 -15.5t12 -24t3 -30zM454 66q0 -14 -3 -28t-12 -24.5t-24.5 -17t-40.5 -6.5q-27 0 -42.5 6.5t-24 17.5
t-11 24.5t-2.5 27.5q0 32 16 53.5t64 21.5q25 0 40.5 -5.5t24.5 -15.5t12 -24t3 -30zM716 66q0 -14 -3 -28t-12 -24.5t-25 -17t-41 -6.5q-26 0 -42 6.5t-24.5 17.5t-11 24.5t-2.5 27.5q0 32 16 53.5t64 21.5q49 0 65 -21t16 -54z" />
    <glyph glyph-name="oe" unicode="&#x153;" horiz-adv-x="848" 
d="M512 208q1 -29 8.5 -47t20.5 -28t32 -13.5t45 -3.5q23 0 56 2.5t65 7.5q19 2 25 -1.5t9 -20.5l8 -47q4 -18 0.5 -27t-26.5 -18q-15 -6 -35.5 -10.5t-43 -7.5t-44.5 -4.5t-40 -1.5q-59 0 -99 15.5t-65 43.5q-23 -25 -62 -40t-95 -15q-81 0 -126.5 25.5t-68.5 64.5
t-28.5 85t-5.5 87q0 34 7 77t30.5 81.5t69 64.5t122.5 26q57 0 96.5 -15.5t65.5 -41.5q24 24 61 39t90 15q72 0 116 -20.5t69 -53t34 -73.5t9 -81q0 -31 -11.5 -47.5t-43.5 -16.5h-245zM352 248q0 63 -14.5 94t-64.5 31q-46 0 -61.5 -32t-15.5 -93q0 -66 15 -96t60 -30
q50 0 65.5 31t15.5 95zM585 381q-36 0 -52 -20.5t-18 -58.5h137q0 15 -3.5 29t-11 25t-20.5 18t-32 7z" />
    <glyph glyph-name="endash" unicode="&#x2013;" horiz-adv-x="500" 
d="M459 305q14 0 17.5 -5t3.5 -15v-62q0 -11 -3.5 -16t-16.5 -5h-420q-21 0 -21 21v61q0 21 21 21h419z" />
    <glyph glyph-name="afii00208" unicode="&#x2015;" horiz-adv-x="1000" 
d="M950 305q14 0 17.5 -5t3.5 -15v-62q0 -11 -3.5 -16t-16.5 -5h-902q-21 0 -21 21v61q0 21 21 21h901z" />
    <glyph glyph-name="quotedblleft" unicode="&#x201c;" horiz-adv-x="472" 
d="M51 520q0 33 9.5 63t25 55t35 44.5t39.5 31.5q22 12 37 -5l26 -26q11 -12 10.5 -18t-14.5 -20q-18 -18 -25.5 -37.5t-7.5 -36.5q0 -32 22 -59q14 -14 15 -24t-17 -23l-65 -50q-15 -11 -25.5 -7t-22.5 15q-20 20 -31 47t-11 50zM243 520q0 33 9.5 63t25 55t35 44.5
t39.5 31.5q22 12 37 -5l26 -26q11 -12 10.5 -18t-14.5 -20q-18 -18 -26 -37.5t-8 -36.5q0 -16 6 -31t17 -28q14 -14 15 -24t-17 -23l-65 -50q-15 -11 -25.5 -7t-22.5 15q-20 20 -31 47t-11 50z" />
    <glyph glyph-name="quotedblright" unicode="&#x201d;" horiz-adv-x="472" 
d="M428 606q0 -33 -9.5 -63t-25 -55t-35 -44.5t-39.5 -31.5q-21 -11 -37 5l-26 26q-11 12 -10.5 18t14.5 20q18 18 26 37.5t8 36.5q0 16 -6 31t-17 28q-14 14 -15 24t17 23l65 50q16 11 26 7t22 -15q20 -20 31 -47t11 -50zM236 606q0 -33 -9.5 -63t-25 -55t-35 -44.5
t-39.5 -31.5q-21 -11 -37 5l-26 26q-11 12 -10 18t14 20q18 18 26 37.5t8 36.5q0 16 -6 31t-17 28q-14 14 -14.5 24t16.5 23l66 50q15 11 25 7t22 -15q20 -20 31 -47t11 -50z" />
    <glyph glyph-name="quoteleft" unicode="&#x2018;" horiz-adv-x="284" 
d="M55 519q0 33 9.5 63t25 55t35 44.5t39.5 31.5q11 7 20 5t17 -10l26 -26q11 -12 10 -18t-14 -20q-18 -18 -26 -37.5t-8 -36.5q0 -33 23 -59q14 -14 14.5 -23.5t-16.5 -23.5l-66 -50q-15 -11 -25 -7t-22 15q-20 20 -31 47t-11 50z" />
    <glyph glyph-name="quoteright" unicode="&#x2019;" horiz-adv-x="284" 
d="M236 606q0 -33 -9.5 -63.5t-25 -55.5t-35 -44.5t-39.5 -31.5q-21 -11 -37 5l-26 27q-11 11 -10 17t14 20q18 18 26 37.5t8 36.5q0 16 -6 31t-17 28q-14 14 -14.5 24t16.5 23l66 50q15 11 25 7t22 -15q20 -19 31 -46t11 -50z" />
    <glyph glyph-name="divide" unicode="&#xf7;" horiz-adv-x="597" 
d="M93 269q-21 0 -21 21v70q0 20 21 20h412q13 0 17 -4.5t4 -15.5v-70q0 -11 -4 -16t-17 -5h-412zM297 423q-27 0 -42.5 6.5t-23.5 17t-10.5 24t-2.5 28.5q0 16 3 29t12 22.5t24.5 15t39.5 5.5t39.5 -5t24 -14.5t11.5 -23t3 -29.5q0 -15 -2.5 -29t-11 -24.5t-24 -16.5
t-40.5 -6zM297 71q-27 0 -42.5 6t-23.5 16.5t-10.5 24t-2.5 28.5q0 16 3 29t12 23t24.5 15.5t39.5 5.5t39.5 -5t24 -14.5t11.5 -23t3 -30.5q0 -15 -2.5 -28.5t-11 -24t-24 -16.5t-40.5 -6z" />
    <glyph glyph-name="alpha" unicode="&#x3b1;" horiz-adv-x="579" 
d="M195 240q0 -36 3.5 -58.5t11 -35t19 -17.5t27.5 -5q21 0 49 10t47 20v192q-25 11 -44.5 14.5t-30.5 3.5q-42 0 -62 -29.5t-20 -94.5zM504 150q0 -14 1 -22t3.5 -12t8 -5.5t14.5 -2.5q13 -1 16.5 -4.5t3.5 -12.5v-64q0 -20 -28 -26q-28 -7 -62 -7q-38 0 -63 12.5t-35 52.5
l-2 1q-42 -38 -82.5 -53t-76.5 -15q-50 0 -81.5 19t-49.5 53t-24.5 79.5t-6.5 98.5t10.5 100t34 82.5t60 56.5t89.5 21q24 0 56.5 -8t64.5 -31l2 1v11q0 10 3.5 14.5t17.5 4.5h105q14 0 17.5 -7.5t3.5 -14.5v-322z" />
    <glyph glyph-name="beta" unicode="&#x3b2;" horiz-adv-x="551" 
d="M510 241q0 -61 -9.5 -107.5t-32.5 -78.5t-61 -48.5t-94 -16.5q-28 0 -57 4t-58 10v-138q0 -8 -3.5 -15t-17.5 -7h-110q-13 0 -17.5 6t-4.5 16v617q0 56 16.5 98.5t45.5 71.5t68.5 44t85.5 15q48 0 87 -12.5t67 -36t43 -57t15 -76.5q0 -12 -3 -28t-10.5 -32.5t-19 -31.5
t-28.5 -26q33 -13 52.5 -33t29.5 -43t13 -47.5t3 -47.5zM353 240q0 55 -16 76.5t-53 23.5h-14.5t-18.5 -1q-6 0 -11 2.5t-5 10.5v67q0 8 2 13t11 8q15 4 28.5 10t24 16t16.5 24t6 35q0 24 -15.5 43t-45.5 19q-21 0 -33.5 -10t-19.5 -25.5t-9 -34.5t-2 -38v-348
q25 -8 44.5 -9.5t33.5 -1.5q21 0 35.5 5.5t23.5 19t13.5 36.5t4.5 59z" />
    <glyph glyph-name="psi" unicode="&#x3c8;" horiz-adv-x="717" 
d="M432 -153q0 -8 -3.5 -15t-16.5 -7h-110q-13 0 -17.5 6t-4.5 16v146q-54 0 -97.5 15t-74 42t-46.5 65t-16 83v273q0 8 3.5 15t17.5 7h110q12 0 16.5 -6t4.5 -16v-270q0 -32 21.5 -57.5t60.5 -24.5v405q0 10 4.5 16t17.5 6h110q13 0 16.5 -7t3.5 -15v-405q47 2 66 26t19 56
v270q0 8 3.5 15t17.5 7h110q12 0 16.5 -6t4.5 -16v-273q0 -42 -15.5 -79t-46 -64.5t-74.5 -44t-101 -18.5v-145v0z" />
    <glyph glyph-name="delta" unicode="&#x3b4;" horiz-adv-x="552" 
d="M283 715q34 1 77 -4.5t75 -17.5q21 -7 30 -14.5t5 -26.5l-10 -47q-4 -17 -11.5 -20.5t-30.5 0.5q-36 5 -70.5 7.5t-58.5 2.5q-32 1 -44.5 -7.5t-12.5 -26.5q0 -14 14 -24t36.5 -20t50 -20.5t54.5 -26.5q28 -17 51 -36.5t38.5 -45.5t24 -60.5t8.5 -80.5q0 -40 -7.5 -85
t-32 -82.5t-71 -62.5t-125.5 -25q-80 0 -126 25t-69 62.5t-29.5 82.5t-6.5 85q0 22 5 50t17 55.5t32 52t50 39.5q-37 22 -52 49t-15 62q0 40 15.5 70t42.5 50t64.5 30t81.5 10zM272 121q49 0 65.5 32.5t16.5 86.5q0 23 -3 44t-12.5 38.5t-26 30t-42.5 17.5
q-34 -14 -52.5 -47t-18.5 -83q0 -62 14.5 -90.5t58.5 -28.5z" />
    <glyph glyph-name="epsilon" unicode="&#x3b5;" horiz-adv-x="481" 
d="M109 259q-32 16 -45.5 40.5t-13.5 48.5q0 47 21 77.5t52.5 48t69 24.5t70.5 7q18 0 40 -1.5t44 -4.5t42.5 -8t36.5 -12q13 -6 19 -13.5t2 -23.5l-10 -52q-3 -16 -9 -18.5t-28 -0.5q-15 2 -33 3.5l-35.5 3t-33.5 2t-27 0.5q-26 0 -43.5 -7.5t-17.5 -30.5q0 -11 6.5 -18
t16.5 -11t22.5 -5.5t24.5 -1.5h50q14 0 18 -3.5t4 -14.5v-66q0 -11 -4.5 -15t-17.5 -4h-59q-12 0 -24.5 -1t-22 -5.5t-16 -12.5t-6.5 -21q0 -25 15.5 -36t53.5 -11q35 0 71 2.5t73 7.5q16 2 21.5 -1t8.5 -17l10 -48q4 -18 0.5 -27t-26.5 -18q-16 -6 -37 -10.5t-42.5 -7.5
t-42 -4.5t-36.5 -1.5q-36 0 -76.5 5.5t-74.5 22.5t-56 48.5t-22 82.5q0 29 15.5 59t51.5 48v2z" />
    <glyph glyph-name="phi" unicode="&#x3c6;" horiz-adv-x="744" 
d="M439 505q78 0 129 -22.5t80.5 -59t41.5 -82.5t12 -92q0 -53 -14.5 -98.5t-45 -80t-79 -55.5t-116.5 -25v-144q0 -8 -3.5 -15t-17.5 -7h-109q-13 0 -17.5 6t-4.5 16v143q-85 2 -135 26.5t-76.5 62t-34 83t-7.5 90.5q0 37 6.5 71t23 64t44.5 54t70 41q8 4 17.5 3.5
t16.5 -12.5l42 -75q5 -8 2 -12.5t-10 -9.5q-33 -23 -46.5 -56.5t-13.5 -75.5q0 -22 4.5 -44t16 -40t31 -29t49.5 -12v329q0 30 18 44t47 14h79zM448 120q53 0 77 35.5t24 86.5q0 24 -4.5 47t-15.5 41.5t-31 29.5t-50 11v-251z" />
    <glyph glyph-name="gamma" unicode="&#x3b3;" horiz-adv-x="539" 
d="M375 473q3 10 9 15t25 5h102q16 0 19 -4.5t0 -15.5l-1 -2.5t-6 -16l-16 -42l-31 -80.5l-51 -132l-76 -197v-176q0 -8 -3.5 -15t-17.5 -7h-110q-13 0 -17.5 6t-4.5 16v170l-129 356q-4 11 -8.5 18.5t-18.5 7.5h-7q-8 0 -11 1t-5 9l-14 79q-2 8 0 12.5t11 8.5q15 6 37.5 11
t40.5 5q25 0 42 -6.5t28 -18t18 -28.5t14 -38l78 -244h5l49 157z" />
    <glyph glyph-name="eta" unicode="&#x3b7;" horiz-adv-x="557" 
d="M510 21q0 -8 -3.5 -14.5t-17.5 -6.5h-110q-22 0 -22 21v262q0 42 -14 59.5t-46 17.5q-11 0 -24 -3.5t-26.5 -8t-26 -9.5t-21.5 -8v-310q0 -8 -3.5 -14.5t-17.5 -6.5h-109q-13 0 -17.5 5.5t-4.5 15.5v450q0 10 4.5 16t17.5 6h109q14 0 17.5 -7t3.5 -15v-24q1 0 1.5 -0.5
t1.5 -0.5q33 25 77 40.5t80 15.5q53 0 83.5 -17.5t45.5 -46t18.5 -63.5t3.5 -70v-284v0z" />
    <glyph glyph-name="iota" unicode="&#x3b9;" horiz-adv-x="277" 
d="M213 22q0 -8 -3.5 -15t-16.5 -7h-110q-13 0 -17.5 6t-4.5 16v450q0 11 4.5 16.5t17.5 5.5h110q13 0 16.5 -7.5t3.5 -14.5v-450z" />
    <glyph glyph-name="xi" unicode="&#x3be;" horiz-adv-x="472" 
d="M126 378q-23 9 -38.5 23.5t-25.5 31.5t-14 35.5t-4 35.5q0 51 17 89t48 64t73 39t93 13q18 0 40.5 -1.5t45 -4.5t44 -8.5t37.5 -12.5q12 -5 18 -12.5t3 -23.5l-11 -52q-3 -16 -9 -18t-28 0q-15 1 -33 2.5l-36.5 3t-35 2t-28.5 0.5q-42 0 -61 -23.5t-18 -57.5
q1 -37 30.5 -51.5t66.5 -14.5h90q14 0 18.5 -5t4.5 -16v-70q0 -11 -4.5 -16.5t-18.5 -5.5h-80q-57 0 -87 -29t-30 -92q0 -33 14.5 -52t38 -28t53 -11t59.5 -2h45q20 0 27 -4t14 -18l21 -46q5 -9 5 -19t-10 -27q-8 -14 -17 -33l-18.5 -39.5t-18 -41.5t-15.5 -40
q-8 -22 -15 -28t-25 2l-65 23q-12 5 -17 10.5t0 22.5q6 20 16.5 51t27.5 62q-58 2 -108.5 13t-88 35.5t-59.5 65.5t-22 104q0 20 4 44t14.5 47.5t27.5 44t44 34.5z" />
    <glyph glyph-name="lambda" unicode="&#x3bb;" horiz-adv-x="510" 
d="M504 29q2 -17 -11 -23q-25 -10 -67 -10q-53 0 -81 25.5t-46 88.5l-49 169h-3l-97 -263q-5 -16 -19 -16h-113q-13 0 -13 11q0 3 2 9l89 225.5l89 224.5q-6 18 -11 36.5t-11 36.5q-8 26 -17 37t-34 11q-5 0 -11 -0.5t-11 -0.5q-13 0 -14 12l-12 68q-2 9 -0.5 15t12.5 10
q24 8 47.5 11.5t40.5 3.5q55 0 86 -20t48 -76l148 -476q5 -14 9.5 -22t20.5 -8h10q8 0 10 -2.5t3 -9.5z" />
    <glyph glyph-name="mu" unicode="&#xb5;" horiz-adv-x="555" 
d="M506 21q0 -10 -4.5 -15.5t-17.5 -5.5h-110q-14 0 -17.5 6.5t-3.5 14.5v24q-1 1 -1 2q-25 -19 -58.5 -32.5t-66.5 -13.5q-15 0 -28 3v-27.5t-0.5 -34t-0.5 -47.5v-68q0 -7 -3.5 -14.5t-17.5 -7.5h-110q-13 0 -17 6t-4 16v644q0 10 4.5 16t16.5 6h111q14 0 17.5 -7t3.5 -15
v-269q0 -40 14.5 -55t45.5 -15q24 0 50.5 9t43.5 20v310q0 8 3.5 15t17.5 7h110q13 0 17.5 -6t4.5 -16v-450v0z" />
    <glyph glyph-name="mu" unicode="&#x3bc;" horiz-adv-x="555" 
d="M506 21q0 -10 -4.5 -15.5t-17.5 -5.5h-110q-14 0 -17.5 6.5t-3.5 14.5v24q-1 1 -1 2q-25 -19 -58.5 -32.5t-66.5 -13.5q-15 0 -28 3v-27.5t-0.5 -34t-0.5 -47.5v-68q0 -7 -3.5 -14.5t-17.5 -7.5h-110q-13 0 -17 6t-4 16v644q0 10 4.5 16t16.5 6h111q14 0 17.5 -7t3.5 -15
v-269q0 -40 14.5 -55t45.5 -15q24 0 50.5 9t43.5 20v310q0 8 3.5 15t17.5 7h110q13 0 17.5 -6t4.5 -16v-450v0z" />
    <glyph glyph-name="omicron" unicode="&#x3bf;" horiz-adv-x="549" 
d="M508 254q0 -41 -6 -87t-30 -85t-71.5 -64.5t-129.5 -25.5q-81 0 -126.5 25.5t-68.5 64.5t-28.5 85t-5.5 87q0 34 7 77t30.5 81.5t69 64.5t122.5 26t124 -22.5t72 -58.5t33 -80.5t8 -87.5zM352 248q0 63 -14.5 94t-64.5 31q-46 0 -61.5 -32t-15.5 -93q0 -66 15 -96t60 -30
q50 0 65.5 31t15.5 95z" />
    <glyph glyph-name="pi" unicode="&#x3c0;" horiz-adv-x="560" 
d="M512 22q0 -8 -4 -15t-18 -7h-109q-13 0 -17.5 6t-4.5 16l1 349h-159v-349q0 -8 -4 -15t-18 -7h-109q-13 0 -17.5 6t-4.5 16v450q0 22 22 22h421q13 0 17 -5t4 -16v-451z" />
    <glyph glyph-name="rho" unicode="&#x3c1;" horiz-adv-x="553" 
d="M46 245q0 126 58.5 192.5t173.5 66.5q69 0 114.5 -20t71.5 -54.5t36.5 -81t10.5 -100.5q0 -60 -8.5 -107.5t-31.5 -81.5t-63 -52t-102 -18q-20 0 -50 4.5t-58 12.5v-179q0 -8 -3.5 -15.5t-17.5 -7.5h-109q-14 0 -18 6.5t-4 16.5v418zM354 250q0 69 -21 94.5t-55 25.5
q-24 0 -39.5 -8.5t-24.5 -23.5t-12.5 -34t-3.5 -40v-133q24 -7 42.5 -9t35.5 -2q20 0 35 5.5t24.5 20t14 39.5t4.5 65z" />
    <glyph glyph-name="sigma" unicode="&#x3c3;" horiz-adv-x="568" 
d="M464 369q23 -26 30.5 -61t7.5 -68q0 -35 -6 -78t-30 -81t-71 -63.5t-128 -25.5t-126.5 25.5t-67.5 63.5t-27 83.5t-5 86.5q0 34 7.5 76.5t32.5 79.5t71.5 62t124.5 25h252q14 0 17.5 -5t3.5 -16v-78q0 -11 -3.5 -16.5t-17.5 -5.5h-63zM349 245q0 66 -16 95t-64 29
q-42 0 -59 -29t-17 -95q0 -70 16.5 -97.5t58.5 -27.5q45 0 63 27t18 98z" />
    <glyph glyph-name="tau" unicode="&#x3c4;" horiz-adv-x="434" 
d="M364 494q14 0 17.5 -5.5t3.5 -15.5v-78q0 -11 -3.5 -16.5t-17.5 -5.5h-105v-174q0 -30 4 -45t17 -21t38 -5.5t66 3.5q14 1 19 -1t7 -15l11 -67q2 -14 -4 -21t-15 -10q-18 -8 -38.5 -13t-40.5 -7.5t-38 -3.5t-30 -1q-80 0 -112.5 38t-32.5 105v238h-74q-22 0 -22 22v77
q0 22 22 22h328z" />
    <glyph glyph-name="theta" unicode="&#x3b8;" horiz-adv-x="574" 
d="M534 360q0 -40 -2.5 -83.5t-10.5 -84t-24 -77t-44 -64t-69.5 -43.5t-99.5 -16q-86 0 -134.5 32.5t-72.5 85t-30 118.5t-6 132q0 34 2.5 73.5t11 78t25 74.5t43.5 63t66.5 43.5t94.5 16.5q82 0 131.5 -28.5t75.5 -77t34.5 -111.5t8.5 -132zM198 313q0 -100 18.5 -147
t68.5 -47q26 0 44 10.5t28.5 33.5t15 60t4.5 90h-179zM285 583q-42 0 -62.5 -41.5t-22.5 -119.5h175q-3 84 -22 122.5t-68 38.5z" />
    <glyph glyph-name="omega" unicode="&#x3c9;" horiz-adv-x="786" 
d="M463 196q0 -30 14 -53.5t48 -23.5q30 0 47.5 26.5t17.5 97.5q0 30 -3 52.5t-11 40.5t-22.5 32.5t-37.5 29.5q-17 10 -18 16.5t5 17.5l29 57q7 14 17.5 16.5t29.5 -3.5q51 -18 83.5 -47t51 -64t25 -73t6.5 -74q0 -48 -8.5 -93t-32 -80.5t-64 -57t-103.5 -21.5
q-44 0 -83 17.5t-59 50.5h-5q-20 -33 -58.5 -50.5t-82.5 -17.5q-63 0 -103 21t-63.5 56t-32 80.5t-8.5 94.5q0 36 6.5 74t24.5 72.5t50 64t84 47.5q19 6 29 4.5t17 -15.5l31 -59q6 -11 4.5 -17.5t-18.5 -16.5q-23 -15 -37.5 -30t-22.5 -33t-11 -40.5t-3 -51.5
q0 -124 65 -124q37 0 50 23.5t13 53.5v120q0 10 4.5 15.5t17.5 5.5h96q14 0 17.5 -7t3.5 -14v-120z" />
    <glyph glyph-name="sigma1" unicode="&#x3c2;" horiz-adv-x="488" 
d="M451 156q0 -47 -18.5 -78.5t-49.5 -50.5t-70.5 -27.5t-82.5 -8.5q-18 0 -39 1.5t-42.5 4t-41 6.5t-34.5 10q-23 8 -30 18t-4 30l7 44q3 17 11 20t24 0q35 -5 76.5 -8.5t67.5 -3.5q38 0 54 8.5t16 28.5q0 22 -12 29.5t-44 11.5q-41 6 -76.5 14t-62.5 24t-42.5 43t-15.5 71
q0 40 15.5 70t42.5 50t64.5 30t81.5 10q17 0 37.5 -1.5t41.5 -4t40.5 -6.5t35.5 -10q20 -7 29.5 -14.5t4.5 -26.5l-10 -48q-4 -17 -13.5 -20t-35.5 1q-35 5 -68 7.5t-56 2.5q-38 1 -47.5 -8.5t-9.5 -25.5q0 -19 17.5 -24.5t44.5 -10.5q39 -5 74 -12.5t61.5 -24.5t42.5 -45.5
t16 -75.5z" />
    <glyph glyph-name="upsilon" unicode="&#x3c5;" horiz-adv-x="555" 
d="M201 201q0 -16 2.5 -30.5t10.5 -25.5t22.5 -17.5t37.5 -6.5q44 0 61.5 24t17.5 56v271q0 7 4 14.5t18 7.5h110q12 0 16.5 -6t4.5 -16v-280q0 -41 -14.5 -77.5t-43 -63.5t-72.5 -42.5t-102 -15.5q-59 0 -101.5 14.5t-70 40.5t-40.5 63t-13 81v280q0 7 3.5 14.5t17.5 7.5
h109q13 0 17.5 -5.5t4.5 -16.5v-271v0z" />
    <glyph glyph-name="zeta" unicode="&#x3b6;" horiz-adv-x="521" 
d="M41 159q0 33 16 64t42 58.5t59 50t67 39.5h-148q-22 0 -22 23v79q0 21 22 21h399q14 0 17.5 -5t3.5 -15v-62q0 -11 -2 -21.5t-15 -17.5l-84.5 -45t-87.5 -52t-69 -55.5t-28 -54.5q0 -17 13.5 -28t36 -17t51.5 -8t61 -2h10t16.5 0.5t16.5 0.5h10q20 0 27 -4t15 -19l21 -46
q5 -10 5 -19.5t-10 -26.5q-17 -29 -35.5 -68.5t-32.5 -79.5q-8 -22 -15.5 -28t-25.5 2l-72 26q-13 5 -17 13t1 25q6 21 16 44t28 55q-60 2 -113 12.5t-92.5 30.5t-62 52t-22.5 78z" />
    <glyph glyph-name="Euro" unicode="&#x20ac;" horiz-adv-x="597" 
d="M453 312q12 0 15.5 -3.5t3.5 -13.5v-43q0 -10 -3 -14t-15 -4h-192q8 -48 37.5 -75.5t87.5 -27.5q21 0 36 0.5t30 2t32 3t41 4.5q16 2 23.5 -2t11.5 -19l13 -52q5 -19 -2.5 -29t-22.5 -16q-38 -17 -83.5 -25t-92.5 -8q-72 0 -122.5 19.5t-83.5 53t-51.5 78t-25.5 93.5h-49
q-11 0 -15.5 3.5t-4.5 14.5v43q0 17 20 17h412zM41 349q-20 0 -20 18v43q0 18 20 18h49q8 49 26 93t50.5 77.5t83 53.5t122.5 20q47 0 91 -6.5t84 -23.5q15 -7 22.5 -15.5t3.5 -27.5l-12 -58q-3 -14 -11 -18t-24 -2q-32 4 -69 6.5t-69 2.5q-57 0 -85.5 -27t-38.5 -75h189
q13 0 16 -3.5t3 -14.5v-43q0 -10 -3 -14t-15 -4h-413z" />
    <glyph glyph-name="emdash" unicode="&#x2014;" horiz-adv-x="1000" 
d="M949 305q13 0 16.5 -5t3.5 -15v-62q0 -11 -3.5 -16t-16.5 -5h-898q-20 0 -20 21v61q0 21 21 21h897z" />
    <glyph glyph-name="AE" unicode="&#xc6;" horiz-adv-x="930" 
d="M440 150h-199l-68 -127q-14 -23 -40 -23h-113q-23 0 -10 25l329 615q8 14 16.5 19.5t29.5 5.5h473q23 0 23 -22v-91q0 -9 -4.5 -15t-18.5 -6h-258v-121h226q22 0 22 -21v-91q0 -9 -4.5 -15t-17.5 -6h-226v-144h264q21 0 21 -22v-91q0 -9 -4.5 -14.5t-17.5 -5.5h-401
q-14 0 -18 6t-4 14v130zM438 529l-133 -257h135v257h-2z" />
    <glyph glyph-name="Oslash" unicode="&#xd8;" horiz-adv-x="689" 
d="M631 341q0 -57 -8.5 -118.5t-38.5 -113t-87.5 -85t-155.5 -33.5q-57 0 -99.5 12t-73.5 33l-26 -34q-8 -11 -12 -13t-14 6l-26 20q-10 8 -9.5 12t8.5 14l31 40q-21 27 -33 59t-19 66t-9 68.5t-2 66.5q0 29 3.5 65.5t14 73t29.5 71.5t50.5 62t77.5 43.5t110 16.5
q63 0 108.5 -14t77.5 -37l23 30q8 11 12 13t14 -6l26 -20q10 -8 9.5 -12t-8.5 -14l-29 -39q34 -48 45 -109.5t11 -123.5zM225 330q0 -29 1.5 -54t5.5 -46l202 267q-29 39 -91 39q-67 0 -92.5 -50.5t-25.5 -155.5zM468 330q0 27 -1.5 50.5t-5.5 43.5l-199 -264q26 -32 81 -32
q71 0 98 49.5t27 152.5z" />
    <glyph glyph-name="florin" unicode="&#x192;" horiz-adv-x="597" 
d="M46 5q4 15 9 18t17 1t28.5 -3t26.5 -1q19 0 31.5 7t20 20t12 32.5t8.5 43.5l30 187h-64q-13 0 -17.5 4t-4.5 16v66q0 14 3.5 18t17.5 4h78l16 98q4 27 14.5 56.5t31 54t52.5 40.5t80 16q28 0 58.5 -3.5t61.5 -14.5q12 -4 6 -22l-16 -68q-3 -11 -7.5 -13t-17.5 0
q-17 3 -29.5 4t-17.5 1q-21 0 -34 -4.5t-21 -14.5t-12 -25.5t-8 -37.5l-11 -67h78q13 0 18 -3.5t5 -15.5v-69q0 -14 -4 -17t-18 -3h-92l-42 -263q-5 -30 -16.5 -56.5t-31.5 -47t-50.5 -32t-72.5 -11.5q-28 0 -62.5 5t-54.5 13q-17 5 -12 27z" />
    <glyph glyph-name="daggerdbl" unicode="&#x2021;" horiz-adv-x="524" 
d="M48 386q-10 0 -16 4.5t-6 16.5v81q0 14 7.5 17t14.5 3h141v164q0 9 4.5 15t16.5 6h103q14 0 17.5 -7t3.5 -15v-163h144q7 0 14.5 -3t7.5 -17v-81q0 -12 -6.5 -16.5t-16.5 -4.5h-143v-125h143q8 0 15.5 -3.5t7.5 -17.5v-80q0 -13 -6.5 -17t-15.5 -4h-144v-164
q0 -6 -3 -13.5t-17 -7.5h-103q-13 0 -17.5 6t-4.5 15v164h-141q-10 0 -16 4t-6 17v80q0 14 7.5 17.5t14.5 3.5h141v125h-141z" />
    <glyph glyph-name="ae" unicode="&#xe6;" horiz-adv-x="840" 
d="M579 502q72 0 116.5 -20.5t69 -53.5t33.5 -74t9 -82q0 -31 -12 -48.5t-43 -17.5h-246q2 -29 9.5 -46t20.5 -26.5t32 -12.5t45 -3q23 0 56.5 2.5t64.5 7.5q14 2 22 1t12 -21l9 -50q3 -17 -1 -26t-26 -18q-15 -6 -35.5 -10t-43 -7t-44.5 -4.5t-40 -1.5q-73 0 -118.5 18.5
t-71.5 51.5q-43 -35 -95 -52t-111 -17q-47 0 -76 12t-45 32.5t-21 46.5t-5 55q0 89 50.5 125.5t140.5 36.5h116v21q0 16 -3.5 27t-13 18t-27 10.5t-44.5 3.5q-11 0 -27 -1t-34 -2t-36.5 -3t-33.5 -3q-14 -2 -24 -1.5t-14 17.5l-11 52q-3 14 3.5 22.5t27.5 16.5q17 6 40 10.5
t46.5 7.5t46.5 4.5t40 1.5q58 0 95 -10.5t61 -35.5q24 21 57.5 33.5t78.5 12.5zM242 105q11 0 26.5 3.5t32 8.5t32 11.5t26.5 12.5q-4 17 -5.5 32t-3.5 33h-85q-36 0 -51.5 -14t-15.5 -47q0 -21 9.5 -30.5t34.5 -9.5zM647 299q0 15 -3.5 30t-11 27t-20.5 19.5t-33 7.5
q-36 0 -51.5 -23t-17.5 -61h137z" />
    <glyph glyph-name="oslash" unicode="&#xf8;" horiz-adv-x="549" 
d="M508 254q0 -41 -6 -87t-30 -85t-71.5 -64.5t-129.5 -25.5q-45 0 -78.5 8.5t-58.5 22.5l-23 -28q-8 -10 -12.5 -12t-13.5 6l-25 22q-10 8 -9 12t9 14l25 31q-15 20 -23.5 43t-13 47.5t-5.5 48.5t-1 47q0 34 7 77t30.5 81.5t69 64.5t122.5 26q46 0 80.5 -8.5t60.5 -23.5
l33 40q8 10 12.5 11.5t13.5 -6.5l25 -21q10 -8 9 -12t-9 -14l-34 -42q28 -36 37 -82t9 -91zM352 248q0 11 -0.5 21.5t-1.5 19.5l-125 -154q16 -13 46 -13q50 0 65.5 31t15.5 95zM196 248v-21.5t1 -20.5l125 154q-18 13 -49 13q-46 0 -61.5 -32t-15.5 -93z" />
    <glyph glyph-name="Thorn" unicode="&#xde;" horiz-adv-x="571" 
d="M224 22q0 -8 -3.5 -15t-17.5 -7h-116q-13 0 -17.5 6t-4.5 16v620q0 10 4.5 16.5t17.5 6.5h115q14 0 18 -7.5t4 -15.5v-91h94q46 0 87.5 -13t72.5 -38.5t49 -64.5t18 -91q0 -35 -9.5 -72.5t-35 -68.5t-69.5 -51.5t-112 -20.5h-95v-109zM382 341q0 40 -23.5 58.5
t-62.5 18.5h-72v-159h75q39 0 61 20.5t22 61.5z" />
    <glyph glyph-name="thorn" unicode="&#xfe;" horiz-adv-x="551" 
d="M514 248q0 -60 -8.5 -108t-31.5 -81t-62.5 -51t-100.5 -18q-21 0 -51 3.5t-57 11.5h-1v-178q0 -7 -3.5 -14.5t-17.5 -7.5h-109q-14 0 -18.5 6t-4.5 16v815q0 9 5 15.5t18 6.5h109q14 0 17.5 -7t3.5 -15v-195q1 0 1 -0.5t1 -0.5q34 24 70.5 39.5t71.5 15.5q52 0 85 -19.5
t51.5 -53.5t25 -80.5t6.5 -99.5zM358 246q0 36 -4 58t-11.5 35t-19 17.5t-26.5 4.5q-23 0 -50 -10.5t-45 -18.5v-201q24 -7 42.5 -9t35.5 -2q21 0 36 5t24 19t13.5 38.5t4.5 63.5z" />
    <glyph glyph-name="OE" unicode="&#x152;" horiz-adv-x="843" 
d="M798 19q0 -9 -4.5 -14t-17.5 -5h-353q-41 -9 -88 -9q-65 0 -111.5 15.5t-78.5 41.5t-50.5 61t-28.5 74t-13 79.5t-3 78.5q0 29 3.5 65t14 73t29.5 71.5t50.5 61.5t77.5 43.5t110 16.5q44 0 84 -8h352q22 0 22 -22v-91q0 -9 -4.5 -14.5t-17.5 -5.5h-250v-121h217
q22 0 22 -22v-91q0 -9 -4.5 -14.5t-17.5 -5.5h-217v-145h255q22 0 22 -22v-91zM336 127q13 0 25 3v402q-12 3 -25 3q-67 0 -92.5 -50t-25.5 -155q0 -51 6 -89t19.5 -63.5t36 -38t56.5 -12.5z" />
    <glyph glyph-name="Eogonek" unicode="&#x118;" horiz-adv-x="558" 
d="M449 -80q0 -19 11.5 -27t31.5 -8q14 0 27 2t28 6q7 2 11.5 1t6.5 -8q4 -10 6.5 -19l5.5 -19q6 -15 -11 -22q-20 -10 -46.5 -15.5t-56.5 -5.5q-56 0 -84 29.5t-28 74.5q0 20 7 43t26 48h-294q-13 0 -17.5 6t-4.5 15v621q0 10 4.5 16.5t17.5 6.5h397q21 0 21 -22v-91
q0 -9 -4.5 -15t-17.5 -6h-259v-121h226q23 0 23 -21v-91q0 -9 -4.5 -15t-18.5 -6h-226v-144h264q22 0 22 -22v-91q0 -9 -4.5 -14.5t-17.5 -5.5h-17q-15 -25 -20 -45t-5 -35z" />
    <glyph glyph-name="Dcroat" unicode="&#x110;" horiz-adv-x="658" 
d="M90 0q-14 0 -18.5 6t-4.5 16v262h-48q-21 0 -21 19v62q0 19 21 19h48v258q0 10 4.5 16t17.5 6h218q87 0 144 -27t90 -72t46.5 -105t13.5 -126q0 -67 -13 -127.5t-46 -106.5t-90 -73t-145 -27h-217zM225 284v-151h64q34 0 61 10.5t46 33.5t29.5 60t10.5 90q0 106 -34 155
t-106 49h-71v-147h94q12 0 16 -4.5t4 -13.5v-63q0 -10 -4 -14.5t-16 -4.5h-94z" />
    <glyph glyph-name="Lslash" unicode="&#x141;" horiz-adv-x="547" 
d="M241 401l81 47q11 6 16.5 3.5t10.5 -11.5l27 -45q5 -10 4 -16t-12 -12l-127 -74v-160h269q18 0 18 -17v-96q0 -9 -4.5 -14.5t-17.5 -5.5h-402q-13 0 -17.5 6t-4.5 15v180l-28 -16q-18 -10 -28 7l-27 46q-10 18 8 28l75 43v333q0 10 5 16.5t17 6.5h115q22 0 22 -23v-241z
" />
    <glyph glyph-name="Aogonek" unicode="&#x104;" horiz-adv-x="618" 
d="M540 -80q0 -19 11.5 -27t31.5 -8q14 0 27 2t28 6q7 2 11.5 1t6.5 -8q4 -10 6.5 -19l5.5 -19q6 -15 -11 -22q-20 -10 -46.5 -15.5t-56.5 -5.5q-56 0 -84 29.5t-28 74.5q0 20 7 43t26 48h-3q-17 0 -23 7.5t-11 23.5l-33 119h-199l-36 -122q-5 -16 -13 -22t-22 -6h-111
q-11 0 -15 4.5t1 21.5l193 610q5 14 12 21.5t27 7.5h126q21 0 27.5 -8t11.5 -22l201 -611q3 -12 1 -18t-13 -6h-31q-15 -25 -20 -45t-5 -35zM340 382l-32 122h-5l-33 -121l-30 -111h130z" />
    <glyph glyph-name="aogonek" unicode="&#x105;" horiz-adv-x="573" 
d="M457 -80q0 -19 11.5 -27t31.5 -8q14 0 27 2t28 6q7 2 11.5 1t6.5 -8q4 -10 6.5 -19l5.5 -19q6 -15 -11 -22q-20 -10 -46.5 -15.5t-56.5 -5.5q-56 0 -84 29.5t-28 74.5q0 22 8 47t30 51q-28 14 -37 52l-2 1q-20 -18 -43 -31t-47 -21.5t-47 -12t-42 -3.5q-44 0 -71.5 12.5
t-42.5 32.5t-20.5 46.5t-5.5 55.5q-1 46 12.5 78t38.5 51.5t61 28t80 8.5h115v16q0 16 -3.5 27t-13 18t-26.5 10.5t-45 3.5q-11 0 -27.5 -1l-34.5 -2t-36 -3t-33 -3q-21 -2 -27.5 0t-10.5 17l-11 52q-2 13 3.5 21.5t28.5 17.5q17 6 39.5 10.5t46 7.5t46.5 4.5t40 1.5
q70 0 112.5 -13t65 -37t29.5 -59t7 -80v-158q0 -16 1.5 -25t5.5 -13.5t11 -6.5t19 -3q13 -1 17 -4.5t4 -12.5v-64q0 -20 -29 -26l-22.5 -4t-23.5 -3q-13 -23 -17.5 -41.5t-4.5 -32.5zM343 208h-90q-28 0 -44 -13t-16 -48q0 -23 9.5 -32t35.5 -9q23 0 53.5 11t51.5 24v67z
" />
    <glyph glyph-name="lslash" unicode="&#x142;" horiz-adv-x="336" 
d="M233 427l49 28q11 6 16.5 4t10.5 -11l27 -46q5 -10 4.5 -16t-11.5 -12l-96 -55v-166q0 -21 10 -26t33 -6q15 -1 18 -3t5 -13l5 -75q1 -14 -16 -22q-18 -8 -42 -10.5t-38 -2.5q-65 0 -96 29.5t-31 98.5v108l-27 -15q-18 -10 -28 7l-27 46q-10 18 8 28l74 42v345
q0 10 4.5 16t17.5 6h109q14 0 17.5 -7t3.5 -15v-257z" />
    <glyph glyph-name="eogonek" unicode="&#x119;" horiz-adv-x="533" 
d="M383 -80q0 -19 11.5 -27t31.5 -8q14 0 27 2t28 6q7 2 11.5 1t6.5 -8q4 -10 6.5 -19l5.5 -19q6 -15 -11 -22q-20 -10 -46.5 -15.5t-56.5 -5.5q-56 0 -84 29.5t-28 74.5q0 19 6 39.5t21 43.5q-9 0 -17 -0.5t-16 -0.5q-75 0 -121.5 21t-72 55.5t-34.5 80t-9 95.5q0 36 6 81
t29 85t68.5 67t124.5 27q72 0 116 -20.5t68.5 -53.5t33.5 -73.5t9 -80.5q0 -31 -11.5 -47.5t-43.5 -16.5h-244q1 -29 9 -47t21.5 -28.5t33 -14t44.5 -3.5q23 0 55 3t63 7q20 2 25 -0.5t9 -21.5l8 -47q3 -17 0 -26.5t-26 -18.5q-14 -5 -28 -8q-18 -27 -23.5 -48.5t-5.5 -37.5
zM270 386q-35 0 -51.5 -21.5t-18.5 -63.5h139q0 36 -15 60.5t-54 24.5z" />
    <glyph glyph-name="dcroat" unicode="&#x111;" horiz-adv-x="567" 
d="M503 21q0 -8 -3.5 -14.5t-17.5 -6.5h-109q-12 0 -16.5 5.5t-4.5 15.5v25q-1 0 -1.5 0.5t-1.5 0.5q-31 -24 -69 -39t-76 -15h-5q-19 0 -32 3q-39 6 -63.5 25t-38.5 48.5t-19.5 69t-5.5 87.5q0 60 7.5 106.5t29.5 79t62 49t104 16.5h15q20 -2 45 -5t48 -11h1v68h-132
q-10 0 -13 3t-3 13v53q0 11 3 13.5t13 2.5h132v69q0 10 4 16.5t17 6.5h109q14 0 17.5 -7.5t3.5 -15.5v-69h43q10 0 13 -3t3 -14v-53q0 -8 -2.5 -11.5t-12.5 -3.5h-44v-508zM351 335q-26 7 -44 9t-34 2q-43 0 -60.5 -25.5t-17.5 -89.5q0 -32 3.5 -51.5t11 -30.5t19 -15
t26.5 -4q12 0 25 3t26 7.5t24.5 10l20.5 9.5v175z" />
    <glyph glyph-name="brokenbar" unicode="&#xa6;" horiz-adv-x="297" 
d="M82 264q0 22 22 22h90q14 0 17 -7t3 -15v-353q0 -8 -3 -15t-17 -7h-90q-22 0 -22 22v353zM82 673q0 23 22 23h90q14 0 17 -7.5t3 -15.5v-310q0 -7 -3 -14.5t-17 -7.5h-90q-22 0 -22 22v310z" />
    <glyph glyph-name="guilsinglright" unicode="&#x203a;" horiz-adv-x="343" 
d="M301 220q8 -10 8.5 -18.5t-8.5 -19.5l-108 -135q-5 -6 -11.5 -12.5t-16.5 -6.5h-120q-8 0 -8 6.5t3 10.5l124 155l-127 156q-4 5 -2 10t12 5h116q11 0 18.5 -6t12.5 -12z" />
    <glyph glyph-name="guilsinglleft" unicode="&#x2039;" horiz-adv-x="343" 
d="M149 353q5 6 12.5 12t17.5 6h117q10 0 12 -5t-2 -10l-127 -156l124 -155q3 -4 3 -10.5t-8 -6.5h-120q-10 0 -17 6.5t-12 12.5l-107 135q-9 11 -9 19.5t9 18.5z" />
    <glyph glyph-name="dotaccent" unicode="&#x2d9;" horiz-adv-x="488" 
d="M322 626q0 -14 -3 -27t-11.5 -23.5t-24 -17t-40.5 -6.5q-26 0 -41.5 6.5t-24 17t-11 24t-2.5 26.5q0 15 3.5 28.5t12.5 23.5t24.5 16t38.5 6q24 0 39.5 -5.5t24.5 -15.5t12 -23.5t3 -29.5z" />
    <glyph glyph-name="cent" unicode="&#xa2;" horiz-adv-x="597" 
d="M505 59q4 -17 0.5 -26.5t-26.5 -18.5q-21 -8 -49 -13t-57 -7v-118q0 -8 -3 -15t-16 -7h-63q-20 0 -20 22v120q-57 7 -91.5 31t-52.5 58t-24 76.5t-6 87.5q0 41 6 82t25 75.5t53 59.5t90 33v120q0 23 20 23h63q13 0 16 -7.5t3 -15.5v-118q29 -2 58 -7.5t52 -15.5
q25 -10 21 -37l-11 -61q-3 -16 -12.5 -17.5t-25.5 0.5q-30 3 -57 5t-50 2q-51 0 -73.5 -28.5t-22.5 -89.5q0 -73 20.5 -100.5t72.5 -27.5q21 0 54.5 2t65.5 6q15 2 21 -1t9 -17z" />
    <glyph glyph-name="exclamdown" unicode="&#xa1;" horiz-adv-x="293" 
d="M219 -154q0 -20 -20 -20h-106q-19 0 -18 20l14 430q0 11 3.5 15.5t14.5 4.5h79q11 0 15 -5t5 -15zM223 426q0 -32 -14.5 -52.5t-62.5 -20.5q-23 0 -38 5.5t-23.5 15.5t-12 23.5t-3.5 28.5q0 13 2.5 26.5t10.5 23.5t23 16.5t41 6.5q25 0 40 -6t23 -16.5t11 -23.5t3 -27z
" />
    <glyph glyph-name="questiondown" unicode="&#xbf;" horiz-adv-x="436" 
d="M29 -21q0 27 8 48.5t21 38t28 29t29 22.5q19 14 34 27.5t24.5 28t14.5 32t5 40.5v38q0 8 3 15t14 7h99q11 0 15.5 -4t6.5 -16q2 -15 2.5 -27t0.5 -24q0 -37 -7.5 -64.5t-21.5 -49.5t-34.5 -41t-45.5 -40q-16 -12 -24.5 -23.5t-8.5 -26.5q0 -26 18.5 -36.5t60.5 -10.5
q23 0 48.5 1.5t48.5 4.5q18 2 23 -1t7 -16l5 -58q2 -14 -0.5 -20t-17.5 -13q-38 -15 -76.5 -19t-61.5 -4q-106 0 -162 41.5t-56 120.5zM184 425q0 14 3 27t11.5 23.5t23.5 17t40 6.5t40.5 -6.5t23.5 -17t10.5 -24t2.5 -26.5q0 -30 -15.5 -51.5t-61.5 -21.5q-48 0 -63 20.5
t-15 52.5z" />
    <glyph glyph-name="Uogonek" unicode="&#x172;" horiz-adv-x="656" 
d="M338 -80q0 -19 11.5 -27t31.5 -8q14 0 27 2t28 6q7 2 11.5 1t6.5 -8q4 -10 6.5 -19l5.5 -19q6 -15 -11 -22q-20 -10 -46.5 -15.5t-56.5 -5.5q-56 0 -84 29.5t-28 74.5q0 20 6 41.5t23 44.5q-50 7 -87.5 28.5t-63 54.5t-38.5 75.5t-13 93.5v395q0 10 4.5 16.5t17.5 6.5
h115q14 0 17.5 -7.5t3.5 -15.5v-391q0 -123 102 -123q51 0 78 30t27 93l-1 391q0 10 5 16.5t18 6.5h115q14 0 17.5 -7.5t3.5 -15.5l-1 -395q0 -29 -3.5 -58.5t-15.5 -60.5q-28 -66 -85.5 -98t-125.5 -38q-13 -22 -17 -40t-4 -32z" />
    <glyph glyph-name="uogonek" unicode="&#x173;" horiz-adv-x="555" 
d="M441 -80q0 -19 11.5 -27t31.5 -8q14 0 27 2t28 6q7 2 11.5 1t6.5 -8q4 -10 6.5 -19l5.5 -19q6 -15 -11 -22q-20 -10 -46.5 -15.5t-56.5 -5.5q-56 0 -84 29.5t-28 74.5q0 20 7 43t26 48h-2q-14 0 -17.5 6.5t-3.5 14.5v25q-1 0 -1 0.5t-1 0.5q-34 -26 -77.5 -40.5
t-79.5 -14.5q-53 0 -82.5 16t-44 42.5t-18 61t-3.5 72.5v287q0 8 3.5 15t17.5 7h110q12 0 16.5 -6t4.5 -16v-262q0 -38 13.5 -57.5t47.5 -19.5q12 0 25 3.5t25.5 8t24 9.5t19.5 8v310q0 8 3.5 15t17.5 7h110q13 0 17.5 -6t4.5 -16v-450q0 -10 -4.5 -15.5t-17.5 -5.5h-18
q-15 -25 -20 -45t-5 -35z" />
    <glyph glyph-name="quotesinglbase" unicode="&#x201a;" horiz-adv-x="238" 
d="M200 32q0 -33 -9.5 -63.5t-25 -55.5t-35 -44.5t-39.5 -31.5q-22 -12 -37 5l-26 26q-11 12 -10.5 18t14.5 20q18 18 25.5 37.5t7.5 36.5q0 33 -23 59q-13 14 -14 24t17 23l65 50q15 11 25.5 7t22.5 -15q20 -20 31 -46.5t11 -49.5z" />
    <glyph glyph-name="quotedblbase" unicode="&#x201e;" horiz-adv-x="439" 
d="M200 32q0 -33 -9.5 -63.5t-25 -55.5t-35 -44.5t-39.5 -31.5q-22 -12 -37 5l-26 26q-11 12 -10.5 18t14.5 20q18 18 25.5 37.5t7.5 36.5q0 33 -23 59q-13 14 -14 24t17 23l65 50q15 11 25.5 7t22.5 -15q20 -20 31 -46.5t11 -49.5zM402 32q0 -33 -9.5 -63.5t-24.5 -55.5
t-34.5 -44.5t-39.5 -31.5q-22 -11 -38 5l-26 26q-11 12 -10 18t14 20q18 18 26 37.5t8 36.5q0 33 -23 59q-14 14 -14.5 24t17.5 23l65 50q15 11 25.5 7t21.5 -15q20 -20 31 -46.5t11 -49.5z" />
    <glyph glyph-name="tilde" unicode="&#x2dc;" horiz-adv-x="545" 
d="M360 544q-17 0 -38.5 7.5t-43.5 16.5t-42.5 16.5t-36.5 7.5q-12 0 -27 -6.5t-32 -30.5q-5 -8 -9 -9.5t-16 4.5l-38 17q-3 2 -7.5 7.5t-0.5 15.5q24 62 59 87.5t70 25.5q21 0 43 -7.5t43 -17t40.5 -17t34.5 -7.5q33 0 56 38q5 8 10.5 8.5t16.5 -4.5l37 -20q14 -7 9 -23
q-26 -63 -58 -86t-70 -23z" />
    <glyph glyph-name="macron" unicode="&#xaf;" horiz-adv-x="536" 
d="M123 564q-21 0 -21 21v71q0 21 21 21h305q12 0 16 -5t4 -15v-72q0 -11 -4 -16t-16 -5h-305z" />
    <glyph glyph-name="logicalnot" unicode="&#xac;" horiz-adv-x="597" 
d="M505 385q13 0 17 -4.5t4 -15.5v-243q0 -13 -5 -16.5t-16 -3.5h-87q-11 0 -16.5 3.5t-5.5 16.5v152h-303q-21 0 -21 22v68q0 21 21 21h412z" />
    <glyph glyph-name="cedilla" unicode="&#xb8;" horiz-adv-x="425" 
d="M271 -127q0 21 -17.5 24.5t-55.5 5.5q-23 2 -15 24l29 82q0 1 2.5 4t6.5 3h50q5 0 5.5 -3t-0.5 -5l-22 -56q33 -1 53.5 -8t32 -18.5t15 -25t3.5 -28.5q0 -45 -33 -75t-104 -30q-8 0 -18.5 0.5t-22.5 2t-23.5 4t-20.5 5.5q-11 4 -9 12l9 41q1 7 12 6q15 -2 33 -4t31 -2
q23 0 41 7t18 34z" />
    <glyph glyph-name="eth" unicode="&#xf0;" horiz-adv-x="544" 
d="M362 436q0 11 -1.5 25.5t-4.5 30t-7.5 30t-10.5 24.5l-33 -35q-11 -11 -23 -1l-28 26q-10 9 0 19l34 35q-26 12 -66 12q-18 0 -32 -1t-33 -3q-11 -1 -15 3.5t-6 15.5l-10 58q-2 9 1 15t14 10q24 10 54.5 14t56.5 4q80 0 131 -32l46 47q8 8 12 8.5t12 -7.5l27 -24
q8 -7 7 -11t-7 -11l-46 -47q25 -28 40 -67.5t22 -82t9 -84.5t2 -75q0 -64 -8.5 -125t-34.5 -109t-74.5 -77.5t-128.5 -29.5q-76 0 -120 24t-66.5 60t-28.5 77.5t-6 77.5q0 32 8.5 72.5t33 76t69 60t116.5 24.5q24 0 51 -6.5t43 -20.5h1zM341 227q0 48 -14.5 76t-58.5 28
q-40 0 -56 -27.5t-16 -78.5q0 -50 14.5 -75t55.5 -25q22 0 36.5 8t23 22t12 32.5t3.5 39.5z" />
    <glyph glyph-name="plusminus" unicode="&#xb1;" horiz-adv-x="597" 
d="M364 422h141q13 0 17 -4.5t4 -15.5v-70q0 -11 -4 -16t-17 -5h-141v-139q0 -12 -4.5 -16t-14.5 -4h-91q-12 0 -17 4t-5 16v139h-140q-20 0 -20 21v70q0 20 20 20h140v127q0 21 22 21h90q11 0 15.5 -4.5t4.5 -16.5v-127zM93 12q-21 0 -21 21v64q0 21 21 21h412
q13 0 16.5 -4.5t3.5 -15.5v-65q0 -11 -3.5 -16t-16.5 -5h-412z" />
    <glyph glyph-name="multiply" unicode="&#xd7;" horiz-adv-x="597" 
d="M301 410l110 110q14 15 30 0l59 -59q14 -15 0 -29l-111 -110l111 -110q14 -14 0 -30l-59 -58q-14 -14 -29 1l-109 111l-113 -114q-15 -15 -28 0l-60 60q-8 8 -8.5 14t8.5 15l112 112l-111 112q-9 9 -8.5 15t7.5 12l58 59q8 8 14.5 9t14.5 -8z" />
    <glyph glyph-name="paragraph" unicode="&#xb6;" horiz-adv-x="564" 
d="M509 665q14 0 19 -6t5 -17v-77q0 -12 -5 -18t-19 -6h-18v-624q0 -14 -6 -19t-17 -5h-68q-11 0 -17 5t-6 19v625h-87v-625q0 -14 -6 -19t-17 -5h-67q-12 0 -18.5 5t-6.5 19v365q-36 2 -64.5 17.5t-47.5 39.5t-29 55t-10 64q0 51 15 90t41.5 65t62.5 39t78 13h288z" />
    <glyph glyph-name="dotlessi" unicode="&#x131;" horiz-adv-x="268" 
d="M210 22q0 -8 -3.5 -15t-17.5 -7h-109q-13 0 -17.5 6t-4.5 16v450q0 11 4.5 16.5t17.5 5.5h109q14 0 17.5 -7.5t3.5 -14.5v-450z" />
    <glyph glyph-name="acute" unicode="&#xb4;" horiz-adv-x="536" 
d="M415 729q21 -11 5 -30l-118 -151q-5 -7 -10.5 -10.5t-14.5 1.5l-52 28q-7 4 -9.5 9t2.5 15l93 172q6 11 13.5 12t14.5 -3z" />
    <glyph glyph-name="circumflex" unicode="&#x2c6;" horiz-adv-x="544" 
d="M138 531q-10 -8 -15.5 -9t-13.5 7l-35 34q-8 7 -8 12t8 14l121 133q8 9 15 13.5t25 4.5h64q19 0 25 -3.5t14 -11.5l122 -137q8 -9 8 -14t-8 -12l-35 -33q-9 -8 -14.5 -7t-14.5 8l-132 102z" />
    <glyph glyph-name="currency" unicode="&#xa4;" horiz-adv-x="538" 
d="M176 287q0 -47 23 -72.5t67 -25.5q48 0 73 27.5t25 70.5q0 46 -25 72t-73 26q-44 0 -67 -26t-23 -72zM61 285q0 17 5 45t20 57l-51 52q-11 11 -11 17.5t11 16.5l42 40q14 14 20.5 12.5t17.5 -12.5l46 -47q42 24 103 25q33 0 60.5 -6.5t50.5 -20.5l55 55q13 12 19 11
t15 -9l46 -46q10 -10 9.5 -15.5t-10.5 -16.5l-59 -58q13 -24 18.5 -50t5.5 -46q0 -23 -6 -52.5t-21 -58.5l59 -58q11 -11 12.5 -17.5t-9.5 -17.5l-40 -41q-13 -13 -19.5 -13t-17.5 10l-61 60q-23 -11 -49.5 -18t-57.5 -6q-29 0 -51.5 5t-42.5 15l-56 -53q-11 -11 -17.5 -13
t-17.5 9l-45 46q-8 8 -8 14.5t12 17.5l51 50q-15 29 -21.5 61.5t-6.5 55.5z" />
    <glyph glyph-name="hungarumlaut" unicode="&#x2dd;" horiz-adv-x="596" 
d="M345 729q19 -11 5 -30l-118 -151q-5 -7 -11 -10.5t-14 1.5l-53 28q-6 4 -9 9t3 15l92 172q7 11 14.5 12t13.5 -3zM519 729q19 -10 6 -30l-118 -151q-5 -7 -11 -10.5t-14 1.5l-53 28q-6 4 -9 9t3 15l92 172q6 11 13.5 12t14.5 -3z" />
    <glyph glyph-name="caron" unicode="&#x2c7;" horiz-adv-x="519" 
d="M259 638l131 102q9 7 15 8t14 -7l35 -33q8 -7 8.5 -12.5t-7.5 -14.5l-123 -136q-8 -8 -14 -11.5t-25 -3.5h-64q-18 0 -25 4t-15 14l-121 133q-8 9 -7.5 13.5t8.5 12.5l34 34q8 8 14 7t15 -9z" />
    <glyph glyph-name="breve" unicode="&#x2d8;" horiz-adv-x="541" 
d="M277 533q-28 0 -57 7.5t-54.5 22.5t-47 37t-34.5 52q-5 13 -8 23.5t8 19.5l36 29q14 9 20 5.5t16 -14.5q32 -38 58 -55t63 -17q33 0 59.5 15.5t58.5 56.5q9 11 16 13.5t19 -5.5l36 -22q14 -8 11 -19.5t-11 -26.5q-31 -60 -80 -91t-109 -31z" />
    <glyph glyph-name="ogonek" unicode="&#x2db;" horiz-adv-x="421" 
d="M212 -80q0 -19 11.5 -27t31.5 -8q14 0 27 2t28 6q7 2 11.5 1t6.5 -8q4 -10 6.5 -19l5.5 -19q6 -15 -11 -22q-20 -10 -46.5 -15.5t-56.5 -5.5q-56 0 -84 29.5t-28 74.5q0 29 15.5 63t57.5 71h83q-36 -41 -47 -71.5t-11 -51.5z" />
    <glyph glyph-name="exclam" unicode="!" horiz-adv-x="293" 
d="M207 214q-2 -21 -19 -21h-80q-11 0 -14.5 5t-3.5 16l-14 428q-1 12 4 16.5t16 4.5h104q11 0 15.5 -4.5t4.5 -16.5zM223 63q0 -14 -3 -27t-11 -23.5t-23.5 -16.5t-39.5 -6q-26 0 -41 6.5t-23 16.5t-10.5 23t-2.5 27q0 15 3.5 28.5t12 23t23.5 15t38 5.5q48 0 62.5 -20
t14.5 -52z" />
    <glyph glyph-name="afii10026" unicode="&#x418;" horiz-adv-x="682" 
d="M66 641q0 11 4.5 17t17.5 6h115q14 0 18 -7.5t4 -15.5v-358l17.5 26.5l17.5 27.5l190 300q8 10 16.5 18.5t28.5 8.5h98q13 0 17 -7.5t4 -14.5v-621q0 -8 -4 -14.5t-18 -6.5h-115q-22 0 -22 21v369h-1l-231 -363q-8 -11 -18.5 -19t-30.5 -8h-86q-13 0 -17.5 5.5t-4.5 15.5
v620z" />
    <glyph glyph-name="afii10049" unicode="&#x42f;" horiz-adv-x="623" 
d="M66 459q0 54 19 92.5t50.5 64t71 37.5t81.5 12h246q13 0 17.5 -6.5t4.5 -15.5v-621q0 -10 -4.5 -16t-17.5 -6h-119q-14 0 -18 7.5t-4 14.5v238h-59q-23 -1 -42 -15t-33 -53l-52 -162q-6 -17 -13.5 -23.5t-30.5 -6.5h-105q-26 0 -18 25l56 172q13 41 27 63t40 36
q-27 10 -46 28t-30 40t-16 47t-5 48zM234 456q0 -22 7.5 -35.5t19 -21t25.5 -10.5t28 -3h79v142h-79q-30 0 -55 -17t-25 -55z" />
    <glyph glyph-name="afii10045" unicode="&#x42b;" horiz-adv-x="852" 
d="M404 205q0 43 -22 62t-60 19h-97v-156h94q38 0 61.5 20t23.5 55zM66 642q0 22 23 22h115q22 0 22 -22v-228h105q70 0 115.5 -19.5t71.5 -50.5t36.5 -68t10.5 -72q0 -52 -19 -90.5t-51 -63.5t-74.5 -37.5t-89.5 -12.5h-242q-14 0 -18.5 6t-4.5 15v621zM626 642
q0 10 5 16.5t17 6.5h116q14 0 17.5 -7.5t3.5 -15.5v-620q0 -8 -3.5 -15t-17.5 -7h-116q-22 0 -22 22v620z" />
    <glyph glyph-name="afii10018" unicode="&#x411;" horiz-adv-x="594" 
d="M67 642q0 22 21 22h391q22 0 22 -22v-90q0 -9 -4.5 -15t-17.5 -6h-252v-117h106q70 0 115 -19.5t71.5 -50.5t36.5 -68t10 -72q0 -52 -19 -90.5t-51.5 -63.5t-75 -37.5t-88.5 -12.5h-243q-13 0 -17.5 6t-4.5 15v621zM405 205q0 42 -22 61.5t-62 19.5h-95v-156h93
q38 0 62 20t24 55z" />
    <glyph glyph-name="afii10046" unicode="&#x42c;" horiz-adv-x="595" 
d="M404 205q0 43 -21.5 62t-60.5 19h-97v-156h94q38 0 61.5 20t23.5 55zM66 642q0 22 23 22h115q22 0 22 -22v-228h105q70 0 115.5 -19.5t71.5 -50.5t36.5 -68t10.5 -72q0 -52 -19 -90.5t-51 -63.5t-74.5 -37.5t-89.5 -12.5h-242q-14 0 -18.5 6t-4.5 15v621z" />
    <glyph glyph-name="afii10044" unicode="&#x42a;" horiz-adv-x="748" 
d="M215 531h-185q-14 0 -18 5.5t-4 14.5v91q0 10 4 16t18 6h324q22 0 22 -22v-229h105q70 0 115.5 -19.5t72 -50t36.5 -67.5t10 -72q0 -53 -19 -91t-51.5 -63.5t-75 -37.5t-89.5 -12h-242q-13 0 -17.5 6t-4.5 15zM554 205q0 43 -22.5 62t-60.5 19h-96v-156h93q39 0 62.5 20
t23.5 55z" />
    <glyph glyph-name="afii10040" unicode="&#x426;" horiz-adv-x="682" 
d="M230 137h190v505q0 8 4 15.5t18 7.5h119q13 0 17.5 -6.5t4.5 -16.5v-502l58 -6q14 -2 18.5 -10t3.5 -23l-12 -225q-2 -23 -6 -29t-19 -6h-87q-14 0 -18.5 4.5t-6.5 24.5l-7 130h-418q-14 0 -18 7.5t-4 14.5v620q0 8 4 15.5t18 7.5h119q13 0 17.5 -6.5t4.5 -16.5v-505z
" />
    <glyph glyph-name="afii10025" unicode="&#x417;" horiz-adv-x="568" 
d="M426 355q42 -17 67 -54.5t25 -92.5t-19.5 -95.5t-55.5 -67.5t-86.5 -40.5t-111.5 -13.5q-14 0 -39 1.5t-53 5t-55.5 8.5t-48.5 13q-19 8 -26 15.5t-7 18.5q0 7 1 11l11 55q2 13 7 18t16 5q7 0 11 -1q44 -7 89.5 -11t81.5 -4q61 0 92 20t31 65q0 35 -20.5 56.5t-68.5 21.5
h-74q-18 0 -23.5 5.5t-5.5 22.5v65q0 16 5.5 23.5t22.5 7.5h73q32 0 58 16t26 45q0 20 -8 33.5t-22 21.5t-33 11t-41 3q-29 0 -68 -3.5t-81 -11.5q-5 -1 -9 -1.5t-7 -0.5q-9 0 -13 4t-7 15l-6 31t-7 31q-1 4 -1 11q0 9 6.5 15.5t24.5 14.5q21 8 47 14t52 9.5t50 5t42 1.5
q125 0 183 -49.5t58 -137.5q0 -42 -22.5 -79.5t-60.5 -56.5z" />
    <glyph glyph-name="afii10050" unicode="&#x490;" horiz-adv-x="525" 
d="M223 22q0 -8 -3.5 -15t-17.5 -7h-116q-13 0 -17.5 6t-4.5 16v621q0 9 4.5 15.5t17.5 6.5h285l16 106q2 14 7 17.5t13 3.5h86q8 0 12 -4t4 -17v-218q0 -9 -4.5 -15.5t-16.5 -6.5h-265v-509z" />
    <glyph glyph-name="afii10042" unicode="&#x428;" horiz-adv-x="900" 
d="M89 0q-14 0 -17.5 7.5t-3.5 15.5v620q0 8 3.5 15t17.5 7h116q12 0 16.5 -6t4.5 -16v-509h142v508q0 8 4 15.5t18 7.5h116q12 0 16.5 -6.5t4.5 -16.5v-508h147v509q0 8 4 15t18 7h115q13 0 17.5 -6t4.5 -16v-620q0 -8 -3.5 -15.5t-17.5 -7.5h-723z" />
    <glyph glyph-name="afii10043" unicode="&#x429;" horiz-adv-x="937" 
d="M89 0q-14 0 -18 7.5t-4 15.5v620q0 7 4 14.5t18 7.5h119q13 0 17.5 -6t4.5 -16v-506h138v505q0 8 4 15.5t18 7.5h119q13 0 17.5 -6.5t4.5 -16.5v-505h144v506q0 7 3.5 14.5t17.5 7.5h120q12 0 16.5 -6t4.5 -16v-503l58 -6q14 -2 19 -10t3 -23l-12 -225q-2 -23 -6 -29
t-19 -6h-86q-15 0 -19.5 4.5t-6.5 24.5l-7 130h-672z" />
    <glyph glyph-name="afii10047" unicode="&#x42d;" horiz-adv-x="600" 
d="M555 334q0 -63 -12 -124.5t-44.5 -110t-89.5 -78.5t-148 -30q-48 0 -100 7.5t-91 24.5q-16 8 -24 18t-3 28l14 53q4 16 12 19t23 1l45 -5.5t38 -3.5t35 -1.5t37 -0.5q35 0 59.5 10t40 29t24 45.5t11.5 59.5h-220q-13 0 -17.5 5.5t-4.5 14.5v84q0 22 22 22h218
q-2 28 -8.5 52t-20.5 41t-36.5 26.5t-55.5 9.5q-32 0 -73 -3t-76 -8q-15 -2 -24 1t-12 19l-12 57q-4 19 3.5 28t23.5 16q38 17 88 24.5t97 7.5q61 0 105.5 -14t75.5 -38t50.5 -56.5t30.5 -70t15 -78.5t4 -81z" />
    <glyph glyph-name="afii10053" unicode="&#x404;" horiz-adv-x="590" 
d="M57 334q0 61 11.5 121.5t43.5 108.5t88.5 78t146.5 30q47 0 98.5 -7.5t89.5 -24.5q15 -7 23 -15.5t3 -28.5l-12 -56q-2 -15 -10.5 -19t-23.5 -2q-36 5 -79 8t-75 3t-55 -10t-38 -27t-23.5 -41t-12.5 -51h217q22 0 22 -21v-85q0 -9 -4.5 -14.5t-17.5 -5.5h-219
q3 -33 10.5 -59.5t22.5 -45.5t39 -29t59 -10q21 0 39 0.5t36.5 2t38 3.5t42.5 5q15 2 22.5 -2t12.5 -18l12 -53q5 -19 -2.5 -28.5t-22.5 -17.5q-20 -8 -43.5 -14.5t-48.5 -10.5t-50.5 -6t-48.5 -2q-91 0 -148 30t-88.5 79t-43 110.5t-11.5 124.5z" />
    <glyph glyph-name="afii10145" unicode="&#x40f;" horiz-adv-x="650" 
d="M89 0q-14 0 -18 7.5t-4 14.5v620q0 8 4 15.5t18 7.5h119q13 0 17.5 -6.5t4.5 -16.5v-505h190v505q0 8 4 15.5t18 7.5h119q13 0 17.5 -6.5t4.5 -16.5v-620q0 -10 -4.5 -16t-17.5 -6h-158l-7 -130q-2 -23 -6.5 -29t-19.5 -6h-88q-14 0 -19.5 4t-6.5 24l-6 137h-161z" />
    <glyph glyph-name="afii10048" unicode="&#x42e;" horiz-adv-x="898" 
d="M68 642q0 10 4.5 16.5t16.5 6.5h116q14 0 17.5 -7.5t3.5 -15.5v-232h66q5 43 19.5 89.5t45 84t80 62t124.5 24.5q91 0 146 -29.5t85 -76.5t39.5 -106t9.5 -119q0 -37 -3 -77.5t-13.5 -79.5t-29 -73.5t-50 -60.5t-76.5 -41.5t-108 -15.5q-81 0 -132.5 25.5t-81 66.5
t-42 92.5t-16.5 103.5h-63v-257q0 -8 -3.5 -15t-17.5 -7h-116q-12 0 -16.5 6t-4.5 16v620zM677 329q0 107 -24.5 156t-89.5 49q-62 0 -85.5 -50t-23.5 -155q0 -101 24 -151.5t85 -50.5q62 0 88 50t26 152z" />
    <glyph glyph-name="afii10029" unicode="&#x41b;" horiz-adv-x="634" 
d="M295 529q-6 -92 -8.5 -167.5t-8.5 -135t-18 -103.5t-37 -73.5t-66 -44.5t-103 -16q-26 0 -32.5 6t-6.5 20q0 17 -1.5 33t-1.5 33q0 14 4 17.5t18 7.5q25 6 42 15t28 26.5t16.5 45.5t8.5 73l12 188t11 187q0 23 22 23h372q21 0 21 -23v-619q0 -8 -3.5 -15t-17.5 -7h-119
q-23 0 -23 22v507h-109v0z" />
    <glyph glyph-name="afii10058" unicode="&#x409;" horiz-adv-x="927" 
d="M541 664q22 0 22 -22v-227h104q70 0 115.5 -19.5t71.5 -49.5t36.5 -67t10.5 -72q0 -53 -19 -91.5t-51.5 -64.5t-75.5 -38.5t-90 -12.5h-243q-14 0 -18.5 6t-4.5 16v507h-104l-11 -192q-6 -86 -13.5 -150.5t-29.5 -108t-65.5 -66.5t-120.5 -24q-26 0 -32 7t-7 21l-3 66
q-1 13 3 17.5t18 7.5q27 6 44.5 16t28 31t16.5 57t9 96l20 335q0 23 23 23l365 -1h1zM736 207q0 43 -22 60.5t-58 17.5h-94v-152h91q35 0 59 20t24 54z" />
    <glyph glyph-name="afii10037" unicode="&#x423;" horiz-adv-x="623" 
d="M244 154l-219 486q-5 10 -2 17.5t14 7.5h119q17 0 24 -5t15 -19l60 -156l62 -167h4l64 172l54 145q8 14 15 22t24 8h112q12 0 15 -7t-2 -15l-193 -477q-18 -42 -35.5 -76t-40 -58.5t-52 -38t-72.5 -13.5q-8 0 -19.5 0.5t-24 1.5t-24.5 2.5t-19 3.5q-19 5 -24 12.5
t-3 26.5l7 57q2 15 8.5 17.5t26.5 1.5q26 -2 42.5 -1.5t27 4.5t16 10.5t10.5 16.5z" />
    <glyph glyph-name="afii10024" unicode="&#x416;" horiz-adv-x="938" 
d="M675 207q-14 44 -37 56.5t-50 12.5h-39v-254q0 -7 -3.5 -14.5t-17.5 -7.5h-117q-13 0 -17.5 6t-4.5 16v254h-39q-27 0 -50 -12.5t-37 -56.5l-51 -177q-6 -17 -13.5 -23.5t-30.5 -6.5h-114q-26 0 -18 25l61 194q15 47 32.5 78.5t52.5 45.5q-30 12 -49.5 44.5t-35.5 80.5
l-53 169q-8 25 18 25h106q23 0 30.5 -6.5t13.5 -23.5l48 -153q7 -22 17.5 -35.5t22 -20.5t23.5 -9.5t24 -2.5h42v231q0 10 4.5 16.5t17.5 6.5h117q14 0 17.5 -7.5t3.5 -15.5v-231h42q12 0 24 2.5t24 9.5t22 20.5t17 35.5l48 153q7 17 14 23.5t30 6.5h106q26 0 18 -25
l-52 -169q-17 -48 -37 -80.5t-49 -44.5q35 -14 52.5 -45.5t32.5 -78.5l61 -194q8 -25 -18 -25h-114q-23 0 -30 6.5t-14 23.5z" />
    <glyph glyph-name="afii10021" unicode="&#x414;" horiz-adv-x="708" 
d="M530 0h-359l-9 -129q-2 -20 -7 -25t-21 -5h-89q-14 0 -19.5 5.5t-6.5 28.5l-8 226q0 12 4.5 19t19.5 10l34 6q18 17 31 37.5t21.5 47t14 60t9.5 75.5l22 272q2 20 11.5 28t26.5 8h396q22 0 22 -23v-508l41 -4q22 -3 22 -29l-11 -224q-2 -23 -6 -29t-19 -6h-87
q-15 0 -20.5 5t-6.5 25zM460 136v395h-146l-18 -213q-5 -58 -15 -103.5t-31 -78.5h210z" />
    <glyph glyph-name="afii10059" unicode="&#x40a;" horiz-adv-x="910" 
d="M383 642q0 10 4.5 16t17.5 6h116q14 0 17.5 -7t3.5 -15v-229h106q70 0 115 -19.5t71.5 -50t36.5 -67.5t10 -72q0 -52 -19 -90.5t-51 -63.5t-74.5 -37.5t-89.5 -12.5h-242q-13 0 -17.5 6t-4.5 15v257h-157v-256q0 -8 -3.5 -15t-17.5 -7h-116q-22 0 -22 22v620q0 10 5 16.5
t17 6.5h116q14 0 17.5 -7.5t3.5 -15.5v-230h157v230zM721 205q0 43 -22 61.5t-61 18.5h-96v-155h93q39 0 62.5 20t23.5 55z" />
    <glyph glyph-name="afii10041" unicode="&#x427;" horiz-adv-x="624" 
d="M34 643q0 8 4 15t18 7h115q13 0 17.5 -6t4.5 -16v-200q0 -35 16.5 -57t63.5 -22q10 0 25.5 1.5t32.5 4t34.5 6.5t32.5 9v258q0 6 3.5 14t17.5 8h116q13 0 17.5 -6t4.5 -16q-1 -246 -0.5 -400.5t0.5 -220.5q0 -10 -4 -15.5t-18 -5.5h-116q-22 0 -22 21l1 235
q-18 -6 -38.5 -11t-41 -8t-40 -5t-35.5 -2q-64 0 -104.5 17t-64 45t-32 63.5t-8.5 72.5v214z" />
    <glyph glyph-name="afii10067" unicode="&#x432;" horiz-adv-x="536" 
d="M72 0q-15 0 -20 6t-5 16v451q0 11 5 16t19 5h234q93 0 136 -37t43 -103q0 -8 -2.5 -20t-8.5 -24.5t-17.5 -25.5t-29.5 -22q23 -10 37.5 -24t22.5 -29.5t10.5 -30.5t2.5 -26q0 -36 -14.5 -64.5t-39.5 -48t-58.5 -29.5t-70.5 -10h-244zM341 162q0 18 -11 31t-38 13h-92v-87
h88q30 0 41.5 14.5t11.5 28.5zM325 340q0 14 -10 25t-36 11h-79v-73h82q21 0 32 11.5t11 25.5z" />
    <glyph glyph-name="afii10068" unicode="&#x433;" horiz-adv-x="461" 
d="M201 373v-352q0 -8 -4 -14.5t-18 -6.5h-107q-14 0 -19 5t-5 16v450q0 11 4.5 17t18.5 6h355q20 0 20 -23v-76q0 -14 -6.5 -18t-14.5 -4h-224z" />
    <glyph glyph-name="afii10069" unicode="&#x434;" horiz-adv-x="632" 
d="M393 369h-103l-10 -88q-7 -55 -15.5 -92.5t-25.5 -65.5h154v246zM550 120l31 -3q15 -2 20 -11.5t5 -23.5l-10 -188q-1 -20 -8.5 -24.5t-21.5 -4.5h-73q-14 0 -19 5t-6 19l-5 111h-308l-10 -111q-2 -17 -6.5 -20.5t-14.5 -3.5h-86q-13 0 -17 5.5t-5 21.5l-5 196q0 14 8 21
t17 9l28 4q26 23 38.5 53t20.5 79l25 166q6 42 22.5 58t58.5 16h293q12 0 20 -7t8 -21v-346z" />
    <glyph glyph-name="afii10072" unicode="&#x436;" horiz-adv-x="780" 
d="M631 252q34 -10 54.5 -34t37.5 -76l38 -118q4 -8 0.5 -16t-17.5 -8h-104q-21 0 -28.5 5.5t-13.5 20.5l-33 103q-14 40 -34.5 51.5t-43.5 11.5h-20v-171q0 -7 -3 -14t-17 -7h-112q-13 0 -17.5 6t-4.5 15v171h-20q-22 0 -43 -11.5t-35 -51.5l-34 -103q-6 -15 -13 -20.5
t-29 -5.5h-104q-13 0 -16.5 8t-0.5 16l38 118q18 52 38.5 76t55.5 34v3q-29 8 -48.5 34t-37.5 81l-34 99q-4 9 0 16.5t17 7.5h97q22 0 29 -5.5t13 -20.5l36 -93q7 -20 15 -31t17 -16t19 -6t21 -1h19v153q0 9 4.5 15t17.5 6h112q14 0 17 -7t3 -14v-153h20q11 0 21 1t19 6
t16.5 16t15.5 31l37 93q6 15 13 20.5t29 5.5h97q13 0 16.5 -7.5t0.5 -16.5l-34 -99q-19 -55 -39 -81t-48 -34v-3z" />
    <glyph glyph-name="afii10073" unicode="&#x437;" horiz-adv-x="476" 
d="M363 259q21 -9 34.5 -22t22 -27.5t12 -30t3.5 -29.5q0 -49 -22.5 -80t-57 -48.5t-75.5 -24t-77 -6.5q-16 0 -37 1.5t-43 4.5t-43 7.5t-37 10.5q-23 9 -26 18t0 27l10 48q4 14 9 17t21 1q38 -5 73 -8t73 -3q68 0 68 46q0 24 -19 34t-45 10h-49q-14 0 -18 4t-4 16v60
q0 11 4 14.5t18 3.5h41q32 0 50 9.5t18 29.5q0 21 -15 29.5t-41 8.5q-12 0 -27.5 -1l-32.5 -2t-34 -3t-32 -3q-22 -2 -28 0.5t-9 18.5l-11 52q-2 16 4 23t19 13q32 14 80 20.5t93 6.5q37 0 72 -7.5t61.5 -24.5t42.5 -45t16 -68q0 -11 -3.5 -24.5t-11 -27t-19 -26
t-28.5 -20.5v-3z" />
    <glyph glyph-name="afii10074" unicode="&#x438;" horiz-adv-x="574" 
d="M371 270l-106 -148l-15 -20.5l-21 -29l-21.5 -29t-15.5 -20.5q-8 -11 -17 -17t-27 -6h-77q-14 0 -18.5 6t-4.5 17v448q0 11 4.5 17t18.5 6h107q14 0 18 -7.5t4 -15.5v-237h3l32.5 45l30 42.5l23 33l12.5 17.5l72 101q7 9 16 15t28 6h87q14 0 18 -7.5t4 -15.5v-448
q0 -8 -4 -15.5t-19 -7.5h-106q-23 0 -23 23v247h-3z" />
    <glyph glyph-name="afii10077" unicode="&#x43b;" horiz-adv-x="568" 
d="M496 494q15 0 19 -7t4 -15v-451q0 -8 -4 -14.5t-18 -6.5h-111q-14 0 -18.5 5t-4.5 16v348h-95l-19 -176q-5 -41 -13.5 -78.5t-30.5 -66t-62.5 -45t-107.5 -16.5q-16 0 -19 5.5t-4 17.5l-6 68q0 11 3.5 16.5t18.5 10.5q19 6 33 12t23.5 17t16 28.5t9.5 46.5l24 215
q4 42 22 56t63 14h277z" />
    <glyph glyph-name="afii10078" unicode="&#x43c;" horiz-adv-x="646" 
d="M449 231l-37 -78l-30 -60q-9 -20 -35 -20h-45q-17 0 -25 4.5t-13 15.5l-32 64l-36 74h-2v-210q0 -8 -4.5 -14.5t-18.5 -6.5h-101q-22 0 -22 21v450q0 11 4.5 16t16.5 5h90q20 0 28 -4.5t14 -15.5l55 -110q18 -33 34.5 -67t34.5 -67l33 64l33 64l59 115q6 12 14.5 16.5
t27.5 4.5h84q12 0 16.5 -5t4.5 -15v-451q0 -21 -22 -21h-101q-14 0 -18.5 6.5t-4.5 14.5v210h-2z" />
    <glyph glyph-name="afii10079" unicode="&#x43d;" horiz-adv-x="560" 
d="M512 22q0 -8 -3.5 -15t-18.5 -7h-108q-14 0 -18.5 5.5t-4.5 16.5v178h-159v-178q0 -8 -3.5 -15t-17.5 -7h-109q-14 0 -18 5.5t-4 16.5v448q0 11 4 17t18 6h109q14 0 17.5 -7.5t3.5 -15.5v-157h159v157q0 11 4.5 17t18.5 6h108q15 0 18.5 -7.5t3.5 -15.5v-448v0z" />
    <glyph glyph-name="afii10084" unicode="&#x442;" horiz-adv-x="471" 
d="M313 372v-352q0 -8 -4.5 -14t-18.5 -6h-106q-24 0 -24 20v352h-130q-8 0 -14 4t-6 18v77q0 22 20 22h412q19 0 19 -22v-77q0 -14 -6 -18t-14 -4h-128z" />
    <glyph glyph-name="afii10086" unicode="&#x444;" horiz-adv-x="730" 
d="M441 -156q0 -6 -2.5 -13.5t-16.5 -7.5h-112q-14 0 -17.5 6.5t-3.5 15.5v144q-75 5 -123.5 29.5t-76 61t-38 80.5t-10.5 88q0 41 11 84t39.5 79t76 61.5t121.5 31.5v138q0 10 4 16.5t17 6.5h111q14 0 17 -7.5t3 -15.5v-136q73 -6 121 -31t76.5 -61t39.5 -79t11 -85
q0 -44 -11 -87t-38.5 -79t-75.5 -61.5t-123 -33.5v-145zM289 373q-48 -4 -72.5 -37.5t-24.5 -91.5q0 -55 22 -88t75 -38v255zM441 118q48 5 72 35.5t24 90.5q0 57 -21 91.5t-75 38.5v-256z" />
    <glyph glyph-name="afii10088" unicode="&#x446;" horiz-adv-x="579" 
d="M350 471q0 11 4 17t18 6h112q10 0 16 -4t6 -19v-346l35 -3q16 -2 18.5 -9.5t0.5 -23.5l-10 -193q-1 -20 -5.5 -24.5t-18.5 -4.5h-78q-17 0 -21.5 5t-5.5 19l-3 109h-348q-14 0 -18 6t-4 17v448q0 11 4 17t18 6h113q14 0 17.5 -7.5t3.5 -15.5v-347h146v347z" />
    <glyph glyph-name="afii10089" unicode="&#x447;" horiz-adv-x="538" 
d="M30 471q0 8 2.5 15t16.5 7h115q12 0 15 -6t3 -16v-128q0 -37 14 -56t46 -19q23 0 50 9.5t45 16.5v177q0 8 2.5 15t16.5 7h114q13 0 16 -6t3 -16v-450q0 -10 -3 -15.5t-16 -5.5h-115q-14 0 -16.5 7t-2.5 14v154q-35 -13 -71.5 -25t-73.5 -12q-56 0 -88.5 17.5t-48.5 45
t-20 61.5t-4 66v143v0z" />
    <glyph glyph-name="afii10090" unicode="&#x448;" horiz-adv-x="773" 
d="M311 123v348q0 11 3.5 17t17.5 6h111q14 0 17 -7.5t3 -15.5v-348h108v348q0 11 4.5 17t18.5 6h110q10 0 15 -4.5t5 -18.5v-447q0 -11 -3 -17.5t-17 -6.5h-635q-13 0 -17 6.5t-4 17.5v447q0 11 4 17t17 6h111q14 0 17.5 -7.5t3.5 -15.5v-348h110z" />
    <glyph glyph-name="afii10091" unicode="&#x449;" horiz-adv-x="802" 
d="M70 0q-14 0 -18 6.5t-4 17.5v447q0 11 4 17t18 6h113q14 0 17.5 -7.5t3.5 -15.5v-347h107v347q0 11 4 17t18 6h113q14 0 17.5 -7.5t3.5 -15.5v-347h107v347q0 11 4 17t18 6h113q9 0 14.5 -4t5.5 -19v-347l36 -3q16 -2 18 -9.5t1 -23.5l-10 -193q-2 -20 -6.5 -24.5
t-18.5 -4.5h-78q-16 0 -21 5t-6 20l-3 109h-571v0z" />
    <glyph glyph-name="afii10092" unicode="&#x44a;" horiz-adv-x="638" 
d="M195 0q-14 0 -19 4.5t-5 15.5v350h-145q-11 0 -14.5 3.5t-3.5 17.5v82q0 14 5 17.5t13 3.5h276q14 0 18.5 -6.5t4.5 -14.5v-147h92q61 0 99 -16t59.5 -40.5t29 -54t7.5 -56.5q0 -40 -15 -69.5t-42 -49.5t-63 -30t-78 -10h-219zM465 165q0 25 -15 35t-43 10h-81v-87h80
q28 0 43.5 11t15.5 31z" />
    <glyph glyph-name="afii10093" unicode="&#x44b;" horiz-adv-x="744" 
d="M696 19q0 -8 -3.5 -13.5t-17.5 -5.5h-113q-14 0 -18.5 4t-4.5 15v455q0 11 4.5 15.5t18.5 4.5h113q14 0 17.5 -6t3.5 -14v-455zM69 0q-14 0 -17.5 4t-3.5 15v456q0 11 4.5 15t18.5 4h113q14 0 17 -5.5t3 -13.5v-149h90q61 0 99 -16t59.5 -40.5t29 -54t7.5 -56.5
q0 -40 -15 -69.5t-42 -49.5t-63 -30t-78 -10h-222zM342 165q0 25 -15 35t-43 10h-79v-87h77q28 0 44 11t16 31z" />
    <glyph glyph-name="afii10094" unicode="&#x44c;" horiz-adv-x="515" 
d="M69 0q-14 0 -17.5 4.5t-3.5 15.5v456q0 11 4.5 14.5t18.5 3.5h113q14 0 17 -5t3 -13v-150h90q61 0 99 -16t59.5 -40.5t29 -54t7.5 -56.5q0 -40 -15 -69.5t-42 -49.5t-63 -30t-78 -10h-222zM342 165q0 25 -15 35t-43 10h-79v-87h77q28 0 44 11t16 31z" />
    <glyph glyph-name="afii10095" unicode="&#x44d;" horiz-adv-x="484" 
d="M41 107q3 16 8.5 18t20.5 0q32 -4 66 -6t55 -2q40 0 62 17t28 66h-150q-16 0 -21.5 6t-5.5 18v60q0 14 5 18t22 4h146q-5 42 -25.5 58t-58.5 16q-23 0 -48.5 -2t-55.5 -5q-21 -2 -28 -0.5t-10 18.5l-9 50q-6 27 21 37q32 14 75.5 19.5t83.5 5.5q73 0 117 -22t67 -58
t30 -81.5t7 -92.5q0 -51 -8.5 -97.5t-34 -82t-71 -57t-118.5 -21.5q-36 0 -78.5 6t-72.5 17q-22 9 -26 18.5t0 26.5z" />
    <glyph glyph-name="afii10096" unicode="&#x44e;" horiz-adv-x="734" 
d="M692 254q0 -40 -5.5 -86t-28 -85t-67 -65t-123.5 -26q-66 0 -107 19t-64.5 49t-33 67.5t-12.5 74.5h-50v-179q0 -8 -3 -15.5t-17 -7.5h-112q-13 0 -17 6t-4 17v448q0 11 4 17t17 6h112q14 0 17 -7.5t3 -15.5v-158h52q4 31 16 64.5t36.5 61.5t64 45.5t98.5 17.5
q73 0 117.5 -23t68 -59t31 -80t7.5 -86zM543 248q0 30 -2.5 53t-10.5 38.5t-22.5 24t-38.5 8.5q-44 0 -58 -33.5t-14 -90.5q0 -65 13.5 -95.5t57.5 -30.5q47 0 61 32t14 94z" />
    <glyph glyph-name="afii10097" unicode="&#x44f;" horiz-adv-x="537" 
d="M467 495q14 0 18 -5t4 -15v-454q0 -10 -4 -15.5t-18 -5.5h-112q-14 0 -18.5 6.5t-4.5 14.5v158h-49q-20 -1 -36.5 -13t-28.5 -50l-28 -87q-6 -17 -13 -23t-30 -6h-101q-25 0 -17 24l30 95q13 37 27 60t36 35q-21 9 -34.5 22.5t-21.5 30t-11 34t-3 34.5q0 40 15 70t41 50
t61 30t76 10h222zM207 335q0 -43 54 -43h71v86h-71q-26 0 -40 -12t-14 -31z" />
    <glyph glyph-name="afii10107" unicode="&#x45a;" horiz-adv-x="787" 
d="M343 0q-14 0 -18 4.5t-4 14.5v185h-117v-185q0 -8 -3.5 -13.5t-17.5 -5.5h-114q-13 0 -17 4.5t-4 14.5v455q0 11 4 15.5t17 4.5h114q14 0 17.5 -6t3.5 -14v-154h117v155q0 10 4 14.5t18 4.5h113q15 0 18.5 -5.5t3.5 -13.5v-151h89q61 0 99.5 -15.5t59.5 -39.5t28.5 -53.5
t7.5 -56.5q0 -40 -15 -69.5t-42 -49.5t-63 -30t-78 -10h-221zM614 164q0 46 -53 46h-83v-87h81q55 0 55 41z" />
    <glyph glyph-name="afii10106" unicode="&#x459;" horiz-adv-x="819" 
d="M644 165q0 25 -14.5 35t-38.5 10h-83v-87h81q24 0 39.5 11t15.5 31zM490 494q12 0 15 -7.5t3 -15.5v-145h89q61 0 99.5 -16t59.5 -40.5t28.5 -54t7.5 -56.5q0 -40 -15 -69.5t-42 -49.5t-63 -30t-78 -10h-219q-14 0 -19 5t-5 15v350h-83l-19 -190q-4 -40 -13 -75
t-31.5 -61t-62.5 -41.5t-106 -15.5q-15 0 -19 5t-5 18l-5 69q0 11 3.5 16.5t18.5 10.5q19 5 33 11.5t23.5 17.5t15.5 28.5t9 46.5l24 215q5 41 23 55t63 14h270z" />
    <glyph glyph-name="afii10193" unicode="&#x45f;" horiz-adv-x="557" 
d="M351 -128q-2 -20 -6.5 -24.5t-18.5 -4.5h-82q-17 0 -22 5.5t-6 19.5l-6 132h-140q-14 0 -18 6t-4 17v448q0 11 4 17t18 6h113q14 0 17.5 -7.5t3.5 -15.5v-345h149v345q0 11 4.5 17t18.5 6h112q10 0 15.5 -4t5.5 -19v-448q0 -11 -4 -17t-18 -6h-130z" />
    <glyph glyph-name="afii10101" unicode="&#x454;" horiz-adv-x="485" 
d="M450 59q4 -17 0 -26.5t-26 -18.5q-30 -11 -73.5 -17t-79.5 -6q-75 0 -120.5 21.5t-69.5 57t-32 82t-8 97.5q0 45 8 90.5t33 82t70 59t119 22.5q40 0 82.5 -5.5t74.5 -19.5q25 -10 21 -37l-10 -50q-3 -17 -10 -18.5t-28 0.5q-30 3 -57 5t-50 2q-38 0 -60 -16t-27 -58h146
q17 0 22 -4t5 -18v-60q0 -12 -5.5 -18t-21.5 -6h-150q6 -49 28 -66t62 -17q21 0 55 2t66 6q16 2 21 0t8 -18z" />
    <glyph glyph-name="afii10098" unicode="&#x491;" horiz-adv-x="461" 
d="M448 396q0 -14 -7 -18.5t-15 -4.5h-221v-350q0 -8 -3.5 -15.5t-17.5 -7.5h-109q-14 0 -18.5 6t-4.5 17v448q0 11 4.5 17t18.5 6h237l3.5 20.5t5 31t4.5 31.5t3 21q2 12 6.5 15t12.5 3h85q16 0 16 -18v-202v0z" />
    <glyph glyph-name="afii61352" unicode="&#x2116;" horiz-adv-x="1011" 
d="M577 21q0 -10 -4.5 -15.5t-16.5 -5.5h-81q-17 0 -26.5 6t-17.5 17l-156 265l-48 83h-3v-350q0 -8 -4 -14.5t-18 -6.5h-111q-12 0 -16.5 5.5t-4.5 15.5v621q0 9 4.5 15.5t16.5 6.5h82q20 0 27.5 -5.5t13.5 -16.5l70 -119l70 -119l66 -113h4v350q0 8 3.5 15.5t17.5 7.5h111
q12 0 16.5 -6t4.5 -17v-620zM964 518q0 -27 -4.5 -57.5t-21 -56.5t-50 -43t-91.5 -17q-57 0 -89 17t-48.5 43t-20.5 56.5t-4 57.5q0 22 5 51t22 54t49 42.5t86 17.5t87 -15t51 -38.5t23.5 -53t5.5 -58.5zM957 216q0 -9 -3 -13t-13 -4h-281q-11 0 -14.5 3.5t-3.5 14.5v63
q0 11 3.5 14.5t14.5 3.5h280q11 0 14 -4t3 -15v-63zM845 513q0 37 -9 55t-38 18q-26 0 -35 -19t-9 -54q0 -38 8.5 -55t34.5 -17q29 0 38.5 17.5t9.5 54.5z" />
    <glyph glyph-name="afii10060" unicode="&#x40b;" horiz-adv-x="754" 
d="M701 22q0 -8 -3.5 -15t-17.5 -7h-115q-22 0 -22 22v232q0 39 -18 55t-55 16q-12 0 -29 -3.5t-35.5 -8.5t-36 -11t-30.5 -11v-269q0 -8 -3.5 -15t-17.5 -7h-115q-13 0 -17.5 6t-4.5 16v509h-147q-14 0 -18 6t-4 15v91q0 10 4 16t18 6h521q22 0 22 -22v-91q0 -9 -4.5 -15
t-18.5 -6h-215v-111l35.5 13t41 12t43 8.5t40.5 3.5q63 0 102.5 -16t61.5 -43.5t30 -63.5t8 -76v-236z" />
    <glyph glyph-name="afii10051" unicode="&#x402;" horiz-adv-x="755" 
d="M342 404q35 13 74 21t68 8q66 0 111 -19.5t72.5 -52.5t40 -75.5t12.5 -87.5q0 -124 -53 -208t-160 -145q-17 -9 -25.5 -6t-17.5 18l-37 54q-8 14 -7.5 20t13.5 16q74 55 101 116t27 134q0 22 -5 41.5t-17 34t-31.5 23t-48.5 8.5q-23 0 -53.5 -8.5t-63.5 -21.5v-252
q0 -8 -3.5 -15t-17.5 -7h-119q-23 0 -23 22v506h-145q-14 0 -18 6t-4 15v94q0 10 4 15.5t18 5.5h523q22 0 22 -21v-94q0 -9 -4.5 -15t-17.5 -6h-215v-124z" />
    <glyph glyph-name="afii10099" unicode="&#x452;" horiz-adv-x="633" 
d="M91 612v72q0 10 4 16t17 6h117q14 0 16.5 -7.5t2.5 -14.5v-72h180q11 0 13.5 -3.5t2.5 -13.5v-52q0 -9 -2.5 -13t-13.5 -4h-180v-103q37 19 78 27.5t78 8.5q48 0 83.5 -18t58.5 -50.5t34 -78.5t11 -101q0 -49 -12.5 -97.5t-38 -92t-64.5 -80.5t-93 -63q-18 -8 -26 -8
q-12 0 -21 16l-30 52l-5 10t-2 8q0 6 6 11.5t17 13.5q50 33 82.5 90.5t32.5 145.5q0 106 -89 106q-21 0 -47 -6.5t-53 -19.5v-275q0 -8 -2.5 -15t-16.5 -7h-117q-13 0 -17 6t-4 16v504h-40q-11 0 -14 3.5t-3 14.5v51q0 11 3 14t14 3h40z" />
    <glyph glyph-name="afii10108" unicode="&#x45b;" horiz-adv-x="563" 
d="M515 20q0 -8 -4 -14t-18 -6h-109q-13 0 -17.5 5t-4.5 15v239q0 39 -14 56.5t-46 17.5q-23 0 -52 -10.5t-46 -18.5v-284q0 -8 -3 -14t-17 -6h-113q-12 0 -15.5 5t-3.5 15v507h-41q-10 0 -13 3t-3 14v50q0 11 3 14t13 3h41v73q0 10 3.5 16t15.5 6h114q14 0 17 -7t3 -15v-73
h175q11 0 14 -3.5t3 -13.5v-50q0 -9 -2.5 -13t-13.5 -4h-176v-102q30 17 70.5 31t78.5 14q56 0 88 -17.5t48.5 -46t20.5 -63.5t4 -70v-253v0z" />
    <glyph glyph-name="afii10066" unicode="&#x431;" horiz-adv-x="554" 
d="M311 478q59 0 98 -19.5t62.5 -53t33.5 -77.5t10 -93q0 -42 -9 -85.5t-34.5 -79t-72 -57.5t-121.5 -22q-82 0 -129 25t-71 65.5t-30 91.5t-6 104q0 25 0.5 53t2.5 57t7 57.5t13 54.5q16 51 48 93.5t85 71.5q42 23 93.5 37.5l114.5 32.5q10 2 16.5 0t10.5 -13l25 -71
q3 -10 4 -20t-13 -14l-93 -26q-39 -12 -67 -24.5t-46.5 -29t-29 -39.5t-13.5 -55h1q24 20 52.5 28t57.5 8zM355 237q0 24 -3 44t-10.5 35t-21.5 23t-38 8q-25 0 -40 -10t-23.5 -26t-11 -36.5t-2.5 -42.5q0 -23 2.5 -42.5t10.5 -34t22 -22.5t37 -8q25 0 40.5 9t24 24.5
t11 35.5t2.5 43z" />
    <glyph glyph-name="Hbar" unicode="&#x126;" horiz-adv-x="647" 
d="M580 488v-466q0 -8 -3.5 -15t-17.5 -7h-116q-22 0 -22 22v256h-195v-256q0 -8 -3.5 -15t-17.5 -7h-116q-22 0 -22 22v466h-31q-21 0 -21 21v47q0 21 21 21h31v65q0 10 5 16.5t17 6.5h116q14 0 17.5 -7.5t3.5 -15.5v-65h195v65q0 10 5 16.5t17 6.5h116q14 0 17.5 -7.5
t3.5 -15.5v-65h33q13 0 16.5 -5t3.5 -16v-47q0 -11 -3.5 -16t-16.5 -5h-33zM421 488h-195v-76h195v76z" />
    <glyph glyph-name="hbar" unicode="&#x127;" horiz-adv-x="563" 
d="M515 21q0 -8 -4 -14.5t-18 -6.5h-109q-22 0 -22 21v238q0 36 -14 55t-46 19q-23 0 -52 -10.5t-46 -18.5v-283q0 -8 -3.5 -14.5t-17.5 -6.5h-110q-12 0 -16.5 5.5t-4.5 15.5v506h-41q-10 0 -13 3t-3 14v50q0 11 3 14t13 3h41v73q0 10 4.5 16t16.5 6h110q14 0 18 -7t4 -15
v-73h175q11 0 14 -3.5t3 -13.5v-50q0 -9 -2.5 -13t-13.5 -4h-176v-102q30 17 70.5 31t78.5 14q56 0 88 -17.5t48.5 -46t20.5 -63.5t4 -70v-252v0z" />
    <glyph glyph-name="kappa" unicode="&#x3ba;" horiz-adv-x="530" 
d="M204 332l63 72l60 68q9 11 18 16.5t29 5.5h114q18 0 20.5 -8t-8.5 -19l-153 -165l175 -274q8 -12 3 -20t-19 -8h-110q-23 0 -32.5 6.5t-15.5 17.5l-101 168l-46 -50v-120q0 -8 -3.5 -15t-17.5 -7h-109q-13 0 -17.5 6t-4.5 16v448q0 10 4.5 16.5t17.5 6.5h109
q14 0 17.5 -7.5t3.5 -15.5v-137z" />
    <glyph glyph-name="Tbar" unicode="&#x166;" horiz-adv-x="521" 
d="M509 552q0 -9 -4.5 -15t-17.5 -6h-148v-128h106q14 0 17.5 -5t3.5 -16v-51q0 -11 -3.5 -16.5t-16.5 -5.5h-107v-287q0 -8 -3.5 -15t-17.5 -7h-115q-13 0 -17.5 6t-4.5 16v287h-100q-20 0 -20 22v51q0 21 21 21h99v128h-147q-14 0 -18 6t-4 15v91q0 10 4 16t18 6h453
q22 0 22 -22v-91v0z" />
    <glyph glyph-name="tbar" unicode="&#x167;" horiz-adv-x="409" 
d="M401 45q3 -11 -2.5 -20t-15.5 -12q-18 -6 -38.5 -10t-40.5 -6.5t-37.5 -3.5t-29.5 -1q-47 0 -76 13.5t-45 35.5t-21.5 50.5t-5.5 59.5v68h-40q-20 0 -20 21v52q0 21 20 21h40v61h-44q-12 0 -16.5 5.5t-4.5 16.5v75q0 11 4.5 16.5t16.5 5.5h45v98q0 12 6 17.5t16 8.5
l101 27q11 4 18 -0.5t7 -16.5v-134h102q14 0 17.5 -5t3.5 -16v-76q0 -11 -3.5 -16.5t-17.5 -5.5h-103v-61h89q13 0 16.5 -5t3.5 -15v-53q0 -11 -3.5 -16t-16.5 -5h-88v-31q0 -14 1.5 -24t7.5 -16.5t18 -10t34 -3.5q12 0 31 1t38 3q10 0 16 -2t8 -19z" />
    <glyph glyph-name="Eng" unicode="&#x14a;" horiz-adv-x="670" 
d="M224 372h-3v-351q0 -8 -4 -14.5t-17 -6.5h-111q-23 0 -23 21v621q0 9 5 15.5t17 6.5h82q23 0 31 -8t17 -21l121 -183l105 -163q1 0 1.5 0.5t1.5 0.5v351q0 8 4 15.5t18 7.5h111q12 0 16.5 -6t4.5 -17v-679q0 -81 -41.5 -129.5t-136.5 -48.5q-11 0 -32 1.5t-38 6.5
q-8 2 -9 6.5t-1 11.5l9 90q1 8 5.5 10t16.5 2q23 1 37.5 4.5t22.5 10.5t11 18.5t3 28.5v59l-31 46.5l-42 63.5l-42 62.5l-30 44.5z" />
    <glyph glyph-name="eng" unicode="&#x14b;" horiz-adv-x="557" 
d="M357 -26q0 77 0.5 154t0.5 155q0 38 -13.5 57.5t-47.5 19.5q-11 0 -24.5 -3t-27 -7.5t-25.5 -9.5l-21 -9v-310q0 -8 -3.5 -14.5t-17.5 -6.5h-109q-13 0 -17.5 5.5t-4.5 15.5v450q0 10 4.5 16t17.5 6h109q14 0 17.5 -7t3.5 -15v-24q1 0 1.5 -0.5t1.5 -0.5q33 25 77 40.5
t80 15.5q53 0 83.5 -17.5t45.5 -46t18.5 -63.5t3.5 -70v-343q0 -81 -41.5 -129.5t-137.5 -48.5q-9 0 -27 1t-35 5q-7 2 -12 4.5t-5 15.5l4 45l4 45q1 8 6 10t17 2q23 1 37.5 4.5t22.5 10.5t11 18.5t3 28.5z" />
    <glyph glyph-name="Circumflex" unicode="&#xf6c0;" horiz-adv-x="589" 
d="M154 693q-10 -8 -15.5 -8.5t-13.5 7.5l-32 34q-8 8 -8.5 12.5t7.5 14.5l123 112q9 8 15.5 13t23.5 5h64q18 0 24.5 -3.5t15.5 -11.5l123 -114q9 -8 8 -13.5t-9 -13.5l-33 -35q-8 -8 -13 -6.5t-15 8.5l-135 87z" />
    <glyph glyph-name="commaaccent" unicode="&#xf6c3;" horiz-adv-x="645" 
d="M417 -150q0 -64 -28 -109.5t-69 -69.5q-22 -12 -37 5l-26 27q-11 11 -10 17t14 20q18 18 22 35t4 29q0 16 -7.5 29t-18.5 26q-13 14 -14 23.5t16 23.5l65 48q15 12 25.5 7.5t22.5 -15.5q20 -19 30.5 -46t10.5 -50z" />
    <glyph glyph-name="Acute" unicode="&#xf6c9;" horiz-adv-x="589" 
d="M472 805q13 -19 -9 -29l-176 -77q-8 -3 -14 -3t-12 8l-33 50q-4 6 -4 12t10 12l163 107q11 7 18 4t11 -10z" />
    <glyph glyph-name="Caron" unicode="&#xf6ca;" horiz-adv-x="555" 
d="M280 803l134 80q10 7 15.5 8.5t13.5 -6.5l33 -34q7 -8 7.5 -12.5t-7.5 -13.5l-123 -115q-8 -8 -15 -11.5t-24 -3.5h-64q-17 0 -24.5 4.5t-15.5 12.5l-121 111q-9 10 -8.5 15t8.5 12l32 35q7 8 13 6.5t15 -7.5z" />
    <glyph glyph-name="Dieresis" unicode="&#xf6cb;" horiz-adv-x="605" 
d="M204 694q-25 0 -39.5 6t-22 15.5t-9.5 22.5t-2 27q0 29 14 48.5t59 19.5q46 0 60 -18.5t14 -49.5q0 -14 -2.5 -27t-10.5 -23t-22.5 -15.5t-38.5 -5.5zM410 694q-25 0 -39.5 6t-22 15.5t-10 22.5t-2.5 27q0 29 14.5 48.5t59.5 19.5q46 0 59.5 -18.5t13.5 -49.5
q0 -14 -2.5 -27t-10.5 -23t-22 -15.5t-38 -5.5z" />
    <glyph glyph-name="DieresisAcute" unicode="&#xf6cc;" horiz-adv-x="601" 
d="M410 846q9 -6 9 -14q0 -9 -7 -16l-135 -134q-7 -7 -12.5 -9t-13.5 3l-48 34q-8 6 -8.5 10.5t4.5 12.5l112 157q7 11 17 11q5 0 11 -4zM483 694q-25 0 -39.5 6t-22 15.5t-10 22t-2.5 26.5q0 29 14.5 48.5t59.5 19.5q23 0 37.5 -4.5t22.5 -13.5t11 -21.5t3 -28.5
q0 -14 -2.5 -27t-10.5 -22.5t-22.5 -15t-38.5 -5.5zM114 694q-25 0 -39.5 6t-22 15.5t-10 22t-2.5 26.5q0 29 14 48.5t60 19.5t59.5 -18t13.5 -50q0 -14 -2.5 -27t-10.5 -22.5t-22 -15t-38 -5.5z" />
    <glyph glyph-name="DieresisGrave" unicode="&#xf6cd;" horiz-adv-x="559" 
d="M114 694q-25 0 -39.5 6t-22 15.5t-9.5 22.5t-2 27q0 29 14 48.5t59 19.5q46 0 60 -18.5t14 -49.5q0 -14 -2.5 -27t-10.5 -23t-22.5 -15.5t-38.5 -5.5zM483 694q-24 0 -38.5 6t-22 15.5t-10 22.5t-2.5 27q0 29 14.5 48.5t58.5 19.5q46 0 60 -18.5t14 -49.5q0 -14 -2.5 -27
t-10.5 -23t-22.5 -15.5t-38.5 -5.5zM260 897q5 5 13 5t15 -11l112 -157q7 -9 5 -14t-9 -10l-48 -33q-8 -6 -14.5 -3t-11.5 8l-135 134q-16 19 2 30z" />
    <glyph glyph-name="Grave" unicode="&#xf6ce;" horiz-adv-x="589" 
d="M161 886q5 5 12 7.5t17 -5.5l151 -123q9 -7 8.5 -12.5t-5.5 -10.5l-37 -47q-7 -8 -13.5 -7t-13.5 5l-167 95q-10 5 -12 13t5 16z" />
    <glyph glyph-name="Hungarumlaut" unicode="&#xf6cf;" horiz-adv-x="638" 
d="M377 814q14 -18 -7 -29l-168 -94q-7 -4 -13 -5t-13 7l-38 47q-5 5 -5 10.5t8 12.5l152 123q10 8 17 5.5t12 -7.5zM605 814q14 -18 -7 -29l-167 -94q-7 -4 -13.5 -5t-13.5 7l-37 47q-5 5 -5.5 10.5t8.5 12.5l152 123q9 8 16.5 5.5t12.5 -7.5z" />
    <glyph glyph-name="Macron" unicode="&#xf6d0;" horiz-adv-x="589" 
d="M139 709q-21 0 -21 21v70q0 21 21 21h304q12 0 16 -4.5t4 -15.5v-71q0 -11 -4 -16t-16 -5h-304z" />
    <glyph glyph-name="cyrBreve" unicode="&#xf6d1;" horiz-adv-x="589" 
d="M285 693q-29 0 -57 6t-53.5 19t-47 33t-35.5 49q-6 13 -9 24t9 19l36 29q13 9 19 5.5t16 -14.5q28 -33 55.5 -48.5t64.5 -15.5q33 0 61.5 13t57.5 51q9 12 16.5 14t19.5 -6l35 -21q14 -9 11 -20.5t-11 -25.5q-31 -57 -79.5 -84t-108.5 -27z" />
    <glyph glyph-name="cyrbreve" unicode="&#xf6d4;" horiz-adv-x="536" 
d="M282 536q-28 0 -56.5 7.5t-54 22t-46.5 36.5t-36 52q-6 13 -8.5 24t8.5 19l36 29q14 9 20 5.5t15 -14.5q16 -19 30.5 -32.5t28.5 -22.5t29 -13t34 -4q16 0 31 3.5t29 12t28 22.5t30 34q9 12 16 14t19 -6l36 -21q14 -9 10.5 -20.5t-11.5 -25.5q-30 -58 -79 -90t-109 -32z
" />
    <glyph glyph-name="ring" unicode="&#x2da;" horiz-adv-x="525" 
d="M278 530q-25 0 -48 9t-41 25t-28.5 38.5t-10.5 49.5t10.5 49t28.5 38t41 25t48 9t48 -10t39.5 -26.5t26.5 -38.5t10 -46q0 -25 -10 -47.5t-26.5 -39t-39.5 -26t-48 -9.5zM278 699q-19 0 -32.5 -14t-13.5 -33q0 -22 13 -35t33 -13q18 0 31 14t13 34q0 19 -13 33t-31 14z
" />
    <glyph glyph-name="Scaron" unicode="&#x160;" horiz-adv-x="581" 
d="M274 -9q-16 0 -40 1.5t-51 5t-54.5 9.5t-51.5 15q-25 10 -28 19t0 23l12 58q5 20 12 22t27 -1l40 -4.5t45 -4.5t46 -3.5t44 -1.5q51 0 74.5 16t23.5 48q0 18 -5 29.5t-16.5 19.5t-29 13.5t-42.5 10.5q-43 9 -85 21.5t-75 34.5t-53.5 57t-20.5 89q0 49 17 87t48.5 63.5
t76.5 39t100 13.5q14 0 36.5 -0.5t49 -3.5t54 -9t51.5 -16q25 -9 28 -18.5t1 -23.5l-14 -59q-2 -10 -5 -14.5t-8 -6t-12.5 -1t-17.5 1.5q-34 5 -69.5 8t-81.5 3q-44 0 -65.5 -14t-21.5 -46q0 -16 4.5 -26t15 -17t27.5 -11.5t42 -9.5q43 -9 85 -21t75 -34t53.5 -58.5
t20.5 -95.5t-22 -99t-58.5 -64t-84 -34.5t-97.5 -10.5zM285 803l134 80q10 7 15.5 8.5t13.5 -6.5l33 -34q7 -8 7.5 -12.5t-7.5 -13.5l-123 -115q-8 -8 -15 -11.5t-24 -3.5h-64q-17 0 -24.5 4.5t-15.5 12.5l-121 111q-9 10 -8.5 15t8.5 12l32 35q7 8 13 6.5t15 -7.5z" />
    <glyph glyph-name="Zcaron" unicode="&#x17d;" horiz-adv-x="550" 
d="M219 133h268q14 0 18 -6t4 -15v-90q0 -10 -4 -16t-17 -6h-424q-22 0 -22 21v81q0 8 2.5 18.5t10.5 21.5l273 389h-244q-14 0 -18 6t-4 15v91q0 10 4 16t18 6h402q9 0 15 -6t6 -15l-1 -73q0 -16 -3 -26.5t-10 -21.5zM289 803l134 80q10 7 15.5 8.5t13.5 -6.5l33 -34
q7 -8 7.5 -12.5t-7.5 -13.5l-123 -115q-8 -8 -15 -11.5t-24 -3.5h-64q-17 0 -24.5 4.5t-15.5 12.5l-121 111q-9 10 -8.5 15t8.5 12l32 35q7 8 13 6.5t15 -7.5z" />
    <glyph glyph-name="scaron" unicode="&#x161;" horiz-adv-x="488" 
d="M451 156q0 -47 -18.5 -78.5t-49.5 -50.5t-70.5 -27.5t-82.5 -8.5q-18 0 -39 1.5t-42.5 4.5t-41 7t-34.5 9q-25 9 -32 18.5t-2 29.5l11 48q3 14 9 17t23 0q35 -6 76 -9.5t67 -3.5q38 0 54 8.5t16 28.5q0 22 -12 29.5t-44 11.5q-41 6 -76.5 14t-62.5 24t-42.5 43t-15.5 71
q0 40 15.5 70t42.5 50t64.5 30t81.5 10q17 0 37.5 -1.5t41.5 -4t40.5 -6.5t35.5 -10q20 -7 29.5 -14.5t4.5 -26.5l-11 -51q-4 -14 -8.5 -17t-21.5 -1l-37 4.5t-39.5 4t-36.5 2.5t-29 1q-38 1 -47.5 -8.5t-9.5 -25.5q0 -19 17.5 -24.5t44.5 -10.5q39 -5 74 -12.5t61.5 -24.5
t42.5 -45.5t16 -75.5zM245 638l131 102q9 7 15 8t14 -7l35 -33q8 -7 8.5 -12.5t-7.5 -14.5l-123 -136q-8 -8 -14 -11.5t-25 -3.5h-64q-18 0 -25 4t-15 14l-121 133q-8 9 -7.5 13.5t8.5 12.5l34 34q8 8 14 7t15 -9z" />
    <glyph glyph-name="zcaron" unicode="&#x17e;" horiz-adv-x="471" 
d="M418 122q22 0 22 -22v-78q0 -22 -22 -22h-370q-13 0 -16.5 5t-3.5 15v64q0 8 2 17t13 22l209 250h-189q-21 0 -21 22v78q0 21 21 21h350q13 0 17 -4.5t4 -15.5v-67q0 -9 -2.5 -18t-12.5 -21l-206 -246h205zM239 638l131 102q9 7 15 8t14 -7l35 -33q8 -7 8.5 -12.5
t-7.5 -14.5l-123 -136q-8 -8 -14 -11.5t-25 -3.5h-64q-18 0 -25 4t-15 14l-121 133q-8 9 -7.5 13.5t8.5 12.5l34 34q8 8 14 7t15 -9z" />
    <glyph glyph-name="Ydieresis" unicode="&#x178;" horiz-adv-x="629" 
d="M228 244l-215 396q-5 10 -2 17.5t14 7.5h119q17 0 24 -5t15 -19l66 -131l59 -120h6l62 121l64 123q8 15 15 23t24 8h120q12 0 15 -7t-2 -15l-226 -399v-222q0 -8 -3.5 -15t-16.5 -7h-116q-22 0 -22 22v222zM208 694q-25 0 -39.5 6t-22 15.5t-9.5 22.5t-2 27q0 29 14 48.5
t59 19.5q46 0 60 -18.5t14 -49.5q0 -14 -2.5 -27t-10.5 -23t-22.5 -15.5t-38.5 -5.5zM414 694q-25 0 -39.5 6t-22 15.5t-10 22.5t-2.5 27q0 29 14.5 48.5t59.5 19.5q46 0 59.5 -18.5t13.5 -49.5q0 -14 -2.5 -27t-10.5 -23t-22 -15.5t-38 -5.5z" />
    <glyph glyph-name="Agrave" unicode="&#xc0;" horiz-adv-x="618" 
d="M170 28q-5 -16 -13 -22t-22 -6h-111q-11 0 -15 4.5t1 21.5l193 610q5 14 12 21.5t27 7.5h126q21 0 27.5 -8t11.5 -22l201 -611q3 -12 1 -18t-13 -6h-124q-17 0 -23 7.5t-11 23.5l-33 119h-199zM340 382l-32 122h-5l-33 -121l-30 -111h130zM174 886q5 5 12 7.5t17 -5.5
l151 -123q9 -7 8.5 -12.5t-5.5 -10.5l-37 -47q-7 -8 -13.5 -7t-13.5 5l-167 95q-10 5 -12 13t5 16z" />
    <glyph glyph-name="Aacute" unicode="&#xc1;" horiz-adv-x="618" 
d="M170 28q-5 -16 -13 -22t-22 -6h-111q-11 0 -15 4.5t1 21.5l193 610q5 14 12 21.5t27 7.5h126q21 0 27.5 -8t11.5 -22l201 -611q3 -12 1 -18t-13 -6h-124q-17 0 -23 7.5t-11 23.5l-33 119h-199zM340 382l-32 122h-5l-33 -121l-30 -111h130zM485 805q13 -19 -9 -29
l-176 -77q-8 -3 -14 -3t-12 8l-33 50q-4 6 -4 12t10 12l163 107q11 7 18 4t11 -10z" />
    <glyph glyph-name="Acircumflex" unicode="&#xc2;" horiz-adv-x="618" 
d="M170 28q-5 -16 -13 -22t-22 -6h-111q-11 0 -15 4.5t1 21.5l193 610q5 14 12 21.5t27 7.5h126q21 0 27.5 -8t11.5 -22l201 -611q3 -12 1 -18t-13 -6h-124q-17 0 -23 7.5t-11 23.5l-33 119h-199zM340 382l-32 122h-5l-33 -121l-30 -111h130zM167 693q-10 -8 -15.5 -8.5
t-13.5 7.5l-32 34q-8 8 -8.5 12.5t7.5 14.5l123 112q9 8 15.5 13t23.5 5h64q18 0 24.5 -3.5t15.5 -11.5l123 -114q9 -8 8 -13.5t-9 -13.5l-33 -35q-8 -8 -13 -6.5t-15 8.5l-135 87z" />
    <glyph glyph-name="Atilde" unicode="&#xc3;" horiz-adv-x="618" 
d="M170 28q-5 -16 -13 -22t-22 -6h-111q-11 0 -15 4.5t1 21.5l193 610q5 14 12 21.5t27 7.5h126q21 0 27.5 -8t11.5 -22l201 -611q3 -12 1 -18t-13 -6h-124q-17 0 -23 7.5t-11 23.5l-33 119h-199zM340 382l-32 122h-5l-33 -121l-30 -111h130zM385 698q-17 0 -38.5 7.5
t-43.5 16.5t-42.5 16.5t-36.5 7.5q-12 0 -27 -6.5t-32 -30.5q-5 -8 -9 -9.5t-16 4.5l-38 17q-3 2 -7.5 7.5t-0.5 15.5q24 62 59 87.5t70 25.5q21 0 43 -7.5t43 -17t40.5 -17t34.5 -7.5q33 0 56 38q5 8 10.5 8.5t16.5 -4.5l37 -20q14 -7 9 -23q-26 -63 -58 -86t-70 -23z" />
    <glyph glyph-name="Adieresis" unicode="&#xc4;" horiz-adv-x="618" 
d="M170 28q-5 -16 -13 -22t-22 -6h-111q-11 0 -15 4.5t1 21.5l193 610q5 14 12 21.5t27 7.5h126q21 0 27.5 -8t11.5 -22l201 -611q3 -12 1 -18t-13 -6h-124q-17 0 -23 7.5t-11 23.5l-33 119h-199zM340 382l-32 122h-5l-33 -121l-30 -111h130zM201 694q-25 0 -39.5 6
t-22 15.5t-9.5 22.5t-2 27q0 29 14 48.5t59 19.5q46 0 60 -18.5t14 -49.5q0 -14 -2.5 -27t-10.5 -23t-22.5 -15.5t-38.5 -5.5zM407 694q-25 0 -39.5 6t-22 15.5t-10 22.5t-2.5 27q0 29 14.5 48.5t59.5 19.5q46 0 59.5 -18.5t13.5 -49.5q0 -14 -2.5 -27t-10.5 -23t-22 -15.5
t-38 -5.5z" />
    <glyph glyph-name="Aring" unicode="&#xc5;" horiz-adv-x="618" 
d="M170 28q-5 -16 -13 -22t-22 -6h-111q-11 0 -15 4.5t1 21.5l193 610q5 14 12 21.5t27 7.5h126q21 0 27.5 -8t11.5 -22l201 -611q3 -12 1 -18t-13 -6h-124q-17 0 -23 7.5t-11 23.5l-33 119h-199zM340 382l-32 122h-5l-33 -121l-30 -111h130zM306 673q-25 0 -48 9t-41 25
t-28.5 38.5t-10.5 49.5t10.5 49t28.5 38t41 25t48 9t48 -10t39.5 -26.5t26.5 -38.5t10 -46q0 -25 -10 -47.5t-26.5 -39t-39.5 -26t-48 -9.5zM306 842q-19 0 -32.5 -14t-13.5 -33q0 -22 13 -35t33 -13q18 0 31 14t13 34q0 19 -13 33t-31 14z" />
    <glyph glyph-name="Ccedilla" unicode="&#xc7;" horiz-adv-x="593" 
d="M343 -127q0 21 -17.5 24.5t-55.5 5.5q-23 2 -15 24l24 69q-68 11 -111 43.5t-67.5 78.5t-33.5 100.5t-9 110.5q0 61 11.5 122.5t43 110.5t88 79.5t147.5 30.5q47 0 97.5 -7.5t90.5 -24.5q15 -7 23 -15.5t4 -27.5l-13 -58q-3 -14 -9.5 -18t-24.5 -2q-42 5 -81.5 8t-71.5 3
q-42 0 -68.5 -15.5t-41.5 -42.5t-20.5 -63t-5.5 -77q0 -47 5.5 -84.5t20.5 -63.5t41.5 -39.5t67.5 -13.5t74.5 3t80.5 8q19 2 25 -1.5t10 -18.5l13 -53q5 -19 -2.5 -28.5t-22.5 -16.5q-19 -8 -42.5 -14.5t-49 -11t-51 -6.5t-48.5 -2h-8l-15 -38q33 -1 53.5 -8t32 -18.5
t15 -25t3.5 -28.5q0 -45 -33 -75t-104 -30q-8 0 -18.5 0.5t-22.5 2t-23.5 4t-20.5 5.5q-11 4 -9 12l9 41q1 7 12 6q15 -2 33 -4t31 -2q23 0 41 7t18 34z" />
    <glyph glyph-name="Egrave" unicode="&#xc8;" horiz-adv-x="558" 
d="M68 642q0 10 4.5 16.5t17.5 6.5h397q21 0 21 -22v-91q0 -9 -4.5 -15t-17.5 -6h-259v-121h226q23 0 23 -21v-91q0 -9 -4.5 -15t-18.5 -6h-226v-144h264q22 0 22 -22v-91q0 -9 -4.5 -14.5t-17.5 -5.5h-401q-13 0 -17.5 6t-4.5 15v621zM173 886q5 5 12 7.5t17 -5.5l151 -123
q9 -7 8.5 -12.5t-5.5 -10.5l-37 -47q-7 -8 -13.5 -7t-13.5 5l-167 95q-10 5 -12 13t5 16z" />
    <glyph glyph-name="Eacute" unicode="&#xc9;" horiz-adv-x="558" 
d="M68 642q0 10 4.5 16.5t17.5 6.5h397q21 0 21 -22v-91q0 -9 -4.5 -15t-17.5 -6h-259v-121h226q23 0 23 -21v-91q0 -9 -4.5 -15t-18.5 -6h-226v-144h264q22 0 22 -22v-91q0 -9 -4.5 -14.5t-17.5 -5.5h-401q-13 0 -17.5 6t-4.5 15v621zM439 805q13 -19 -9 -29l-176 -77
q-8 -3 -14 -3t-12 8l-33 50q-4 6 -4 12t10 12l163 107q11 7 18 4t11 -10z" />
    <glyph glyph-name="Ecircumflex" unicode="&#xca;" horiz-adv-x="558" 
d="M68 642q0 10 4.5 16.5t17.5 6.5h397q21 0 21 -22v-91q0 -9 -4.5 -15t-17.5 -6h-259v-121h226q23 0 23 -21v-91q0 -9 -4.5 -15t-18.5 -6h-226v-144h264q22 0 22 -22v-91q0 -9 -4.5 -14.5t-17.5 -5.5h-401q-13 0 -17.5 6t-4.5 15v621zM155 693q-10 -8 -15.5 -8.5t-13.5 7.5
l-32 34q-8 8 -8.5 12.5t7.5 14.5l123 112q9 8 15.5 13t23.5 5h64q18 0 24.5 -3.5t15.5 -11.5l123 -114q9 -8 8 -13.5t-9 -13.5l-33 -35q-8 -8 -13 -6.5t-15 8.5l-135 87z" />
    <glyph glyph-name="Edieresis" unicode="&#xcb;" horiz-adv-x="558" 
d="M68 642q0 10 4.5 16.5t17.5 6.5h397q21 0 21 -22v-91q0 -9 -4.5 -15t-17.5 -6h-259v-121h226q23 0 23 -21v-91q0 -9 -4.5 -15t-18.5 -6h-226v-144h264q22 0 22 -22v-91q0 -9 -4.5 -14.5t-17.5 -5.5h-401q-13 0 -17.5 6t-4.5 15v621zM186 694q-25 0 -39.5 6t-22 15.5
t-9.5 22.5t-2 27q0 29 14 48.5t59 19.5q46 0 60 -18.5t14 -49.5q0 -14 -2.5 -27t-10.5 -23t-22.5 -15.5t-38.5 -5.5zM392 694q-25 0 -39.5 6t-22 15.5t-10 22.5t-2.5 27q0 29 14.5 48.5t59.5 19.5q46 0 59.5 -18.5t13.5 -49.5q0 -14 -2.5 -27t-10.5 -23t-22 -15.5t-38 -5.5z
" />
    <glyph glyph-name="Igrave" unicode="&#xcc;" horiz-adv-x="304" 
d="M72 642q0 10 4.5 16.5t16.5 6.5h117q14 0 17.5 -7.5t3.5 -15.5v-620q0 -8 -3.5 -15t-17.5 -7h-117q-12 0 -16.5 6t-4.5 16v620zM19 886q5 5 12 7.5t17 -5.5l151 -123q9 -7 8.5 -12.5t-5.5 -10.5l-37 -47q-7 -8 -13.5 -7t-13.5 5l-167 95q-10 5 -12 13t5 16z" />
    <glyph glyph-name="Iacute" unicode="&#xcd;" horiz-adv-x="304" 
d="M72 642q0 10 4.5 16.5t16.5 6.5h117q14 0 17.5 -7.5t3.5 -15.5v-620q0 -8 -3.5 -15t-17.5 -7h-117q-12 0 -16.5 6t-4.5 16v620zM335 805q13 -19 -9 -29l-176 -77q-8 -3 -14 -3t-12 8l-33 50q-4 6 -4 12t10 12l163 107q11 7 18 4t11 -10z" />
    <glyph glyph-name="Icircumflex" unicode="&#xce;" horiz-adv-x="304" 
d="M72 642q0 10 4.5 16.5t16.5 6.5h117q14 0 17.5 -7.5t3.5 -15.5v-620q0 -8 -3.5 -15t-17.5 -7h-117q-12 0 -16.5 6t-4.5 16v620zM25 693q-10 -8 -15.5 -8.5t-13.5 7.5l-32 34q-8 8 -8.5 12.5t7.5 14.5l123 112q9 8 15.5 13t23.5 5h64q18 0 24.5 -3.5t15.5 -11.5l123 -114
q9 -8 8 -13.5t-9 -13.5l-33 -35q-8 -8 -13 -6.5t-15 8.5l-135 87z" />
    <glyph glyph-name="Idieresis" unicode="&#xcf;" horiz-adv-x="304" 
d="M72 642q0 10 4.5 16.5t16.5 6.5h117q14 0 17.5 -7.5t3.5 -15.5v-620q0 -8 -3.5 -15t-17.5 -7h-117q-12 0 -16.5 6t-4.5 16v620zM51 694q-25 0 -39.5 6t-22 15.5t-9.5 22.5t-2 27q0 29 14 48.5t59 19.5q46 0 60 -18.5t14 -49.5q0 -14 -2.5 -27t-10.5 -23t-22.5 -15.5
t-38.5 -5.5zM257 694q-25 0 -39.5 6t-22 15.5t-10 22.5t-2.5 27q0 29 14.5 48.5t59.5 19.5q46 0 59.5 -18.5t13.5 -49.5q0 -14 -2.5 -27t-10.5 -23t-22 -15.5t-38 -5.5z" />
    <glyph glyph-name="Eth" unicode="&#xd0;" horiz-adv-x="658" 
d="M90 0q-14 0 -18.5 6t-4.5 16v266h-56q-21 0 -21 19v62q0 19 21 19h56v254q0 10 4.5 16t17.5 6h218q87 0 144 -27t90 -72t46.5 -105t13.5 -126q0 -67 -13 -127.5t-46 -106.5t-90 -73t-145 -27h-217zM225 288v-155h64q34 0 61 10.5t46 33.5t29.5 60t10.5 90q0 106 -34 155
t-106 49h-71v-143h86q12 0 16 -4.5t4 -13.5v-63q0 -10 -4 -14.5t-16 -4.5h-86z" />
    <glyph glyph-name="Ntilde" unicode="&#xd1;" horiz-adv-x="670" 
d="M224 372h-3v-351q0 -8 -4 -14.5t-17 -6.5h-111q-23 0 -23 21v621q0 9 5 15.5t17 6.5h82q23 0 31.5 -8t16.5 -21t26 -40l40.5 -61.5l47 -72l47 -72l40 -61.5l25.5 -39q1 0 1.5 0.5t1.5 0.5v351q0 8 4 15.5t18 7.5h111q12 0 16.5 -6t4.5 -17v-620q0 -10 -4.5 -15.5
t-16.5 -5.5h-82q-17 0 -26 6t-17 17l-76 113.5l-76 113.5zM414 689q-17 0 -38.5 7.5t-43.5 16.5t-42.5 16.5t-36.5 7.5q-12 0 -27 -6.5t-32 -30.5q-5 -8 -9 -9.5t-16 4.5l-38 17q-3 2 -7.5 7.5t-0.5 15.5q24 62 59 87.5t70 25.5q21 0 43 -7.5t43 -17t40.5 -17t34.5 -7.5
q33 0 56 38q5 8 10.5 8.5t16.5 -4.5l37 -20q14 -7 9 -23q-26 -63 -58 -86t-70 -23z" />
    <glyph glyph-name="Ograve" unicode="&#xd2;" horiz-adv-x="689" 
d="M631 341q0 -57 -8.5 -118.5t-38.5 -113t-87.5 -85t-155.5 -33.5q-65 0 -111.5 15.5t-78 41.5t-50 61t-28.5 74t-13 79.5t-3 78.5q0 29 3.5 65.5t14 73t29.5 71.5t50.5 62t77.5 43.5t110 16.5q94 0 150.5 -29.5t87.5 -77t41 -107t10 -118.5zM468 330q0 107 -26.5 156.5
t-98.5 49.5q-67 0 -92.5 -50.5t-25.5 -155.5q0 -101 24.5 -151.5t93.5 -50.5q71 0 98 49.5t27 152.5zM263 886q5 5 12 7.5t17 -5.5l151 -123q9 -7 8.5 -12.5t-5.5 -10.5l-37 -47q-7 -8 -13.5 -7t-13.5 5l-167 95q-10 5 -12 13t5 16z" />
    <glyph glyph-name="Oacute" unicode="&#xd3;" horiz-adv-x="689" 
d="M631 341q0 -57 -8.5 -118.5t-38.5 -113t-87.5 -85t-155.5 -33.5q-65 0 -111.5 15.5t-78 41.5t-50 61t-28.5 74t-13 79.5t-3 78.5q0 29 3.5 65.5t14 73t29.5 71.5t50.5 62t77.5 43.5t110 16.5q94 0 150.5 -29.5t87.5 -77t41 -107t10 -118.5zM468 330q0 107 -26.5 156.5
t-98.5 49.5q-67 0 -92.5 -50.5t-25.5 -155.5q0 -101 24.5 -151.5t93.5 -50.5q71 0 98 49.5t27 152.5zM522 805q13 -19 -9 -29l-176 -77q-8 -3 -14 -3t-12 8l-33 50q-4 6 -4 12t10 12l163 107q11 7 18 4t11 -10z" />
    <glyph glyph-name="Ocircumflex" unicode="&#xd4;" horiz-adv-x="689" 
d="M631 341q0 -57 -8.5 -118.5t-38.5 -113t-87.5 -85t-155.5 -33.5q-65 0 -111.5 15.5t-78 41.5t-50 61t-28.5 74t-13 79.5t-3 78.5q0 29 3.5 65.5t14 73t29.5 71.5t50.5 62t77.5 43.5t110 16.5q94 0 150.5 -29.5t87.5 -77t41 -107t10 -118.5zM468 330q0 107 -26.5 156.5
t-98.5 49.5q-67 0 -92.5 -50.5t-25.5 -155.5q0 -101 24.5 -151.5t93.5 -50.5q71 0 98 49.5t27 152.5zM217 693q-10 -8 -15.5 -8.5t-13.5 7.5l-32 34q-8 8 -8.5 12.5t7.5 14.5l123 112q9 8 15.5 13t23.5 5h64q18 0 24.5 -3.5t15.5 -11.5l123 -114q9 -8 8 -13.5t-9 -13.5
l-33 -35q-8 -8 -13 -6.5t-15 8.5l-135 87z" />
    <glyph glyph-name="Otilde" unicode="&#xd5;" horiz-adv-x="689" 
d="M631 341q0 -57 -8.5 -118.5t-38.5 -113t-87.5 -85t-155.5 -33.5q-65 0 -111.5 15.5t-78 41.5t-50 61t-28.5 74t-13 79.5t-3 78.5q0 29 3.5 65.5t14 73t29.5 71.5t50.5 62t77.5 43.5t110 16.5q94 0 150.5 -29.5t87.5 -77t41 -107t10 -118.5zM468 330q0 107 -26.5 156.5
t-98.5 49.5q-67 0 -92.5 -50.5t-25.5 -155.5q0 -101 24.5 -151.5t93.5 -50.5q71 0 98 49.5t27 152.5zM430 694q-17 0 -38.5 7.5t-43.5 16.5t-42.5 16.5t-36.5 7.5q-12 0 -27 -6.5t-32 -30.5q-5 -8 -9 -9.5t-16 4.5l-38 17q-3 2 -7.5 7.5t-0.5 15.5q24 62 59 87.5t70 25.5
q21 0 43 -7.5t43 -17t40.5 -17t34.5 -7.5q33 0 56 38q5 8 10.5 8.5t16.5 -4.5l37 -20q14 -7 9 -23q-26 -63 -58 -86t-70 -23z" />
    <glyph glyph-name="Odieresis" unicode="&#xd6;" horiz-adv-x="689" 
d="M631 341q0 -57 -8.5 -118.5t-38.5 -113t-87.5 -85t-155.5 -33.5q-65 0 -111.5 15.5t-78 41.5t-50 61t-28.5 74t-13 79.5t-3 78.5q0 29 3.5 65.5t14 73t29.5 71.5t50.5 62t77.5 43.5t110 16.5q94 0 150.5 -29.5t87.5 -77t41 -107t10 -118.5zM468 330q0 107 -26.5 156.5
t-98.5 49.5q-67 0 -92.5 -50.5t-25.5 -155.5q0 -101 24.5 -151.5t93.5 -50.5q71 0 98 49.5t27 152.5zM242 694q-25 0 -39.5 6t-22 15.5t-9.5 22.5t-2 27q0 29 14 48.5t59 19.5q46 0 60 -18.5t14 -49.5q0 -14 -2.5 -27t-10.5 -23t-22.5 -15.5t-38.5 -5.5zM448 694
q-25 0 -39.5 6t-22 15.5t-10 22.5t-2.5 27q0 29 14.5 48.5t59.5 19.5q46 0 59.5 -18.5t13.5 -49.5q0 -14 -2.5 -27t-10.5 -23t-22 -15.5t-38 -5.5z" />
    <glyph glyph-name="Ugrave" unicode="&#xd9;" horiz-adv-x="656" 
d="M327 128q51 0 78 30t27 93l-1 391q0 10 5 16.5t18 6.5h115q14 0 17.5 -7.5t3.5 -15.5l-1 -395q0 -29 -3.5 -58.5t-15.5 -60.5q-15 -37 -40.5 -63t-58 -42.5t-69.5 -24t-75 -7.5q-63 -1 -111.5 17.5t-81.5 52.5t-50 81.5t-17 104.5v395q0 10 4.5 16.5t17.5 6.5h115
q14 0 17.5 -7.5t3.5 -15.5v-391q0 -123 102 -123zM222 886q5 5 12 7.5t17 -5.5l151 -123q9 -7 8.5 -12.5t-5.5 -10.5l-37 -47q-7 -8 -13.5 -7t-13.5 5l-167 95q-10 5 -12 13t5 16z" />
    <glyph glyph-name="Uacute" unicode="&#xda;" horiz-adv-x="656" 
d="M327 128q51 0 78 30t27 93l-1 391q0 10 5 16.5t18 6.5h115q14 0 17.5 -7.5t3.5 -15.5l-1 -395q0 -29 -3.5 -58.5t-15.5 -60.5q-15 -37 -40.5 -63t-58 -42.5t-69.5 -24t-75 -7.5q-63 -1 -111.5 17.5t-81.5 52.5t-50 81.5t-17 104.5v395q0 10 4.5 16.5t17.5 6.5h115
q14 0 17.5 -7.5t3.5 -15.5v-391q0 -123 102 -123zM510 805q13 -19 -9 -29l-176 -77q-8 -3 -14 -3t-12 8l-33 50q-4 6 -4 12t10 12l163 107q11 7 18 4t11 -10z" />
    <glyph glyph-name="Ucircumflex" unicode="&#xdb;" horiz-adv-x="656" 
d="M327 128q51 0 78 30t27 93l-1 391q0 10 5 16.5t18 6.5h115q14 0 17.5 -7.5t3.5 -15.5l-1 -395q0 -29 -3.5 -58.5t-15.5 -60.5q-15 -37 -40.5 -63t-58 -42.5t-69.5 -24t-75 -7.5q-63 -1 -111.5 17.5t-81.5 52.5t-50 81.5t-17 104.5v395q0 10 4.5 16.5t17.5 6.5h115
q14 0 17.5 -7.5t3.5 -15.5v-391q0 -123 102 -123zM198 693q-10 -8 -15.5 -8.5t-13.5 7.5l-32 34q-8 8 -8.5 12.5t7.5 14.5l123 112q9 8 15.5 13t23.5 5h64q18 0 24.5 -3.5t15.5 -11.5l123 -114q9 -8 8 -13.5t-9 -13.5l-33 -35q-8 -8 -13 -6.5t-15 8.5l-135 87z" />
    <glyph glyph-name="Udieresis" unicode="&#xdc;" horiz-adv-x="656" 
d="M327 128q51 0 78 30t27 93l-1 391q0 10 5 16.5t18 6.5h115q14 0 17.5 -7.5t3.5 -15.5l-1 -395q0 -29 -3.5 -58.5t-15.5 -60.5q-15 -37 -40.5 -63t-58 -42.5t-69.5 -24t-75 -7.5q-63 -1 -111.5 17.5t-81.5 52.5t-50 81.5t-17 104.5v395q0 10 4.5 16.5t17.5 6.5h115
q14 0 17.5 -7.5t3.5 -15.5v-391q0 -123 102 -123zM222 694q-25 0 -39.5 6t-22 15.5t-9.5 22.5t-2 27q0 29 14 48.5t59 19.5q46 0 60 -18.5t14 -49.5q0 -14 -2.5 -27t-10.5 -23t-22.5 -15.5t-38.5 -5.5zM428 694q-25 0 -39.5 6t-22 15.5t-10 22.5t-2.5 27q0 29 14.5 48.5
t59.5 19.5q46 0 59.5 -18.5t13.5 -49.5q0 -14 -2.5 -27t-10.5 -23t-22 -15.5t-38 -5.5z" />
    <glyph glyph-name="Yacute" unicode="&#xdd;" horiz-adv-x="629" 
d="M228 244l-215 396q-5 10 -2 17.5t14 7.5h119q17 0 24 -5t15 -19l66 -131l59 -120h6l62 121l64 123q8 15 15 23t24 8h120q12 0 15 -7t-2 -15l-226 -399v-222q0 -8 -3.5 -15t-16.5 -7h-116q-22 0 -22 22v222zM490 805q13 -19 -9 -29l-176 -77q-8 -3 -14 -3t-12 8l-33 50
q-4 6 -4 12t10 12l163 107q11 7 18 4t11 -10z" />
    <glyph glyph-name="agrave" unicode="&#xe0;" horiz-adv-x="573" 
d="M343 208h-90q-28 0 -44 -13t-16 -48q0 -23 9.5 -32t35.5 -9q23 0 53.5 11t51.5 24v67zM358 60q-20 -18 -43 -31t-47 -21.5t-47 -12t-42 -3.5q-44 0 -71.5 12.5t-42.5 32.5t-20.5 46.5t-5.5 55.5q-1 46 12.5 78t38.5 51.5t61 28t80 8.5h115v16q0 16 -3.5 27t-13 18
t-26.5 10.5t-45 3.5q-11 0 -27.5 -1l-34.5 -2t-36 -3t-33 -3q-21 -2 -27.5 0t-10.5 17l-11 52q-2 13 3.5 21.5t28.5 17.5q17 6 39.5 10.5t46 7.5t46.5 4.5t40 1.5q70 0 112.5 -13t65 -37t29.5 -59t7 -80v-158q0 -16 1.5 -25t5.5 -13.5t11 -6.5t19 -3q13 -1 17 -4.5t4 -12.5
v-64q0 -20 -29 -26q-28 -7 -62 -7q-37 0 -65 12.5t-38 52.5zM229 769q7 4 14 4.5t15 -10.5l111 -159q7 -9 4.5 -14.5t-7.5 -9.5l-47 -37q-7 -6 -13.5 -3.5t-11.5 7.5l-136 139q-16 18 2 30z" />
    <glyph glyph-name="aacute" unicode="&#xe1;" horiz-adv-x="573" 
d="M343 208h-90q-28 0 -44 -13t-16 -48q0 -23 9.5 -32t35.5 -9q23 0 53.5 11t51.5 24v67zM358 60q-20 -18 -43 -31t-47 -21.5t-47 -12t-42 -3.5q-44 0 -71.5 12.5t-42.5 32.5t-20.5 46.5t-5.5 55.5q-1 46 12.5 78t38.5 51.5t61 28t80 8.5h115v16q0 16 -3.5 27t-13 18
t-26.5 10.5t-45 3.5q-11 0 -27.5 -1l-34.5 -2t-36 -3t-33 -3q-21 -2 -27.5 0t-10.5 17l-11 52q-2 13 3.5 21.5t28.5 17.5q17 6 39.5 10.5t46 7.5t46.5 4.5t40 1.5q70 0 112.5 -13t65 -37t29.5 -59t7 -80v-158q0 -16 1.5 -25t5.5 -13.5t11 -6.5t19 -3q13 -1 17 -4.5t4 -12.5
v-64q0 -20 -29 -26q-28 -7 -62 -7q-37 0 -65 12.5t-38 52.5zM428 729q21 -11 5 -30l-118 -151q-5 -7 -10.5 -10.5t-14.5 1.5l-52 28q-7 4 -9.5 9t2.5 15l93 172q6 11 13.5 12t14.5 -3z" />
    <glyph glyph-name="acircumflex" unicode="&#xe2;" horiz-adv-x="573" 
d="M343 208h-90q-28 0 -44 -13t-16 -48q0 -23 9.5 -32t35.5 -9q23 0 53.5 11t51.5 24v67zM358 60q-20 -18 -43 -31t-47 -21.5t-47 -12t-42 -3.5q-44 0 -71.5 12.5t-42.5 32.5t-20.5 46.5t-5.5 55.5q-1 46 12.5 78t38.5 51.5t61 28t80 8.5h115v16q0 16 -3.5 27t-13 18
t-26.5 10.5t-45 3.5q-11 0 -27.5 -1l-34.5 -2t-36 -3t-33 -3q-21 -2 -27.5 0t-10.5 17l-11 52q-2 13 3.5 21.5t28.5 17.5q17 6 39.5 10.5t46 7.5t46.5 4.5t40 1.5q70 0 112.5 -13t65 -37t29.5 -59t7 -80v-158q0 -16 1.5 -25t5.5 -13.5t11 -6.5t19 -3q13 -1 17 -4.5t4 -12.5
v-64q0 -20 -29 -26q-28 -7 -62 -7q-37 0 -65 12.5t-38 52.5zM148 531q-10 -8 -15.5 -9t-13.5 7l-35 34q-8 7 -8 12t8 14l121 133q8 9 15 13.5t25 4.5h64q19 0 25 -3.5t14 -11.5l122 -137q8 -9 8 -14t-8 -12l-35 -33q-9 -8 -14.5 -7t-14.5 8l-132 102z" />
    <glyph glyph-name="atilde" unicode="&#xe3;" horiz-adv-x="573" 
d="M343 208h-90q-28 0 -44 -13t-16 -48q0 -23 9.5 -32t35.5 -9q23 0 53.5 11t51.5 24v67zM358 60q-20 -18 -43 -31t-47 -21.5t-47 -12t-42 -3.5q-44 0 -71.5 12.5t-42.5 32.5t-20.5 46.5t-5.5 55.5q-1 46 12.5 78t38.5 51.5t61 28t80 8.5h115v16q0 16 -3.5 27t-13 18
t-26.5 10.5t-45 3.5q-11 0 -27.5 -1l-34.5 -2t-36 -3t-33 -3q-21 -2 -27.5 0t-10.5 17l-11 52q-2 13 3.5 21.5t28.5 17.5q17 6 39.5 10.5t46 7.5t46.5 4.5t40 1.5q70 0 112.5 -13t65 -37t29.5 -59t7 -80v-158q0 -16 1.5 -25t5.5 -13.5t11 -6.5t19 -3q13 -1 17 -4.5t4 -12.5
v-64q0 -20 -29 -26q-28 -7 -62 -7q-37 0 -65 12.5t-38 52.5zM372 544q-17 0 -38.5 7.5t-43.5 16.5t-42.5 16.5t-36.5 7.5q-12 0 -27 -6.5t-32 -30.5q-5 -8 -9 -9.5t-16 4.5l-38 17q-3 2 -7.5 7.5t-0.5 15.5q24 62 59 87.5t70 25.5q21 0 43 -7.5t43 -17t40.5 -17t34.5 -7.5
q33 0 56 38q5 8 10.5 8.5t16.5 -4.5l37 -20q14 -7 9 -23q-26 -63 -58 -86t-70 -23z" />
    <glyph glyph-name="adieresis" unicode="&#xe4;" horiz-adv-x="573" 
d="M343 208h-90q-28 0 -44 -13t-16 -48q0 -23 9.5 -32t35.5 -9q23 0 53.5 11t51.5 24v67zM358 60q-20 -18 -43 -31t-47 -21.5t-47 -12t-42 -3.5q-44 0 -71.5 12.5t-42.5 32.5t-20.5 46.5t-5.5 55.5q-1 46 12.5 78t38.5 51.5t61 28t80 8.5h115v16q0 16 -3.5 27t-13 18
t-26.5 10.5t-45 3.5q-11 0 -27.5 -1l-34.5 -2t-36 -3t-33 -3q-21 -2 -27.5 0t-10.5 17l-11 52q-2 13 3.5 21.5t28.5 17.5q17 6 39.5 10.5t46 7.5t46.5 4.5t40 1.5q70 0 112.5 -13t65 -37t29.5 -59t7 -80v-158q0 -16 1.5 -25t5.5 -13.5t11 -6.5t19 -3q13 -1 17 -4.5t4 -12.5
v-64q0 -20 -29 -26q-28 -7 -62 -7q-37 0 -65 12.5t-38 52.5zM183 546q-25 0 -39.5 6t-22 15.5t-9.5 22.5t-2 27q0 29 14 48.5t59 19.5q46 0 60 -18.5t14 -49.5q0 -14 -2.5 -27t-10.5 -23t-22.5 -15.5t-38.5 -5.5zM392 546q-24 0 -38.5 6t-22 15.5t-10 22.5t-2.5 27
q0 29 14.5 48.5t58.5 19.5q47 0 60.5 -18.5t13.5 -49.5q0 -14 -2.5 -27t-10.5 -23t-22.5 -15.5t-38.5 -5.5z" />
    <glyph glyph-name="aring" unicode="&#xe5;" horiz-adv-x="573" 
d="M343 208h-90q-28 0 -44 -13t-16 -48q0 -23 9.5 -32t35.5 -9q23 0 53.5 11t51.5 24v67zM358 60q-20 -18 -43 -31t-47 -21.5t-47 -12t-42 -3.5q-44 0 -71.5 12.5t-42.5 32.5t-20.5 46.5t-5.5 55.5q-1 46 12.5 78t38.5 51.5t61 28t80 8.5h115v16q0 16 -3.5 27t-13 18
t-26.5 10.5t-45 3.5q-11 0 -27.5 -1l-34.5 -2t-36 -3t-33 -3q-21 -2 -27.5 0t-10.5 17l-11 52q-2 13 3.5 21.5t28.5 17.5q17 6 39.5 10.5t46 7.5t46.5 4.5t40 1.5q70 0 112.5 -13t65 -37t29.5 -59t7 -80v-158q0 -16 1.5 -25t5.5 -13.5t11 -6.5t19 -3q13 -1 17 -4.5t4 -12.5
v-64q0 -20 -29 -26q-28 -7 -62 -7q-37 0 -65 12.5t-38 52.5zM292 530q-25 0 -48 9t-41 25t-28.5 38.5t-10.5 49.5t10.5 49t28.5 38t41 25t48 9t48 -10t39.5 -26.5t26.5 -38.5t10 -46q0 -25 -10 -47.5t-26.5 -39t-39.5 -26t-48 -9.5zM292 699q-19 0 -32.5 -14t-13.5 -33
q0 -22 13 -35t33 -13q18 0 31 14t13 34q0 19 -13 33t-31 14z" />
    <glyph glyph-name="ccedilla" unicode="&#xe7;" horiz-adv-x="478" 
d="M281 -127q0 21 -17.5 24.5t-55.5 5.5q-23 2 -15 24l24 68q-57 8 -91.5 32t-53.5 58.5t-25 77t-6 86.5q0 45 8.5 90.5t33 82t69.5 59t119 22.5q40 0 82.5 -5.5t74.5 -19.5q25 -10 21 -37l-11 -61q-4 -16 -10.5 -17.5t-27.5 0.5q-30 3 -57 5t-51 2q-51 0 -73 -28.5
t-22 -89.5q0 -73 20.5 -100.5t72.5 -27.5q21 0 54.5 2t65.5 6q16 2 21.5 0t8.5 -18l10 -55q4 -17 0 -26.5t-26 -18.5q-29 -10 -69.5 -16t-75.5 -7l-15 -39q33 -1 53.5 -8t32 -18.5t15 -25t3.5 -28.5q0 -45 -33 -75t-104 -30q-8 0 -18.5 0.5t-22.5 2t-23.5 4t-20.5 5.5
q-11 4 -9 12l9 41q1 7 12 6q15 -2 33 -4t31 -2q23 0 41 7t18 34z" />
    <glyph glyph-name="egrave" unicode="&#xe8;" horiz-adv-x="533" 
d="M198 211q1 -29 9 -47t21.5 -28.5t33 -14t44.5 -3.5q23 0 55 3t63 7q20 2 25 -0.5t9 -21.5l8 -47q3 -17 0 -26.5t-26 -18.5q-15 -5 -35.5 -9.5t-42 -7.5t-43.5 -4.5t-40 -1.5q-75 0 -121.5 21t-72 55.5t-34.5 80t-9 95.5q0 36 6 81t29 85t68.5 67t124.5 27q72 0 116 -20.5
t68.5 -53.5t33.5 -73.5t9 -80.5q0 -31 -11.5 -47.5t-43.5 -16.5h-244zM270 386q-35 0 -51.5 -21.5t-18.5 -63.5h139q0 36 -15 60.5t-54 24.5zM211 769q7 4 14 4.5t15 -10.5l111 -159q7 -9 4.5 -14.5t-7.5 -9.5l-47 -37q-7 -6 -13.5 -3.5t-11.5 7.5l-136 139q-16 18 2 30z
" />
    <glyph glyph-name="eacute" unicode="&#xe9;" horiz-adv-x="533" 
d="M198 211q1 -29 9 -47t21.5 -28.5t33 -14t44.5 -3.5q23 0 55 3t63 7q20 2 25 -0.5t9 -21.5l8 -47q3 -17 0 -26.5t-26 -18.5q-15 -5 -35.5 -9.5t-42 -7.5t-43.5 -4.5t-40 -1.5q-75 0 -121.5 21t-72 55.5t-34.5 80t-9 95.5q0 36 6 81t29 85t68.5 67t124.5 27q72 0 116 -20.5
t68.5 -53.5t33.5 -73.5t9 -80.5q0 -31 -11.5 -47.5t-43.5 -16.5h-244zM270 386q-35 0 -51.5 -21.5t-18.5 -63.5h139q0 36 -15 60.5t-54 24.5zM415 729q21 -11 5 -30l-118 -151q-5 -7 -10.5 -10.5t-14.5 1.5l-52 28q-7 4 -9.5 9t2.5 15l93 172q6 11 13.5 12t14.5 -3z" />
    <glyph glyph-name="ecircumflex" unicode="&#xea;" horiz-adv-x="533" 
d="M198 211q1 -29 9 -47t21.5 -28.5t33 -14t44.5 -3.5q23 0 55 3t63 7q20 2 25 -0.5t9 -21.5l8 -47q3 -17 0 -26.5t-26 -18.5q-15 -5 -35.5 -9.5t-42 -7.5t-43.5 -4.5t-40 -1.5q-75 0 -121.5 21t-72 55.5t-34.5 80t-9 95.5q0 36 6 81t29 85t68.5 67t124.5 27q72 0 116 -20.5
t68.5 -53.5t33.5 -73.5t9 -80.5q0 -31 -11.5 -47.5t-43.5 -16.5h-244zM270 386q-35 0 -51.5 -21.5t-18.5 -63.5h139q0 36 -15 60.5t-54 24.5zM143 531q-10 -8 -15.5 -9t-13.5 7l-35 34q-8 7 -8 12t8 14l121 133q8 9 15 13.5t25 4.5h64q19 0 25 -3.5t14 -11.5l122 -137
q8 -9 8 -14t-8 -12l-35 -33q-9 -8 -14.5 -7t-14.5 8l-132 102z" />
    <glyph glyph-name="edieresis" unicode="&#xeb;" horiz-adv-x="533" 
d="M198 211q1 -29 9 -47t21.5 -28.5t33 -14t44.5 -3.5q23 0 55 3t63 7q20 2 25 -0.5t9 -21.5l8 -47q3 -17 0 -26.5t-26 -18.5q-15 -5 -35.5 -9.5t-42 -7.5t-43.5 -4.5t-40 -1.5q-75 0 -121.5 21t-72 55.5t-34.5 80t-9 95.5q0 36 6 81t29 85t68.5 67t124.5 27q72 0 116 -20.5
t68.5 -53.5t33.5 -73.5t9 -80.5q0 -31 -11.5 -47.5t-43.5 -16.5h-244zM270 386q-35 0 -51.5 -21.5t-18.5 -63.5h139q0 36 -15 60.5t-54 24.5zM169 546q-25 0 -39.5 6t-22 15.5t-9.5 22.5t-2 27q0 29 14 48.5t59 19.5q46 0 60 -18.5t14 -49.5q0 -14 -2.5 -27t-10.5 -23
t-22.5 -15.5t-38.5 -5.5zM378 546q-24 0 -38.5 6t-22 15.5t-10 22.5t-2.5 27q0 29 14.5 48.5t58.5 19.5q47 0 60.5 -18.5t13.5 -49.5q0 -14 -2.5 -27t-10.5 -23t-22.5 -15.5t-38.5 -5.5z" />
    <glyph glyph-name="igrave" unicode="&#xec;" horiz-adv-x="268" 
d="M210 22q0 -8 -3.5 -15t-17.5 -7h-109q-13 0 -17.5 6t-4.5 16v450q0 11 4.5 16.5t17.5 5.5h109q14 0 17.5 -7.5t3.5 -14.5v-450zM53 769q7 4 14 4.5t15 -10.5l111 -159q7 -9 4.5 -14.5t-7.5 -9.5l-47 -37q-7 -6 -13.5 -3.5t-11.5 7.5l-136 139q-16 18 2 30z" />
    <glyph glyph-name="iacute" unicode="&#xed;" horiz-adv-x="268" 
d="M210 22q0 -8 -3.5 -15t-17.5 -7h-109q-13 0 -17.5 6t-4.5 16v450q0 11 4.5 16.5t17.5 5.5h109q14 0 17.5 -7.5t3.5 -14.5v-450zM294 729q21 -11 5 -30l-118 -151q-5 -7 -10.5 -10.5t-14.5 1.5l-52 28q-7 4 -9.5 9t2.5 15l93 172q6 11 13.5 12t14.5 -3z" />
    <glyph glyph-name="icircumflex" unicode="&#xee;" horiz-adv-x="392" 
d="M268 22q0 -8 -3.5 -15t-17.5 -7h-109q-13 0 -17.5 6t-4.5 16v450q0 11 4.5 16.5t17.5 5.5h109q14 0 17.5 -7.5t3.5 -14.5v-450zM67 531q-10 -8 -15.5 -9t-13.5 7l-35 34q-8 7 -8 12t8 14l121 133q8 9 15 13.5t25 4.5h64q19 0 25 -3.5t14 -11.5l122 -137q8 -9 8 -14
t-8 -12l-35 -33q-9 -8 -14.5 -7t-14.5 8l-132 102z" />
    <glyph glyph-name="idieresis" unicode="&#xef;" horiz-adv-x="346" 
d="M248 22q0 -8 -3.5 -15t-17.5 -7h-109q-13 0 -17.5 6t-4.5 16v450q0 11 4.5 16.5t17.5 5.5h109q14 0 17.5 -7.5t3.5 -14.5v-450zM68 546q-25 0 -39.5 6t-22 15.5t-9.5 22.5t-2 27q0 29 14 48.5t59 19.5q46 0 60 -18.5t14 -49.5q0 -14 -2.5 -27t-10.5 -23t-22.5 -15.5
t-38.5 -5.5zM277 546q-24 0 -38.5 6t-22 15.5t-10 22.5t-2.5 27q0 29 14.5 48.5t58.5 19.5q47 0 60.5 -18.5t13.5 -49.5q0 -14 -2.5 -27t-10.5 -23t-22.5 -15.5t-38.5 -5.5z" />
    <glyph glyph-name="ntilde" unicode="&#xf1;" horiz-adv-x="558" 
d="M510 21q0 -8 -3.5 -14.5t-17.5 -6.5h-110q-22 0 -22 21q0 66 0.5 131t0.5 131q0 42 -14.5 59.5t-46.5 17.5q-24 0 -52 -11.5t-46 -17.5v-310q0 -8 -3.5 -14.5t-17.5 -6.5h-109q-13 0 -17.5 5.5t-4.5 15.5v450q0 10 4.5 16t17.5 6h109q14 0 17.5 -7t3.5 -15v-24
q1 0 1.5 -0.5t1.5 -0.5q33 25 77 40.5t80 15.5q53 0 83.5 -17.5t45.5 -46t18.5 -63.5t3.5 -70v-284zM350 544q-17 0 -38.5 7.5t-43.5 16.5t-42.5 16.5t-36.5 7.5q-12 0 -27 -6.5t-32 -30.5q-5 -8 -9 -9.5t-16 4.5l-38 17q-3 2 -7.5 7.5t-0.5 15.5q24 62 59 87.5t70 25.5
q21 0 43 -7.5t43 -17t40.5 -17t34.5 -7.5q33 0 56 38q5 8 10.5 8.5t16.5 -4.5l37 -20q14 -7 9 -23q-26 -63 -58 -86t-70 -23z" />
    <glyph glyph-name="ograve" unicode="&#xf2;" horiz-adv-x="549" 
d="M508 254q0 -41 -6 -87t-30 -85t-71.5 -64.5t-129.5 -25.5q-81 0 -126.5 25.5t-68.5 64.5t-28.5 85t-5.5 87q0 34 7 77t30.5 81.5t69 64.5t122.5 26t124 -22.5t72 -58.5t33 -80.5t8 -87.5zM352 248q0 63 -14.5 94t-64.5 31q-46 0 -61.5 -32t-15.5 -93q0 -66 15 -96t60 -30
q50 0 65.5 31t15.5 95zM206 769q7 4 14 4.5t15 -10.5l111 -159q7 -9 4.5 -14.5t-7.5 -9.5l-47 -37q-7 -6 -13.5 -3.5t-11.5 7.5l-136 139q-16 18 2 30z" />
    <glyph glyph-name="oacute" unicode="&#xf3;" horiz-adv-x="549" 
d="M508 254q0 -41 -6 -87t-30 -85t-71.5 -64.5t-129.5 -25.5q-81 0 -126.5 25.5t-68.5 64.5t-28.5 85t-5.5 87q0 34 7 77t30.5 81.5t69 64.5t122.5 26t124 -22.5t72 -58.5t33 -80.5t8 -87.5zM352 248q0 63 -14.5 94t-64.5 31q-46 0 -61.5 -32t-15.5 -93q0 -66 15 -96t60 -30
q50 0 65.5 31t15.5 95zM420 729q21 -11 5 -30l-118 -151q-5 -7 -10.5 -10.5t-14.5 1.5l-52 28q-7 4 -9.5 9t2.5 15l93 172q6 11 13.5 12t14.5 -3z" />
    <glyph glyph-name="ocircumflex" unicode="&#xf4;" horiz-adv-x="549" 
d="M508 254q0 -41 -6 -87t-30 -85t-71.5 -64.5t-129.5 -25.5q-81 0 -126.5 25.5t-68.5 64.5t-28.5 85t-5.5 87q0 34 7 77t30.5 81.5t69 64.5t122.5 26t124 -22.5t72 -58.5t33 -80.5t8 -87.5zM352 248q0 63 -14.5 94t-64.5 31q-46 0 -61.5 -32t-15.5 -93q0 -66 15 -96t60 -30
q50 0 65.5 31t15.5 95zM147 531q-10 -8 -15.5 -9t-13.5 7l-35 34q-8 7 -8 12t8 14l121 133q8 9 15 13.5t25 4.5h64q19 0 25 -3.5t14 -11.5l122 -137q8 -9 8 -14t-8 -12l-35 -33q-9 -8 -14.5 -7t-14.5 8l-132 102z" />
    <glyph glyph-name="otilde" unicode="&#xf5;" horiz-adv-x="549" 
d="M508 254q0 -41 -6 -87t-30 -85t-71.5 -64.5t-129.5 -25.5q-81 0 -126.5 25.5t-68.5 64.5t-28.5 85t-5.5 87q0 34 7 77t30.5 81.5t69 64.5t122.5 26t124 -22.5t72 -58.5t33 -80.5t8 -87.5zM352 248q0 63 -14.5 94t-64.5 31q-46 0 -61.5 -32t-15.5 -93q0 -66 15 -96t60 -30
q50 0 65.5 31t15.5 95zM359 544q-17 0 -38.5 7.5t-43.5 16.5t-42.5 16.5t-36.5 7.5q-12 0 -27 -6.5t-32 -30.5q-5 -8 -9 -9.5t-16 4.5l-38 17q-3 2 -7.5 7.5t-0.5 15.5q24 62 59 87.5t70 25.5q21 0 43 -7.5t43 -17t40.5 -17t34.5 -7.5q33 0 56 38q5 8 10.5 8.5t16.5 -4.5
l37 -20q14 -7 9 -23q-26 -63 -58 -86t-70 -23z" />
    <glyph glyph-name="odieresis" unicode="&#xf6;" horiz-adv-x="549" 
d="M508 254q0 -41 -6 -87t-30 -85t-71.5 -64.5t-129.5 -25.5q-81 0 -126.5 25.5t-68.5 64.5t-28.5 85t-5.5 87q0 34 7 77t30.5 81.5t69 64.5t122.5 26t124 -22.5t72 -58.5t33 -80.5t8 -87.5zM352 248q0 63 -14.5 94t-64.5 31q-46 0 -61.5 -32t-15.5 -93q0 -66 15 -96t60 -30
q50 0 65.5 31t15.5 95zM173 546q-25 0 -39.5 6t-22 15.5t-9.5 22.5t-2 27q0 29 14 48.5t59 19.5q46 0 60 -18.5t14 -49.5q0 -14 -2.5 -27t-10.5 -23t-22.5 -15.5t-38.5 -5.5zM382 546q-24 0 -38.5 6t-22 15.5t-10 22.5t-2.5 27q0 29 14.5 48.5t58.5 19.5q47 0 60.5 -18.5
t13.5 -49.5q0 -14 -2.5 -27t-10.5 -23t-22.5 -15.5t-38.5 -5.5z" />
    <glyph glyph-name="ugrave" unicode="&#xf9;" horiz-adv-x="555" 
d="M506 21q0 -10 -4.5 -15.5t-17.5 -5.5h-110q-14 0 -17.5 6.5t-3.5 14.5v25q-1 0 -1 0.5t-1 0.5q-34 -26 -77.5 -40.5t-79.5 -14.5q-53 0 -82.5 16t-44 42.5t-18 61t-3.5 72.5v287q0 8 3.5 15t17.5 7h110q12 0 16.5 -6t4.5 -16v-262q0 -38 13.5 -57.5t47.5 -19.5
q12 0 25 3.5t25.5 8t24 9.5t19.5 8v310q0 8 3.5 15t17.5 7h110q13 0 17.5 -6t4.5 -16v-450zM204 769q7 4 14 4.5t15 -10.5l111 -159q7 -9 4.5 -14.5t-7.5 -9.5l-47 -37q-7 -6 -13.5 -3.5t-11.5 7.5l-136 139q-16 18 2 30z" />
    <glyph glyph-name="uacute" unicode="&#xfa;" horiz-adv-x="555" 
d="M506 21q0 -10 -4.5 -15.5t-17.5 -5.5h-110q-14 0 -17.5 6.5t-3.5 14.5v25q-1 0 -1 0.5t-1 0.5q-34 -26 -77.5 -40.5t-79.5 -14.5q-53 0 -82.5 16t-44 42.5t-18 61t-3.5 72.5v287q0 8 3.5 15t17.5 7h110q12 0 16.5 -6t4.5 -16v-262q0 -38 13.5 -57.5t47.5 -19.5
q12 0 25 3.5t25.5 8t24 9.5t19.5 8v310q0 8 3.5 15t17.5 7h110q13 0 17.5 -6t4.5 -16v-450zM413 729q21 -11 5 -30l-118 -151q-5 -7 -10.5 -10.5t-14.5 1.5l-52 28q-7 4 -9.5 9t2.5 15l93 172q6 11 13.5 12t14.5 -3z" />
    <glyph glyph-name="ucircumflex" unicode="&#xfb;" horiz-adv-x="555" 
d="M506 21q0 -10 -4.5 -15.5t-17.5 -5.5h-110q-14 0 -17.5 6.5t-3.5 14.5v25q-1 0 -1 0.5t-1 0.5q-34 -26 -77.5 -40.5t-79.5 -14.5q-53 0 -82.5 16t-44 42.5t-18 61t-3.5 72.5v287q0 8 3.5 15t17.5 7h110q12 0 16.5 -6t4.5 -16v-262q0 -38 13.5 -57.5t47.5 -19.5
q12 0 25 3.5t25.5 8t24 9.5t19.5 8v310q0 8 3.5 15t17.5 7h110q13 0 17.5 -6t4.5 -16v-450zM147 531q-10 -8 -15.5 -9t-13.5 7l-35 34q-8 7 -8 12t8 14l121 133q8 9 15 13.5t25 4.5h64q19 0 25 -3.5t14 -11.5l122 -137q8 -9 8 -14t-8 -12l-35 -33q-9 -8 -14.5 -7t-14.5 8
l-132 102z" />
    <glyph glyph-name="udieresis" unicode="&#xfc;" horiz-adv-x="555" 
d="M506 21q0 -10 -4.5 -15.5t-17.5 -5.5h-110q-14 0 -17.5 6.5t-3.5 14.5v25q-1 0 -1 0.5t-1 0.5q-34 -26 -77.5 -40.5t-79.5 -14.5q-53 0 -82.5 16t-44 42.5t-18 61t-3.5 72.5v287q0 8 3.5 15t17.5 7h110q12 0 16.5 -6t4.5 -16v-262q0 -38 13.5 -57.5t47.5 -19.5
q12 0 25 3.5t25.5 8t24 9.5t19.5 8v310q0 8 3.5 15t17.5 7h110q13 0 17.5 -6t4.5 -16v-450zM177 546q-25 0 -39.5 6t-22 15.5t-9.5 22.5t-2 27q0 29 14 48.5t59 19.5q46 0 60 -18.5t14 -49.5q0 -14 -2.5 -27t-10.5 -23t-22.5 -15.5t-38.5 -5.5zM386 546q-24 0 -38.5 6
t-22 15.5t-10 22.5t-2.5 27q0 29 14.5 48.5t58.5 19.5q47 0 60.5 -18.5t13.5 -49.5q0 -14 -2.5 -27t-10.5 -23t-22.5 -15.5t-38.5 -5.5z" />
    <glyph glyph-name="yacute" unicode="&#xfd;" horiz-adv-x="522" 
d="M263 191q5 14 12.5 37l15.5 46q9 26 18 56q11 32 23 72t23 71q4 11 10 16t24 5h100q17 0 19 -7t-3 -19l-238 -640q-5 -14 -12 -18.5t-24 -4.5h-96q-15 0 -18.5 5.5t2.5 19.5l68 183l-173 456q-10 25 16 25h107q14 0 20.5 -3t11.5 -18l47 -145l42 -137h5zM404 729
q21 -11 5 -30l-118 -151q-5 -7 -10.5 -10.5t-14.5 1.5l-52 28q-7 4 -9.5 9t2.5 15l93 172q6 11 13.5 12t14.5 -3z" />
    <glyph glyph-name="ydieresis" unicode="&#xff;" horiz-adv-x="522" 
d="M263 191q5 14 12.5 37l15.5 46q9 26 18 56q11 32 23 72t23 71q4 11 10 16t24 5h100q17 0 19 -7t-3 -19l-238 -640q-5 -14 -12 -18.5t-24 -4.5h-96q-15 0 -18.5 5.5t2.5 19.5l68 183l-173 456q-10 25 16 25h107q14 0 20.5 -3t11.5 -18l47 -145l42 -137h5zM158 546
q-25 0 -39.5 6t-22 15.5t-9.5 22.5t-2 27q0 29 14 48.5t59 19.5q46 0 60 -18.5t14 -49.5q0 -14 -2.5 -27t-10.5 -23t-22.5 -15.5t-38.5 -5.5zM367 546q-24 0 -38.5 6t-22 15.5t-10 22.5t-2.5 27q0 29 14.5 48.5t58.5 19.5q47 0 60.5 -18.5t13.5 -49.5q0 -14 -2.5 -27
t-10.5 -23t-22.5 -15.5t-38.5 -5.5z" />
    <glyph glyph-name="Amacron" unicode="&#x100;" horiz-adv-x="618" 
d="M170 28q-5 -16 -13 -22t-22 -6h-111q-11 0 -15 4.5t1 21.5l193 610q5 14 12 21.5t27 7.5h126q21 0 27.5 -8t11.5 -22l201 -611q3 -12 1 -18t-13 -6h-124q-17 0 -23 7.5t-11 23.5l-33 119h-199zM340 382l-32 122h-5l-33 -121l-30 -111h130zM153 709q-21 0 -21 21v70
q0 21 21 21h304q12 0 16 -4.5t4 -15.5v-71q0 -11 -4 -16t-16 -5h-304z" />
    <glyph glyph-name="amacron" unicode="&#x101;" horiz-adv-x="573" 
d="M343 208h-90q-28 0 -44 -13t-16 -48q0 -23 9.5 -32t35.5 -9q23 0 53.5 11t51.5 24v67zM358 60q-20 -18 -43 -31t-47 -21.5t-47 -12t-42 -3.5q-44 0 -71.5 12.5t-42.5 32.5t-20.5 46.5t-5.5 55.5q-1 46 12.5 78t38.5 51.5t61 28t80 8.5h115v16q0 16 -3.5 27t-13 18
t-26.5 10.5t-45 3.5q-11 0 -27.5 -1l-34.5 -2t-36 -3t-33 -3q-21 -2 -27.5 0t-10.5 17l-11 52q-2 13 3.5 21.5t28.5 17.5q17 6 39.5 10.5t46 7.5t46.5 4.5t40 1.5q70 0 112.5 -13t65 -37t29.5 -59t7 -80v-158q0 -16 1.5 -25t5.5 -13.5t11 -6.5t19 -3q13 -1 17 -4.5t4 -12.5
v-64q0 -20 -29 -26q-28 -7 -62 -7q-37 0 -65 12.5t-38 52.5zM130 564q-21 0 -21 21v71q0 21 21 21h305q12 0 16 -5t4 -15v-72q0 -11 -4 -16t-16 -5h-305z" />
    <glyph glyph-name="Abreve" unicode="&#x102;" horiz-adv-x="618" 
d="M170 28q-5 -16 -13 -22t-22 -6h-111q-11 0 -15 4.5t1 21.5l193 610q5 14 12 21.5t27 7.5h126q21 0 27.5 -8t11.5 -22l201 -611q3 -12 1 -18t-13 -6h-124q-17 0 -23 7.5t-11 23.5l-33 119h-199zM340 382l-32 122h-5l-33 -121l-30 -111h130zM297 693q-29 0 -57 6t-53.5 19
t-47 33t-35.5 49q-6 13 -9 24t9 19l36 29q13 9 19 5.5t16 -14.5q28 -33 55.5 -48.5t64.5 -15.5q33 0 61.5 13t57.5 51q9 12 16.5 14t19.5 -6l35 -21q14 -9 11 -20.5t-11 -25.5q-31 -57 -79.5 -84t-108.5 -27z" />
    <glyph glyph-name="abreve" unicode="&#x103;" horiz-adv-x="573" 
d="M343 208h-90q-28 0 -44 -13t-16 -48q0 -23 9.5 -32t35.5 -9q23 0 53.5 11t51.5 24v67zM358 60q-20 -18 -43 -31t-47 -21.5t-47 -12t-42 -3.5q-44 0 -71.5 12.5t-42.5 32.5t-20.5 46.5t-5.5 55.5q-1 46 12.5 78t38.5 51.5t61 28t80 8.5h115v16q0 16 -3.5 27t-13 18
t-26.5 10.5t-45 3.5q-11 0 -27.5 -1l-34.5 -2t-36 -3t-33 -3q-21 -2 -27.5 0t-10.5 17l-11 52q-2 13 3.5 21.5t28.5 17.5q17 6 39.5 10.5t46 7.5t46.5 4.5t40 1.5q70 0 112.5 -13t65 -37t29.5 -59t7 -80v-158q0 -16 1.5 -25t5.5 -13.5t11 -6.5t19 -3q13 -1 17 -4.5t4 -12.5
v-64q0 -20 -29 -26q-28 -7 -62 -7q-37 0 -65 12.5t-38 52.5zM282 533q-28 0 -57 7.5t-54.5 22.5t-47 37t-34.5 52q-5 13 -8 23.5t8 19.5l36 29q14 9 20 5.5t16 -14.5q32 -38 58 -55t63 -17q33 0 59.5 15.5t58.5 56.5q9 11 16 13.5t19 -5.5l36 -22q14 -8 11 -19.5t-11 -26.5
q-31 -60 -80 -91t-109 -31z" />
    <glyph glyph-name="Cacute" unicode="&#x106;" horiz-adv-x="593" 
d="M58 329q0 61 11.5 122.5t43 110.5t88 79.5t147.5 30.5q47 0 97.5 -7.5t90.5 -24.5q15 -7 23 -15.5t4 -27.5l-13 -58q-3 -14 -9.5 -18t-24.5 -2q-42 5 -81.5 8t-71.5 3q-42 0 -68.5 -15.5t-41.5 -42.5t-20.5 -63t-5.5 -77q0 -47 5.5 -84.5t20.5 -63.5t41.5 -39.5
t67.5 -13.5t74.5 3t80.5 8q19 2 25 -1.5t10 -18.5l13 -53q5 -19 -2.5 -28.5t-22.5 -16.5q-19 -8 -42.5 -14.5t-49 -11t-51 -6.5t-48.5 -2q-90 0 -147 29.5t-89 77.5t-43.5 109t-11.5 123zM518 805q13 -19 -9 -29l-176 -77q-8 -3 -14 -3t-12 8l-33 50q-4 6 -4 12t10 12
l163 107q11 7 18 4t11 -10z" />
    <glyph glyph-name="cacute" unicode="&#x107;" horiz-adv-x="478" 
d="M450 59q4 -17 0 -26.5t-26 -18.5q-30 -11 -73.5 -17t-79.5 -6q-75 0 -120.5 22t-69.5 58t-32 82.5t-8 95.5q0 45 8.5 90.5t33 82t69.5 59t119 22.5q40 0 82.5 -5.5t74.5 -19.5q25 -10 21 -37l-11 -61q-4 -16 -10.5 -17.5t-27.5 0.5q-30 3 -57 5t-51 2q-51 0 -73 -28.5
t-22 -89.5q0 -73 20.5 -100.5t72.5 -27.5q21 0 54.5 2t65.5 6q16 2 21.5 0t8.5 -18zM380 729q21 -11 5 -30l-118 -151q-5 -7 -10.5 -10.5t-14.5 1.5l-52 28q-7 4 -9.5 9t2.5 15l93 172q6 11 13.5 12t14.5 -3z" />
    <glyph glyph-name="Ccircumflex" unicode="&#x108;" horiz-adv-x="593" 
d="M58 329q0 61 11.5 122.5t43 110.5t88 79.5t147.5 30.5q47 0 97.5 -7.5t90.5 -24.5q15 -7 23 -15.5t4 -27.5l-13 -58q-3 -14 -9.5 -18t-24.5 -2q-42 5 -81.5 8t-71.5 3q-42 0 -68.5 -15.5t-41.5 -42.5t-20.5 -63t-5.5 -77q0 -47 5.5 -84.5t20.5 -63.5t41.5 -39.5
t67.5 -13.5t74.5 3t80.5 8q19 2 25 -1.5t10 -18.5l13 -53q5 -19 -2.5 -28.5t-22.5 -16.5q-19 -8 -42.5 -14.5t-49 -11t-51 -6.5t-48.5 -2q-90 0 -147 29.5t-89 77.5t-43.5 109t-11.5 123zM209 693q-10 -8 -15.5 -8.5t-13.5 7.5l-32 34q-8 8 -8.5 12.5t7.5 14.5l123 112
q9 8 15.5 13t23.5 5h64q18 0 24.5 -3.5t15.5 -11.5l123 -114q9 -8 8 -13.5t-9 -13.5l-33 -35q-8 -8 -13 -6.5t-15 8.5l-135 87z" />
    <glyph glyph-name="ccircumflex" unicode="&#x109;" horiz-adv-x="478" 
d="M450 59q4 -17 0 -26.5t-26 -18.5q-30 -11 -73.5 -17t-79.5 -6q-75 0 -120.5 22t-69.5 58t-32 82.5t-8 95.5q0 45 8.5 90.5t33 82t69.5 59t119 22.5q40 0 82.5 -5.5t74.5 -19.5q25 -10 21 -37l-11 -61q-4 -16 -10.5 -17.5t-27.5 0.5q-30 3 -57 5t-51 2q-51 0 -73 -28.5
t-22 -89.5q0 -73 20.5 -100.5t72.5 -27.5q21 0 54.5 2t65.5 6q16 2 21.5 0t8.5 -18zM130 531q-10 -8 -15.5 -9t-13.5 7l-35 34q-8 7 -8 12t8 14l121 133q8 9 15 13.5t25 4.5h64q19 0 25 -3.5t14 -11.5l122 -137q8 -9 8 -14t-8 -12l-35 -33q-9 -8 -14.5 -7t-14.5 8l-132 102z
" />
    <glyph glyph-name="Cdotaccent" unicode="&#x10a;" horiz-adv-x="593" 
d="M58 329q0 61 11.5 122.5t43 110.5t88 79.5t147.5 30.5q47 0 97.5 -7.5t90.5 -24.5q15 -7 23 -15.5t4 -27.5l-13 -58q-3 -14 -9.5 -18t-24.5 -2q-42 5 -81.5 8t-71.5 3q-42 0 -68.5 -15.5t-41.5 -42.5t-20.5 -63t-5.5 -77q0 -47 5.5 -84.5t20.5 -63.5t41.5 -39.5
t67.5 -13.5t74.5 3t80.5 8q19 2 25 -1.5t10 -18.5l13 -53q5 -19 -2.5 -28.5t-22.5 -16.5q-19 -8 -42.5 -14.5t-49 -11t-51 -6.5t-48.5 -2q-90 0 -147 29.5t-89 77.5t-43.5 109t-11.5 123zM431 789q0 -14 -3 -27t-11.5 -23.5t-24 -17t-40.5 -6.5q-26 0 -41.5 6.5t-24 17
t-11 24t-2.5 26.5q0 15 3.5 28.5t12.5 23.5t24.5 16t38.5 6q24 0 39.5 -5.5t24.5 -15.5t12 -23.5t3 -29.5z" />
    <glyph glyph-name="cdotaccent" unicode="&#x10b;" horiz-adv-x="478" 
d="M450 59q4 -17 0 -26.5t-26 -18.5q-30 -11 -73.5 -17t-79.5 -6q-75 0 -120.5 22t-69.5 58t-32 82.5t-8 95.5q0 45 8.5 90.5t33 82t69.5 59t119 22.5q40 0 82.5 -5.5t74.5 -19.5q25 -10 21 -37l-11 -61q-4 -16 -10.5 -17.5t-27.5 0.5q-30 3 -57 5t-51 2q-51 0 -73 -28.5
t-22 -89.5q0 -73 20.5 -100.5t72.5 -27.5q21 0 54.5 2t65.5 6q16 2 21.5 0t8.5 -18zM350 626q0 -14 -3 -27t-11.5 -23.5t-24 -17t-40.5 -6.5q-26 0 -41.5 6.5t-24 17t-11 24t-2.5 26.5q0 15 3.5 28.5t12.5 23.5t24.5 16t38.5 6q24 0 39.5 -5.5t24.5 -15.5t12 -23.5t3 -29.5z
" />
    <glyph glyph-name="Ccaron" unicode="&#x10c;" horiz-adv-x="593" 
d="M58 329q0 61 11.5 122.5t43 110.5t88 79.5t147.5 30.5q47 0 97.5 -7.5t90.5 -24.5q15 -7 23 -15.5t4 -27.5l-13 -58q-3 -14 -9.5 -18t-24.5 -2q-42 5 -81.5 8t-71.5 3q-42 0 -68.5 -15.5t-41.5 -42.5t-20.5 -63t-5.5 -77q0 -47 5.5 -84.5t20.5 -63.5t41.5 -39.5
t67.5 -13.5t74.5 3t80.5 8q19 2 25 -1.5t10 -18.5l13 -53q5 -19 -2.5 -28.5t-22.5 -16.5q-19 -8 -42.5 -14.5t-49 -11t-51 -6.5t-48.5 -2q-90 0 -147 29.5t-89 77.5t-43.5 109t-11.5 123zM338 803l134 80q10 7 15.5 8.5t13.5 -6.5l33 -34q7 -8 7.5 -12.5t-7.5 -13.5
l-123 -115q-8 -8 -15 -11.5t-24 -3.5h-64q-17 0 -24.5 4.5t-15.5 12.5l-121 111q-9 10 -8.5 15t8.5 12l32 35q7 8 13 6.5t15 -7.5z" />
    <glyph glyph-name="ccaron" unicode="&#x10d;" horiz-adv-x="478" 
d="M450 59q4 -17 0 -26.5t-26 -18.5q-30 -11 -73.5 -17t-79.5 -6q-75 0 -120.5 22t-69.5 58t-32 82.5t-8 95.5q0 45 8.5 90.5t33 82t69.5 59t119 22.5q40 0 82.5 -5.5t74.5 -19.5q25 -10 21 -37l-11 -61q-4 -16 -10.5 -17.5t-27.5 0.5q-30 3 -57 5t-51 2q-51 0 -73 -28.5
t-22 -89.5q0 -73 20.5 -100.5t72.5 -27.5q21 0 54.5 2t65.5 6q16 2 21.5 0t8.5 -18zM256 638l131 102q9 7 15 8t14 -7l35 -33q8 -7 8.5 -12.5t-7.5 -14.5l-123 -136q-8 -8 -14 -11.5t-25 -3.5h-64q-18 0 -25 4t-15 14l-121 133q-8 9 -7.5 13.5t8.5 12.5l34 34q8 8 14 7
t15 -9z" />
    <glyph glyph-name="Dcaron" unicode="&#x10e;" horiz-adv-x="658" 
d="M90 0q-14 0 -18.5 6t-4.5 16v620q0 10 4.5 16t17.5 6h218q87 0 144 -27t90 -72t46.5 -105t13.5 -126q0 -67 -13 -127.5t-46 -106.5t-90 -73t-145 -27h-217zM436 327q0 106 -34 155t-106 49h-71v-398h64q34 0 61 10.5t46 33.5t29.5 60t10.5 90zM288 803l134 80
q10 7 15.5 8.5t13.5 -6.5l33 -34q7 -8 7.5 -12.5t-7.5 -13.5l-123 -115q-8 -8 -15 -11.5t-24 -3.5h-64q-17 0 -24.5 4.5t-15.5 12.5l-121 111q-9 10 -8.5 15t8.5 12l32 35q7 8 13 6.5t15 -7.5z" />
    <glyph glyph-name="dcaron" unicode="&#x10f;" horiz-adv-x="714" 
d="M724 632q0 -64 -28 -109.5t-69 -69.5q-22 -12 -37 5l-26 27q-11 11 -10 17t14 20q18 18 22 35t4 29q0 16 -7.5 29t-18.5 26q-13 14 -14 23.5t16 23.5l65 48q15 12 25.5 7.5t22.5 -15.5q20 -19 30.5 -46t10.5 -50zM503 21q0 -8 -3.5 -14.5t-17.5 -6.5h-110q-12 0 -16 5
t-4 15v26q-1 0 -1.5 0.5t-1.5 0.5q-33 -25 -70 -40t-72 -15q-51 0 -83.5 18.5t-51 51.5t-25.5 78.5t-7 99.5q0 60 7.5 108.5t29.5 83t62 53.5t104 19q34 0 59.5 -4.5t48.5 -11.5l1 1v194q0 10 4 16.5t17 6.5h109q14 0 17.5 -7.5t3.5 -15.5v-662zM351 362q-26 7 -44 9t-34 2
q-21 0 -36 -5.5t-24.5 -20t-13.5 -39t-4 -63.5q0 -37 3.5 -59.5t11 -35t19 -16.5t26.5 -4q12 0 25 3t26 7.5t24.5 10l20.5 9.5v202z" />
    <glyph glyph-name="Emacron" unicode="&#x112;" horiz-adv-x="558" 
d="M68 642q0 10 4.5 16.5t17.5 6.5h397q21 0 21 -22v-91q0 -9 -4.5 -15t-17.5 -6h-259v-121h226q23 0 23 -21v-91q0 -9 -4.5 -15t-18.5 -6h-226v-144h264q22 0 22 -22v-91q0 -9 -4.5 -14.5t-17.5 -5.5h-401q-13 0 -17.5 6t-4.5 15v621zM142 709q-21 0 -21 21v70q0 21 21 21
h304q12 0 16 -4.5t4 -15.5v-71q0 -11 -4 -16t-16 -5h-304z" />
    <glyph glyph-name="emacron" unicode="&#x113;" horiz-adv-x="533" 
d="M198 211q1 -29 9 -47t21.5 -28.5t33 -14t44.5 -3.5q23 0 55 3t63 7q20 2 25 -0.5t9 -21.5l8 -47q3 -17 0 -26.5t-26 -18.5q-15 -5 -35.5 -9.5t-42 -7.5t-43.5 -4.5t-40 -1.5q-75 0 -121.5 21t-72 55.5t-34.5 80t-9 95.5q0 36 6 81t29 85t68.5 67t124.5 27q72 0 116 -20.5
t68.5 -53.5t33.5 -73.5t9 -80.5q0 -31 -11.5 -47.5t-43.5 -16.5h-244zM270 386q-35 0 -51.5 -21.5t-18.5 -63.5h139q0 36 -15 60.5t-54 24.5zM119 564q-21 0 -21 21v71q0 21 21 21h305q12 0 16 -5t4 -15v-72q0 -11 -4 -16t-16 -5h-305z" />
    <glyph glyph-name="Ebreve" unicode="&#x114;" horiz-adv-x="558" 
d="M68 642q0 10 4.5 16.5t17.5 6.5h397q21 0 21 -22v-91q0 -9 -4.5 -15t-17.5 -6h-259v-121h226q23 0 23 -21v-91q0 -9 -4.5 -15t-18.5 -6h-226v-144h264q22 0 22 -22v-91q0 -9 -4.5 -14.5t-17.5 -5.5h-401q-13 0 -17.5 6t-4.5 15v621zM283 693q-29 0 -57 6t-53.5 19t-47 33
t-35.5 49q-6 13 -9 24t9 19l36 29q13 9 19 5.5t16 -14.5q28 -33 55.5 -48.5t64.5 -15.5q33 0 61.5 13t57.5 51q9 12 16.5 14t19.5 -6l35 -21q14 -9 11 -20.5t-11 -25.5q-31 -57 -79.5 -84t-108.5 -27z" />
    <glyph glyph-name="ebreve" unicode="&#x115;" horiz-adv-x="533" 
d="M198 211q1 -29 9 -47t21.5 -28.5t33 -14t44.5 -3.5q23 0 55 3t63 7q20 2 25 -0.5t9 -21.5l8 -47q3 -17 0 -26.5t-26 -18.5q-15 -5 -35.5 -9.5t-42 -7.5t-43.5 -4.5t-40 -1.5q-75 0 -121.5 21t-72 55.5t-34.5 80t-9 95.5q0 36 6 81t29 85t68.5 67t124.5 27q72 0 116 -20.5
t68.5 -53.5t33.5 -73.5t9 -80.5q0 -31 -11.5 -47.5t-43.5 -16.5h-244zM270 386q-35 0 -51.5 -21.5t-18.5 -63.5h139q0 36 -15 60.5t-54 24.5zM270 533q-28 0 -57 7.5t-54.5 22.5t-47 37t-34.5 52q-5 13 -8 23.5t8 19.5l36 29q14 9 20 5.5t16 -14.5q32 -38 58 -55t63 -17
q33 0 59.5 15.5t58.5 56.5q9 11 16 13.5t19 -5.5l36 -22q14 -8 11 -19.5t-11 -26.5q-31 -60 -80 -91t-109 -31z" />
    <glyph glyph-name="Edotaccent" unicode="&#x116;" horiz-adv-x="558" 
d="M68 642q0 10 4.5 16.5t17.5 6.5h397q21 0 21 -22v-91q0 -9 -4.5 -15t-17.5 -6h-259v-121h226q23 0 23 -21v-91q0 -9 -4.5 -15t-18.5 -6h-226v-144h264q22 0 22 -22v-91q0 -9 -4.5 -14.5t-17.5 -5.5h-401q-13 0 -17.5 6t-4.5 15v621zM377 776q0 -14 -3 -27t-11.5 -23.5
t-24 -17t-40.5 -6.5q-26 0 -41.5 6.5t-24 17t-11 24t-2.5 26.5q0 15 3.5 28.5t12.5 23.5t24.5 16t38.5 6q24 0 39.5 -5.5t24.5 -15.5t12 -23.5t3 -29.5z" />
    <glyph glyph-name="edotaccent" unicode="&#x117;" horiz-adv-x="533" 
d="M198 211q1 -29 9 -47t21.5 -28.5t33 -14t44.5 -3.5q23 0 55 3t63 7q20 2 25 -0.5t9 -21.5l8 -47q3 -17 0 -26.5t-26 -18.5q-15 -5 -35.5 -9.5t-42 -7.5t-43.5 -4.5t-40 -1.5q-75 0 -121.5 21t-72 55.5t-34.5 80t-9 95.5q0 36 6 81t29 85t68.5 67t124.5 27q72 0 116 -20.5
t68.5 -53.5t33.5 -73.5t9 -80.5q0 -31 -11.5 -47.5t-43.5 -16.5h-244zM270 386q-35 0 -51.5 -21.5t-18.5 -63.5h139q0 36 -15 60.5t-54 24.5zM358 626q0 -14 -3 -27t-11.5 -23.5t-24 -17t-40.5 -6.5q-26 0 -41.5 6.5t-24 17t-11 24t-2.5 26.5q0 15 3.5 28.5t12.5 23.5
t24.5 16t38.5 6q24 0 39.5 -5.5t24.5 -15.5t12 -23.5t3 -29.5z" />
    <glyph glyph-name="Ecaron" unicode="&#x11a;" horiz-adv-x="558" 
d="M68 642q0 10 4.5 16.5t17.5 6.5h397q21 0 21 -22v-91q0 -9 -4.5 -15t-17.5 -6h-259v-121h226q23 0 23 -21v-91q0 -9 -4.5 -15t-18.5 -6h-226v-144h264q22 0 22 -22v-91q0 -9 -4.5 -14.5t-17.5 -5.5h-401q-13 0 -17.5 6t-4.5 15v621zM286 803l134 80q10 7 15.5 8.5
t13.5 -6.5l33 -34q7 -8 7.5 -12.5t-7.5 -13.5l-123 -115q-8 -8 -15 -11.5t-24 -3.5h-64q-17 0 -24.5 4.5t-15.5 12.5l-121 111q-9 10 -8.5 15t8.5 12l32 35q7 8 13 6.5t15 -7.5z" />
    <glyph glyph-name="ecaron" unicode="&#x11b;" horiz-adv-x="533" 
d="M198 211q1 -29 9 -47t21.5 -28.5t33 -14t44.5 -3.5q23 0 55 3t63 7q20 2 25 -0.5t9 -21.5l8 -47q3 -17 0 -26.5t-26 -18.5q-15 -5 -35.5 -9.5t-42 -7.5t-43.5 -4.5t-40 -1.5q-75 0 -121.5 21t-72 55.5t-34.5 80t-9 95.5q0 36 6 81t29 85t68.5 67t124.5 27q72 0 116 -20.5
t68.5 -53.5t33.5 -73.5t9 -80.5q0 -31 -11.5 -47.5t-43.5 -16.5h-244zM270 386q-35 0 -51.5 -21.5t-18.5 -63.5h139q0 36 -15 60.5t-54 24.5zM272 638l131 102q9 7 15 8t14 -7l35 -33q8 -7 8.5 -12.5t-7.5 -14.5l-123 -136q-8 -8 -14 -11.5t-25 -3.5h-64q-18 0 -25 4t-15 14
l-121 133q-8 9 -7.5 13.5t8.5 12.5l34 34q8 8 14 7t15 -9z" />
    <glyph glyph-name="Gcircumflex" unicode="&#x11c;" horiz-adv-x="645" 
d="M228 332q0 -43 4.5 -80t19 -64.5t40 -43t67.5 -15.5q18 0 37.5 2t35.5 5v120h-68q-14 0 -18.5 5.5t-4.5 15.5v84q0 10 4.5 15.5t18.5 5.5h199q11 0 17 -6.5t6 -14.5v-125.5t-1 -158.5q0 -17 -5 -31.5t-26 -22.5q-24 -9 -51 -15.5t-54.5 -10t-54.5 -5.5t-49 -2
q-87 0 -143 27.5t-87.5 74.5t-43.5 108.5t-12 129.5q0 61 11.5 122t43 110t88 79.5t146.5 30.5q48 0 98.5 -7.5t89.5 -24.5q15 -6 23 -15t4 -28l-13 -59q-3 -15 -9.5 -18t-24.5 -1q-42 5 -80 8.5t-70 3.5q-42 0 -69 -15.5t-42.5 -42.5t-21 -63.5t-5.5 -77.5zM215 693
q-10 -8 -15.5 -8.5t-13.5 7.5l-32 34q-8 8 -8.5 12.5t7.5 14.5l123 112q9 8 15.5 13t23.5 5h64q18 0 24.5 -3.5t15.5 -11.5l123 -114q9 -8 8 -13.5t-9 -13.5l-33 -35q-8 -8 -13 -6.5t-15 8.5l-135 87z" />
    <glyph glyph-name="gcircumflex" unicode="&#x11d;" horiz-adv-x="552" 
d="M280 504q24 0 50.5 -2t52 -5.5t49.5 -9t43 -12.5q20 -8 25 -20.5t5 -29.5v-408q0 -48 -6.5 -89t-30 -71t-70.5 -47.5t-128 -17.5q-42 0 -85.5 6t-73.5 17q-23 9 -27.5 18.5t-2.5 21.5l12 56q3 16 10 18t24 -1q35 -5 71 -7.5t64 -2.5t46 4.5t28 13.5t13.5 23t3.5 34v24
q-29 -9 -54.5 -13t-45.5 -4q-64 0 -104.5 18.5t-64 51t-32.5 77.5t-9 99q0 56 10.5 103.5t37 82t72.5 53.5t117 19zM200 255q0 -37 4.5 -61t14 -38t24.5 -19.5t35 -5.5q15 0 33 2.5t42 8.5v223q-35 6 -66 6q-18 0 -34 -3.5t-27.5 -15.5t-18.5 -35t-7 -62zM167 531
q-10 -8 -15.5 -9t-13.5 7l-35 34q-8 7 -8 12t8 14l121 133q8 9 15 13.5t25 4.5h64q19 0 25 -3.5t14 -11.5l122 -137q8 -9 8 -14t-8 -12l-35 -33q-9 -8 -14.5 -7t-14.5 8l-132 102z" />
    <glyph glyph-name="Gbreve" unicode="&#x11e;" horiz-adv-x="645" 
d="M228 332q0 -43 4.5 -80t19 -64.5t40 -43t67.5 -15.5q18 0 37.5 2t35.5 5v120h-68q-14 0 -18.5 5.5t-4.5 15.5v84q0 10 4.5 15.5t18.5 5.5h199q11 0 17 -6.5t6 -14.5v-125.5t-1 -158.5q0 -17 -5 -31.5t-26 -22.5q-24 -9 -51 -15.5t-54.5 -10t-54.5 -5.5t-49 -2
q-87 0 -143 27.5t-87.5 74.5t-43.5 108.5t-12 129.5q0 61 11.5 122t43 110t88 79.5t146.5 30.5q48 0 98.5 -7.5t89.5 -24.5q15 -6 23 -15t4 -28l-13 -59q-3 -15 -9.5 -18t-24.5 -1q-42 5 -80 8.5t-70 3.5q-42 0 -69 -15.5t-42.5 -42.5t-21 -63.5t-5.5 -77.5zM344 693
q-29 0 -57 6t-53.5 19t-47 33t-35.5 49q-6 13 -9 24t9 19l36 29q13 9 19 5.5t16 -14.5q28 -33 55.5 -48.5t64.5 -15.5q33 0 61.5 13t57.5 51q9 12 16.5 14t19.5 -6l35 -21q14 -9 11 -20.5t-11 -25.5q-31 -57 -79.5 -84t-108.5 -27z" />
    <glyph glyph-name="gbreve" unicode="&#x11f;" horiz-adv-x="552" 
d="M280 504q24 0 50.5 -2t52 -5.5t49.5 -9t43 -12.5q20 -8 25 -20.5t5 -29.5v-408q0 -48 -6.5 -89t-30 -71t-70.5 -47.5t-128 -17.5q-42 0 -85.5 6t-73.5 17q-23 9 -27.5 18.5t-2.5 21.5l12 56q3 16 10 18t24 -1q35 -5 71 -7.5t64 -2.5t46 4.5t28 13.5t13.5 23t3.5 34v24
q-29 -9 -54.5 -13t-45.5 -4q-64 0 -104.5 18.5t-64 51t-32.5 77.5t-9 99q0 56 10.5 103.5t37 82t72.5 53.5t117 19zM200 255q0 -37 4.5 -61t14 -38t24.5 -19.5t35 -5.5q15 0 33 2.5t42 8.5v223q-35 6 -66 6q-18 0 -34 -3.5t-27.5 -15.5t-18.5 -35t-7 -62zM282 533
q-28 0 -57 7.5t-54.5 22.5t-47 37t-34.5 52q-5 13 -8 23.5t8 19.5l36 29q14 9 20 5.5t16 -14.5q32 -38 58 -55t63 -17q33 0 59.5 15.5t58.5 56.5q9 11 16 13.5t19 -5.5l36 -22q14 -8 11 -19.5t-11 -26.5q-31 -60 -80 -91t-109 -31z" />
    <glyph glyph-name="Gdotaccent" unicode="&#x120;" horiz-adv-x="645" 
d="M228 332q0 -43 4.5 -80t19 -64.5t40 -43t67.5 -15.5q18 0 37.5 2t35.5 5v120h-68q-14 0 -18.5 5.5t-4.5 15.5v84q0 10 4.5 15.5t18.5 5.5h199q11 0 17 -6.5t6 -14.5v-125.5t-1 -158.5q0 -17 -5 -31.5t-26 -22.5q-24 -9 -51 -15.5t-54.5 -10t-54.5 -5.5t-49 -2
q-87 0 -143 27.5t-87.5 74.5t-43.5 108.5t-12 129.5q0 61 11.5 122t43 110t88 79.5t146.5 30.5q48 0 98.5 -7.5t89.5 -24.5q15 -6 23 -15t4 -28l-13 -59q-3 -15 -9.5 -18t-24.5 -1q-42 5 -80 8.5t-70 3.5q-42 0 -69 -15.5t-42.5 -42.5t-21 -63.5t-5.5 -77.5zM436 776
q0 -14 -3 -27t-11.5 -23.5t-24 -17t-40.5 -6.5q-26 0 -41.5 6.5t-24 17t-11 24t-2.5 26.5q0 15 3.5 28.5t12.5 23.5t24.5 16t38.5 6q24 0 39.5 -5.5t24.5 -15.5t12 -23.5t3 -29.5z" />
    <glyph glyph-name="gdotaccent" unicode="&#x121;" horiz-adv-x="552" 
d="M280 504q24 0 50.5 -2t52 -5.5t49.5 -9t43 -12.5q20 -8 25 -20.5t5 -29.5v-408q0 -48 -6.5 -89t-30 -71t-70.5 -47.5t-128 -17.5q-42 0 -85.5 6t-73.5 17q-23 9 -27.5 18.5t-2.5 21.5l12 56q3 16 10 18t24 -1q35 -5 71 -7.5t64 -2.5t46 4.5t28 13.5t13.5 23t3.5 34v24
q-29 -9 -54.5 -13t-45.5 -4q-64 0 -104.5 18.5t-64 51t-32.5 77.5t-9 99q0 56 10.5 103.5t37 82t72.5 53.5t117 19zM200 255q0 -37 4.5 -61t14 -38t24.5 -19.5t35 -5.5q15 0 33 2.5t42 8.5v223q-35 6 -66 6q-18 0 -34 -3.5t-27.5 -15.5t-18.5 -35t-7 -62zM374 626
q0 -14 -3 -27t-11.5 -23.5t-24 -17t-40.5 -6.5q-26 0 -41.5 6.5t-24 17t-11 24t-2.5 26.5q0 15 3.5 28.5t12.5 23.5t24.5 16t38.5 6q24 0 39.5 -5.5t24.5 -15.5t12 -23.5t3 -29.5z" />
    <glyph glyph-name="Gcommaaccent" unicode="&#x122;" horiz-adv-x="645" 
d="M228 332q0 -43 4.5 -80t19 -64.5t40 -43t67.5 -15.5q18 0 37.5 2t35.5 5v120h-68q-14 0 -18.5 5.5t-4.5 15.5v84q0 10 4.5 15.5t18.5 5.5h199q11 0 17 -6.5t6 -14.5v-125.5t-1 -158.5q0 -17 -5 -31.5t-26 -22.5q-24 -9 -51 -15.5t-54.5 -10t-54.5 -5.5t-49 -2
q-87 0 -143 27.5t-87.5 74.5t-43.5 108.5t-12 129.5q0 61 11.5 122t43 110t88 79.5t146.5 30.5q48 0 98.5 -7.5t89.5 -24.5q15 -6 23 -15t4 -28l-13 -59q-3 -15 -9.5 -18t-24.5 -1q-42 5 -80 8.5t-70 3.5q-42 0 -69 -15.5t-42.5 -42.5t-21 -63.5t-5.5 -77.5zM436 -150
q0 -64 -28 -109.5t-69 -69.5q-22 -12 -37 5l-26 27q-11 11 -10 17t14 20q18 18 22 35t4 29q0 16 -7.5 29t-18.5 26q-13 14 -14 23.5t16 23.5l65 48q15 12 25.5 7.5t22.5 -15.5q20 -19 30.5 -46t10.5 -50z" />
    <glyph glyph-name="gcommaaccent" unicode="&#x123;" horiz-adv-x="552" 
d="M280 504q24 0 50.5 -2t52 -5.5t49.5 -9t43 -12.5q20 -8 25 -20.5t5 -29.5v-408q0 -48 -6.5 -89t-30 -71t-70.5 -47.5t-128 -17.5q-42 0 -85.5 6t-73.5 17q-23 9 -27.5 18.5t-2.5 21.5l12 56q3 16 10 18t24 -1q35 -5 71 -7.5t64 -2.5t46 4.5t28 13.5t13.5 23t3.5 34v24
q-29 -9 -54.5 -13t-45.5 -4q-64 0 -104.5 18.5t-64 51t-32.5 77.5t-9 99q0 56 10.5 103.5t37 82t72.5 53.5t117 19zM219 654q0 65 29 111.5t69 69.5q11 5 20.5 5t17.5 -10l25 -26q11 -11 11 -16q0 -6 -15 -21q-17 -17 -22 -34t-5 -30q0 -15 7 -30t18 -27l11 -12.5t4 -10.5
q0 -11 -17 -22l-65 -49q-14 -12 -24.5 -7.5t-22.5 15.5q-20 19 -30.5 45t-10.5 49zM200 255q0 -37 4.5 -61t14 -38t24.5 -19.5t35 -5.5q15 0 33 2.5t42 8.5v223q-35 6 -66 6q-18 0 -34 -3.5t-27.5 -15.5t-18.5 -35t-7 -62z" />
    <glyph glyph-name="Hcircumflex" unicode="&#x124;" horiz-adv-x="647" 
d="M421 642q0 10 5 16.5t17 6.5h116q14 0 17.5 -7.5t3.5 -15.5v-620q0 -8 -3.5 -15t-17.5 -7h-116q-22 0 -22 22v256h-195v-256q0 -8 -3.5 -15t-17.5 -7h-116q-22 0 -22 22v620q0 10 5 16.5t17 6.5h116q14 0 17.5 -7.5t3.5 -15.5v-230h195v230zM192 693q-10 -8 -15.5 -8.5
t-13.5 7.5l-32 34q-8 8 -8.5 12.5t7.5 14.5l123 112q9 8 15.5 13t23.5 5h64q18 0 24.5 -3.5t15.5 -11.5l123 -114q9 -8 8 -13.5t-9 -13.5l-33 -35q-8 -8 -13 -6.5t-15 8.5l-135 87z" />
    <glyph glyph-name="hcircumflex" unicode="&#x125;" horiz-adv-x="558" 
d="M511 22q0 -8 -3.5 -15t-17.5 -7h-110q-22 0 -22 22v54t0.5 80.5t0.5 80.5v54q0 41 -14.5 58t-46.5 17q-11 0 -24.5 -3t-27 -7.5t-25.5 -9.5l-21 -9v-315q0 -8 -3.5 -15t-17.5 -7h-110q-12 0 -16.5 6t-4.5 16v662q0 10 4.5 16t16.5 6h111q14 0 17.5 -7t3.5 -15v-226
q31 17 71 31t78 14q56 0 88.5 -17.5t48.5 -46t20 -63.5t4 -70v-284zM-1 706q-10 -8 -15.5 -8.5t-13.5 7.5l-32 34q-8 8 -8.5 12.5t7.5 14.5l123 112q9 8 15.5 13t23.5 5h64q18 0 24.5 -3.5t15.5 -11.5l123 -114q9 -8 8 -13.5t-9 -13.5l-33 -35q-8 -8 -13 -6.5t-15 8.5
l-135 87z" />
    <glyph glyph-name="IJ" unicode="&#x132;" horiz-adv-x="738" 
d="M72 642q0 10 4.5 16.5t16.5 6.5h117q14 0 17.5 -7.5t3.5 -15.5v-620q0 -8 -3.5 -15t-17.5 -7h-117q-12 0 -16.5 6t-4.5 16v620zM501 642q0 10 4.5 16.5t17.5 6.5h115q14 0 18 -7.5t4 -15.5v-260.5t-1 -204.5q0 -88 -52.5 -137t-165.5 -49q-12 0 -28.5 1t-34.5 3.5
t-36.5 6t-34.5 9.5q-26 9 -32.5 17t-1.5 27l15 65q5 15 9 17.5t18 0.5q26 -3 51.5 -5t47.5 -2q27 0 44 5.5t26.5 15.5t13 24.5t3.5 31.5v434z" />
    <glyph glyph-name="ij" unicode="&#x133;" horiz-adv-x="524" 
d="M218 624q0 -14 -3 -27.5t-11.5 -24t-24 -17t-40.5 -6.5q-26 0 -42 6.5t-24.5 17.5t-11 24t-2.5 27q0 31 16 52.5t64 21.5q24 0 39.5 -5.5t24.5 -15.5t12 -23.5t3 -29.5zM213 22q0 -8 -3.5 -15t-16.5 -7h-110q-13 0 -17.5 6t-4.5 16v450q0 11 4.5 16.5t17.5 5.5h110
q13 0 16.5 -7.5t3.5 -14.5v-450zM460 19q0 -67 -17.5 -112.5t-51 -72.5t-82.5 -37.5t-112 -8.5q-7 0 -16 4t-10 18l-7 78q-2 15 1.5 18.5t17.5 6.5q36 8 59.5 14.5t38 17t20.5 27t6 44.5v456q0 22 23 22h109q14 0 17.5 -7.5t3.5 -14.5v-453zM464 624q0 -14 -3 -27.5t-12 -24
t-24.5 -17t-40.5 -6.5q-26 0 -41.5 6.5t-24 17.5t-11 24t-2.5 27q0 31 16 52.5t63 21.5q25 0 40.5 -5.5t24.5 -15.5t12 -23.5t3 -29.5z" />
    <glyph glyph-name="Jcircumflex" unicode="&#x134;" horiz-adv-x="507" 
d="M236 643q0 10 4.5 16.5t17.5 6.5h115q14 0 18 -7.5t4 -15.5v-260.5t-1 -204.5q0 -88 -52.5 -137t-165.5 -49q-12 0 -28.5 1t-34.5 3.5t-36.5 6t-34.5 9.5q-26 9 -32.5 17t-1.5 27l15 65q5 15 9 17.5t18 0.5q26 -3 51.5 -5t47.5 -2q27 0 44 5.5t26.5 15.5t13 24.5
t3.5 31.5v434zM182 695q-10 -8 -15.5 -8.5t-13.5 7.5l-32 34q-8 8 -8.5 12.5t7.5 14.5l123 112q9 8 15.5 13t23.5 5h64q18 0 24.5 -3.5t15.5 -11.5l123 -114q9 -8 8 -13.5t-9 -13.5l-33 -35q-8 -8 -13 -6.5t-15 8.5l-135 87z" />
    <glyph glyph-name="jcircumflex" unicode="&#x135;" horiz-adv-x="403" 
d="M287 19q0 -67 -17.5 -112.5t-51 -72.5t-82.5 -37.5t-112 -8.5q-7 0 -16 4t-10 18l-7 78q-2 12 2 17t17 8q36 7 59.5 13.5t38 17t20.5 27.5t6 45v456q0 22 23 22h109q14 0 17.5 -7.5t3.5 -14.5v-453zM83 541q-10 -8 -15.5 -9t-13.5 7l-35 34q-8 7 -8 12t8 14l121 133
q8 9 15 13.5t25 4.5h64q19 0 25 -3.5t14 -11.5l122 -137q8 -9 8 -14t-8 -12l-35 -33q-9 -8 -14.5 -7t-14.5 8l-132 102z" />
    <glyph glyph-name="Kcommaaccent" unicode="&#x136;" horiz-adv-x="619" 
d="M222 406l72 94l117 145q8 10 18.5 15t26.5 5h129q16 0 19 -8.5t-6 -19.5l-215 -259l223 -348q11 -16 5 -23t-17 -7h-132q-18 0 -27 7.5t-17 18.5l-139 227l-59 -73v-158q0 -8 -3.5 -15t-17.5 -7h-116q-13 0 -17.5 6t-4.5 16v620q0 10 4.5 16.5t17.5 6.5h116
q14 0 17.5 -7.5t3.5 -15.5v-236h2zM383 -130q0 -64 -28 -109.5t-69 -69.5q-22 -12 -37 5l-26 27q-11 11 -10 17t14 20q18 18 22 35t4 29q0 16 -7.5 29t-18.5 26q-13 14 -14 23.5t16 23.5l65 48q15 12 25.5 7.5t22.5 -15.5q20 -19 30.5 -46t10.5 -50z" />
    <glyph glyph-name="kcommaaccent" unicode="&#x137;" horiz-adv-x="530" 
d="M204 332l63 72l60 68q9 11 18 16.5t29 5.5h114q18 0 20.5 -8t-8.5 -19l-153 -165l175 -274q8 -12 3 -20t-19 -8h-110q-23 0 -32.5 6.5t-15.5 17.5l-101 168l-46 -50v-120q0 -8 -3.5 -15t-17.5 -7h-109q-13 0 -17.5 6t-4.5 16v662q0 10 4.5 16.5t17.5 6.5h109
q14 0 17.5 -7.5t3.5 -15.5v-351zM343 -150q0 -64 -28 -109.5t-69 -69.5q-22 -12 -37 5l-26 27q-11 11 -10 17t14 20q18 18 22 35t4 29q0 16 -7.5 29t-18.5 26q-13 14 -14 23.5t16 23.5l65 48q15 12 25.5 7.5t22.5 -15.5q20 -19 30.5 -46t10.5 -50z" />
    <glyph glyph-name="kgreenlandic" unicode="&#x138;" horiz-adv-x="530" 
d="M204 332l63 72l60 68q9 11 18 16.5t29 5.5h114q18 0 20.5 -8t-8.5 -19l-153 -165l175 -274q8 -12 3 -20t-19 -8h-110q-23 0 -32.5 6.5t-15.5 17.5l-101 168l-46 -50v-120q0 -8 -3.5 -15t-17.5 -7h-109q-13 0 -17.5 6t-4.5 16v448q0 10 4.5 16.5t17.5 6.5h109
q14 0 17.5 -7.5t3.5 -15.5v-137z" />
    <glyph glyph-name="Lacute" unicode="&#x139;" horiz-adv-x="525" 
d="M227 133h269q18 0 18 -17v-96q0 -9 -4.5 -14.5t-17.5 -5.5h-402q-13 0 -17.5 6t-4.5 15v621q0 10 5 16.5t17 6.5h115q22 0 22 -23v-509zM328 805q13 -19 -9 -29l-176 -77q-8 -3 -14 -3t-12 8l-33 50q-4 6 -4 12t10 12l163 107q11 7 18 4t11 -10z" />
    <glyph glyph-name="lacute" unicode="&#x13a;" horiz-adv-x="300" 
d="M212 153q0 -21 10 -26t33 -6q15 -1 18 -3t5 -13l5 -75q1 -14 -16 -22q-18 -8 -42 -10.5t-38 -2.5q-65 0 -96 29.5t-31 98.5v561q0 10 4.5 16t17.5 6h109q14 0 17.5 -7t3.5 -15v-531zM328 843q13 -19 -9 -29l-176 -77q-8 -3 -14 -3t-12 8l-33 50q-4 6 -4 12t10 12l163 107
q11 7 18 4t11 -10z" />
    <glyph glyph-name="Lcommaaccent" unicode="&#x13b;" horiz-adv-x="525" 
d="M227 133h269q18 0 18 -17v-96q0 -9 -4.5 -14.5t-17.5 -5.5h-402q-13 0 -17.5 6t-4.5 15v621q0 10 5 16.5t17 6.5h115q22 0 22 -23v-509zM363 -150q0 -64 -28 -109.5t-69 -69.5q-22 -12 -37 5l-26 27q-11 11 -10 17t14 20q18 18 22 35t4 29q0 16 -7.5 29t-18.5 26
q-13 14 -14 23.5t16 23.5l65 48q15 12 25.5 7.5t22.5 -15.5q20 -19 30.5 -46t10.5 -50z" />
    <glyph glyph-name="lcommaaccent" unicode="&#x13c;" horiz-adv-x="300" 
d="M212 153q0 -21 10 -26t33 -6q15 -1 18 -3t5 -13l5 -75q1 -14 -16 -22q-18 -8 -42 -10.5t-38 -2.5q-65 0 -96 29.5t-31 98.5v561q0 10 4.5 16t17.5 6h109q14 0 17.5 -7t3.5 -15v-531zM234 -150q0 -64 -28 -109.5t-69 -69.5q-22 -12 -37 5l-26 27q-11 11 -10 17t14 20
q18 18 22 35t4 29q0 16 -7.5 29t-18.5 26q-13 14 -14 23.5t16 23.5l65 48q15 12 25.5 7.5t22.5 -15.5q20 -19 30.5 -46t10.5 -50z" />
    <glyph glyph-name="Lcaron" unicode="&#x13d;" horiz-adv-x="525" 
d="M227 133h269q18 0 18 -17v-96q0 -9 -4.5 -14.5t-17.5 -5.5h-402q-13 0 -17.5 6t-4.5 15v621q0 10 5 16.5t17 6.5h115q22 0 22 -23v-509zM484 563q0 -64 -28 -109.5t-69 -69.5q-22 -12 -37 5l-26 27q-11 11 -10 17t14 20q18 18 22 35t4 29q0 16 -7.5 29t-18.5 26
q-13 14 -14 23.5t16 23.5l65 48q15 12 25.5 7.5t22.5 -15.5q20 -19 30.5 -46t10.5 -50z" />
    <glyph glyph-name="lcaron" unicode="&#x13e;" horiz-adv-x="416" 
d="M429 612q0 -64 -28 -109.5t-69 -69.5q-22 -12 -37 5l-26 27q-11 11 -10 17t14 20q18 18 22 35t4 29q0 16 -7.5 29t-18.5 26q-13 14 -14 23.5t16 23.5l65 48q15 12 25.5 7.5t22.5 -15.5q20 -19 30.5 -46t10.5 -50zM212 153q0 -21 10 -26t33 -6q15 -1 18 -3t5 -13l5 -75
q1 -14 -16 -22q-18 -8 -42 -10.5t-38 -2.5q-65 0 -96 29.5t-31 98.5v561q0 10 4.5 16t17.5 6h109q14 0 17.5 -7t3.5 -15v-531z" />
    <glyph glyph-name="Ldot" unicode="&#x13f;" horiz-adv-x="525" 
d="M227 133h269q18 0 18 -17v-96q0 -9 -4.5 -14.5t-17.5 -5.5h-402q-13 0 -17.5 6t-4.5 15v621q0 10 5 16.5t17 6.5h115q22 0 22 -23v-509zM472 364q0 -14 -3 -27t-11.5 -23.5t-24 -17t-40.5 -6.5q-26 0 -41.5 6.5t-24 17t-11 24t-2.5 26.5q0 15 3.5 28.5t12.5 23.5t24.5 16
t38.5 6q24 0 39.5 -5.5t24.5 -15.5t12 -23.5t3 -29.5z" />
    <glyph glyph-name="ldot" unicode="&#x140;" horiz-adv-x="400" 
d="M411 388q0 -14 -3 -27t-11.5 -23.5t-24 -17t-40.5 -6.5q-26 0 -41.5 6.5t-24 17t-11 24t-2.5 26.5q0 15 3.5 28.5t12.5 23.5t24.5 16t38.5 6q24 0 39.5 -5.5t24.5 -15.5t12 -23.5t3 -29.5zM212 153q0 -21 10 -26t33 -6q15 -1 18 -3t5 -13l5 -75q1 -14 -16 -22
q-18 -8 -42 -10.5t-38 -2.5q-65 0 -96 29.5t-31 98.5v561q0 10 4.5 16t17.5 6h109q14 0 17.5 -7t3.5 -15v-531z" />
    <glyph glyph-name="Nacute" unicode="&#x143;" horiz-adv-x="670" 
d="M224 372h-3v-351q0 -8 -4 -14.5t-17 -6.5h-111q-23 0 -23 21v621q0 9 5 15.5t17 6.5h82q23 0 31.5 -8t16.5 -21t26 -40l40.5 -61.5l47 -72l47 -72l40 -61.5l25.5 -39q1 0 1.5 0.5t1.5 0.5v351q0 8 4 15.5t18 7.5h111q12 0 16.5 -6t4.5 -17v-620q0 -10 -4.5 -15.5
t-16.5 -5.5h-82q-17 0 -26 6t-17 17l-76 113.5l-76 113.5zM501 805q13 -19 -9 -29l-176 -77q-8 -3 -14 -3t-12 8l-33 50q-4 6 -4 12t10 12l163 107q11 7 18 4t11 -10z" />
    <glyph glyph-name="nacute" unicode="&#x144;" horiz-adv-x="558" 
d="M510 21q0 -8 -3.5 -14.5t-17.5 -6.5h-110q-22 0 -22 21q0 66 0.5 131t0.5 131q0 42 -14.5 59.5t-46.5 17.5q-24 0 -52 -11.5t-46 -17.5v-310q0 -8 -3.5 -14.5t-17.5 -6.5h-109q-13 0 -17.5 5.5t-4.5 15.5v450q0 10 4.5 16t17.5 6h109q14 0 17.5 -7t3.5 -15v-24
q1 0 1.5 -0.5t1.5 -0.5q33 25 77 40.5t80 15.5q53 0 83.5 -17.5t45.5 -46t18.5 -63.5t3.5 -70v-284zM391 729q21 -11 5 -30l-118 -151q-5 -7 -10.5 -10.5t-14.5 1.5l-52 28q-7 4 -9.5 9t2.5 15l93 172q6 11 13.5 12t14.5 -3z" />
    <glyph glyph-name="Ncommaaccent" unicode="&#x145;" horiz-adv-x="670" 
d="M224 372h-3v-351q0 -8 -4 -14.5t-17 -6.5h-111q-23 0 -23 21v621q0 9 5 15.5t17 6.5h82q23 0 31.5 -8t16.5 -21t26 -40l40.5 -61.5l47 -72l47 -72l40 -61.5l25.5 -39q1 0 1.5 0.5t1.5 0.5v351q0 8 4 15.5t18 7.5h111q12 0 16.5 -6t4.5 -17v-620q0 -10 -4.5 -15.5
t-16.5 -5.5h-82q-17 0 -26 6t-17 17l-76 113.5l-76 113.5zM412 -130q0 -64 -28 -109.5t-69 -69.5q-22 -12 -37 5l-26 27q-11 11 -10 17t14 20q18 18 22 35t4 29q0 16 -7.5 29t-18.5 26q-13 14 -14 23.5t16 23.5l65 48q15 12 25.5 7.5t22.5 -15.5q20 -19 30.5 -46t10.5 -50z
" />
    <glyph glyph-name="ncommaaccent" unicode="&#x146;" horiz-adv-x="558" 
d="M510 21q0 -8 -3.5 -14.5t-17.5 -6.5h-110q-22 0 -22 21q0 66 0.5 131t0.5 131q0 42 -14.5 59.5t-46.5 17.5q-24 0 -52 -11.5t-46 -17.5v-310q0 -8 -3.5 -14.5t-17.5 -6.5h-109q-13 0 -17.5 5.5t-4.5 15.5v450q0 10 4.5 16t17.5 6h109q14 0 17.5 -7t3.5 -15v-24
q1 0 1.5 -0.5t1.5 -0.5q33 25 77 40.5t80 15.5q53 0 83.5 -17.5t45.5 -46t18.5 -63.5t3.5 -70v-284zM349 -150q0 -64 -28 -109.5t-69 -69.5q-22 -12 -37 5l-26 27q-11 11 -10 17t14 20q18 18 22 35t4 29q0 16 -7.5 29t-18.5 26q-13 14 -14 23.5t16 23.5l65 48
q15 12 25.5 7.5t22.5 -15.5q20 -19 30.5 -46t10.5 -50z" />
    <glyph glyph-name="Ncaron" unicode="&#x147;" horiz-adv-x="670" 
d="M224 372h-3v-351q0 -8 -4 -14.5t-17 -6.5h-111q-23 0 -23 21v621q0 9 5 15.5t17 6.5h82q23 0 31.5 -8t16.5 -21t26 -40l40.5 -61.5l47 -72l47 -72l40 -61.5l25.5 -39q1 0 1.5 0.5t1.5 0.5v351q0 8 4 15.5t18 7.5h111q12 0 16.5 -6t4.5 -17v-620q0 -10 -4.5 -15.5
t-16.5 -5.5h-82q-17 0 -26 6t-17 17l-76 113.5l-76 113.5zM334 803l134 80q10 7 15.5 8.5t13.5 -6.5l33 -34q7 -8 7.5 -12.5t-7.5 -13.5l-123 -115q-8 -8 -15 -11.5t-24 -3.5h-64q-17 0 -24.5 4.5t-15.5 12.5l-121 111q-9 10 -8.5 15t8.5 12l32 35q7 8 13 6.5t15 -7.5z" />
    <glyph glyph-name="ncaron" unicode="&#x148;" horiz-adv-x="558" 
d="M510 21q0 -8 -3.5 -14.5t-17.5 -6.5h-110q-22 0 -22 21q0 66 0.5 131t0.5 131q0 42 -14.5 59.5t-46.5 17.5q-24 0 -52 -11.5t-46 -17.5v-310q0 -8 -3.5 -14.5t-17.5 -6.5h-109q-13 0 -17.5 5.5t-4.5 15.5v450q0 10 4.5 16t17.5 6h109q14 0 17.5 -7t3.5 -15v-24
q1 0 1.5 -0.5t1.5 -0.5q33 25 77 40.5t80 15.5q53 0 83.5 -17.5t45.5 -46t18.5 -63.5t3.5 -70v-284zM255 638l131 102q9 7 15 8t14 -7l35 -33q8 -7 8.5 -12.5t-7.5 -14.5l-123 -136q-8 -8 -14 -11.5t-25 -3.5h-64q-18 0 -25 4t-15 14l-121 133q-8 9 -7.5 13.5t8.5 12.5
l34 34q8 8 14 7t15 -9z" />
    <glyph glyph-name="napostrophe" unicode="&#x149;" horiz-adv-x="677" 
d="M629 21q0 -8 -3.5 -14.5t-17.5 -6.5h-110q-22 0 -22 21q0 66 0.5 131t0.5 131q0 42 -14.5 59.5t-46.5 17.5q-24 0 -52 -11.5t-46 -17.5v-310q0 -8 -3.5 -14.5t-17.5 -6.5h-109q-13 0 -17.5 5.5t-4.5 15.5v450q0 10 4.5 16t17.5 6h109q14 0 17.5 -7t3.5 -15v-24
q1 0 1.5 -0.5t1.5 -0.5q33 25 77 40.5t80 15.5q53 0 83.5 -17.5t45.5 -46t18.5 -63.5t3.5 -70v-284zM166 618q0 -64 -28 -109.5t-69 -69.5q-22 -12 -37 5l-26 27q-11 11 -10 17t14 20q18 18 22 35t4 29q0 16 -7.5 29t-18.5 26q-13 14 -14 23.5t16 23.5l65 48q15 12 25.5 7.5
t22.5 -15.5q20 -19 30.5 -46t10.5 -50z" />
    <glyph glyph-name="Omacron" unicode="&#x14c;" horiz-adv-x="689" 
d="M631 341q0 -57 -8.5 -118.5t-38.5 -113t-87.5 -85t-155.5 -33.5q-65 0 -111.5 15.5t-78 41.5t-50 61t-28.5 74t-13 79.5t-3 78.5q0 29 3.5 65.5t14 73t29.5 71.5t50.5 62t77.5 43.5t110 16.5q94 0 150.5 -29.5t87.5 -77t41 -107t10 -118.5zM468 330q0 107 -26.5 156.5
t-98.5 49.5q-67 0 -92.5 -50.5t-25.5 -155.5q0 -101 24.5 -151.5t93.5 -50.5q71 0 98 49.5t27 152.5zM190 709q-21 0 -21 21v70q0 21 21 21h304q12 0 16 -4.5t4 -15.5v-71q0 -11 -4 -16t-16 -5h-304z" />
    <glyph glyph-name="omacron" unicode="&#x14d;" horiz-adv-x="549" 
d="M508 254q0 -41 -6 -87t-30 -85t-71.5 -64.5t-129.5 -25.5q-81 0 -126.5 25.5t-68.5 64.5t-28.5 85t-5.5 87q0 34 7 77t30.5 81.5t69 64.5t122.5 26t124 -22.5t72 -58.5t33 -80.5t8 -87.5zM352 248q0 63 -14.5 94t-64.5 31q-46 0 -61.5 -32t-15.5 -93q0 -66 15 -96t60 -30
q50 0 65.5 31t15.5 95zM123 564q-21 0 -21 21v71q0 21 21 21h305q12 0 16 -5t4 -15v-72q0 -11 -4 -16t-16 -5h-305z" />
    <glyph glyph-name="Obreve" unicode="&#x14e;" horiz-adv-x="689" 
d="M631 341q0 -57 -8.5 -118.5t-38.5 -113t-87.5 -85t-155.5 -33.5q-65 0 -111.5 15.5t-78 41.5t-50 61t-28.5 74t-13 79.5t-3 78.5q0 29 3.5 65.5t14 73t29.5 71.5t50.5 62t77.5 43.5t110 16.5q94 0 150.5 -29.5t87.5 -77t41 -107t10 -118.5zM468 330q0 107 -26.5 156.5
t-98.5 49.5q-67 0 -92.5 -50.5t-25.5 -155.5q0 -101 24.5 -151.5t93.5 -50.5q71 0 98 49.5t27 152.5zM342 693q-29 0 -57 6t-53.5 19t-47 33t-35.5 49q-6 13 -9 24t9 19l36 29q13 9 19 5.5t16 -14.5q28 -33 55.5 -48.5t64.5 -15.5q33 0 61.5 13t57.5 51q9 12 16.5 14
t19.5 -6l35 -21q14 -9 11 -20.5t-11 -25.5q-31 -57 -79.5 -84t-108.5 -27z" />
    <glyph glyph-name="obreve" unicode="&#x14f;" horiz-adv-x="549" 
d="M508 254q0 -41 -6 -87t-30 -85t-71.5 -64.5t-129.5 -25.5q-81 0 -126.5 25.5t-68.5 64.5t-28.5 85t-5.5 87q0 34 7 77t30.5 81.5t69 64.5t122.5 26t124 -22.5t72 -58.5t33 -80.5t8 -87.5zM352 248q0 63 -14.5 94t-64.5 31q-46 0 -61.5 -32t-15.5 -93q0 -66 15 -96t60 -30
q50 0 65.5 31t15.5 95zM270 533q-28 0 -57 7.5t-54.5 22.5t-47 37t-34.5 52q-5 13 -8 23.5t8 19.5l36 29q14 9 20 5.5t16 -14.5q32 -38 58 -55t63 -17q33 0 59.5 15.5t58.5 56.5q9 11 16 13.5t19 -5.5l36 -22q14 -8 11 -19.5t-11 -26.5q-31 -60 -80 -91t-109 -31z" />
    <glyph glyph-name="Ohungarumlaut" unicode="&#x150;" horiz-adv-x="689" 
d="M631 341q0 -57 -8.5 -118.5t-38.5 -113t-87.5 -85t-155.5 -33.5q-65 0 -111.5 15.5t-78 41.5t-50 61t-28.5 74t-13 79.5t-3 78.5q0 29 3.5 65.5t14 73t29.5 71.5t50.5 62t77.5 43.5t110 16.5q94 0 150.5 -29.5t87.5 -77t41 -107t10 -118.5zM468 330q0 107 -26.5 156.5
t-98.5 49.5q-67 0 -92.5 -50.5t-25.5 -155.5q0 -101 24.5 -151.5t93.5 -50.5q71 0 98 49.5t27 152.5zM395 814q14 -18 -7 -29l-168 -94q-7 -4 -13 -5t-13 7l-38 47q-5 5 -5 10.5t8 12.5l152 123q10 8 17 5.5t12 -7.5zM623 814q14 -18 -7 -29l-167 -94q-7 -4 -13.5 -5
t-13.5 7l-37 47q-5 5 -5.5 10.5t8.5 12.5l152 123q9 8 16.5 5.5t12.5 -7.5z" />
    <glyph glyph-name="ohungarumlaut" unicode="&#x151;" horiz-adv-x="549" 
d="M508 254q0 -41 -6 -87t-30 -85t-71.5 -64.5t-129.5 -25.5q-81 0 -126.5 25.5t-68.5 64.5t-28.5 85t-5.5 87q0 34 7 77t30.5 81.5t69 64.5t122.5 26t124 -22.5t72 -58.5t33 -80.5t8 -87.5zM352 248q0 63 -14.5 94t-64.5 31q-46 0 -61.5 -32t-15.5 -93q0 -66 15 -96t60 -30
q50 0 65.5 31t15.5 95zM333 729q19 -11 5 -30l-118 -151q-5 -7 -11 -10.5t-14 1.5l-53 28q-6 4 -9 9t3 15l92 172q7 11 14.5 12t13.5 -3zM507 729q19 -10 6 -30l-118 -151q-5 -7 -11 -10.5t-14 1.5l-53 28q-6 4 -9 9t3 15l92 172q6 11 13.5 12t14.5 -3z" />
    <glyph glyph-name="Racute" unicode="&#x154;" horiz-adv-x="600" 
d="M566 25q5 -11 1.5 -18t-14.5 -7h-123q-15 0 -24.5 4.5t-14.5 17.5l-102 231h-65v-231q0 -8 -3.5 -15t-17.5 -7h-115q-14 0 -18.5 6t-4.5 16v621q0 9 4.5 15.5t18.5 6.5h245q40 0 79.5 -12t70.5 -36.5t50 -63t19 -91.5q0 -25 -5.5 -51.5t-18.5 -50.5t-34 -44.5t-51 -34.5z
M388 460q0 39 -23.5 55t-58.5 16h-82v-149h80q13 0 28 3t27.5 11t20.5 23.5t8 40.5zM457 805q13 -19 -9 -29l-176 -77q-8 -3 -14 -3t-12 8l-33 50q-4 6 -4 12t10 12l163 107q11 7 18 4t11 -10z" />
    <glyph glyph-name="racute" unicode="&#x155;" horiz-adv-x="411" 
d="M216 424l2 -2q13 14 31.5 26.5t38.5 23t39.5 17.5t35.5 10q16 2 23.5 -1t9.5 -22l12 -98q1 -7 1 -11.5t-3 -8t-9 -6t-17 -4.5q-90 -17 -164 -43v-283q0 -8 -3.5 -15t-17.5 -7h-110q-13 0 -17.5 6t-4.5 16v450q0 10 4.5 16t17.5 6h109q14 0 18 -7.5t4 -14.5v-48zM327 729
q21 -11 5 -30l-118 -151q-5 -7 -10.5 -10.5t-14.5 1.5l-52 28q-7 4 -9.5 9t2.5 15l93 172q6 11 13.5 12t14.5 -3z" />
    <glyph glyph-name="Rcommaaccent" unicode="&#x156;" horiz-adv-x="600" 
d="M566 25q5 -11 1.5 -18t-14.5 -7h-123q-15 0 -24.5 4.5t-14.5 17.5l-102 231h-65v-231q0 -8 -3.5 -15t-17.5 -7h-115q-14 0 -18.5 6t-4.5 16v621q0 9 4.5 15.5t18.5 6.5h245q40 0 79.5 -12t70.5 -36.5t50 -63t19 -91.5q0 -25 -5.5 -51.5t-18.5 -50.5t-34 -44.5t-51 -34.5z
M388 460q0 39 -23.5 55t-58.5 16h-82v-149h80q13 0 28 3t27.5 11t20.5 23.5t8 40.5zM382 -130q0 -64 -28 -109.5t-69 -69.5q-22 -12 -37 5l-26 27q-11 11 -10 17t14 20q18 18 22 35t4 29q0 16 -7.5 29t-18.5 26q-13 14 -14 23.5t16 23.5l65 48q15 12 25.5 7.5t22.5 -15.5
q20 -19 30.5 -46t10.5 -50z" />
    <glyph glyph-name="rcommaaccent" unicode="&#x157;" horiz-adv-x="411" 
d="M216 424l2 -2q13 14 31.5 26.5t38.5 23t39.5 17.5t35.5 10q16 2 23.5 -1t9.5 -22l12 -98q1 -7 1 -11.5t-3 -8t-9 -6t-17 -4.5q-90 -17 -164 -43v-283q0 -8 -3.5 -15t-17.5 -7h-110q-13 0 -17.5 6t-4.5 16v450q0 10 4.5 16t17.5 6h109q14 0 18 -7.5t4 -14.5v-48zM221 -150
q0 -64 -28 -109.5t-69 -69.5q-22 -12 -37 5l-26 27q-11 11 -10 17t14 20q18 18 22 35t4 29q0 16 -7.5 29t-18.5 26q-13 14 -14 23.5t16 23.5l65 48q15 12 25.5 7.5t22.5 -15.5q20 -19 30.5 -46t10.5 -50z" />
    <glyph glyph-name="Rcaron" unicode="&#x158;" horiz-adv-x="600" 
d="M566 25q5 -11 1.5 -18t-14.5 -7h-123q-15 0 -24.5 4.5t-14.5 17.5l-102 231h-65v-231q0 -8 -3.5 -15t-17.5 -7h-115q-14 0 -18.5 6t-4.5 16v621q0 9 4.5 15.5t18.5 6.5h245q40 0 79.5 -12t70.5 -36.5t50 -63t19 -91.5q0 -25 -5.5 -51.5t-18.5 -50.5t-34 -44.5t-51 -34.5z
M388 460q0 39 -23.5 55t-58.5 16h-82v-149h80q13 0 28 3t27.5 11t20.5 23.5t8 40.5zM286 803l134 80q10 7 15.5 8.5t13.5 -6.5l33 -34q7 -8 7.5 -12.5t-7.5 -13.5l-123 -115q-8 -8 -15 -11.5t-24 -3.5h-64q-17 0 -24.5 4.5t-15.5 12.5l-121 111q-9 10 -8.5 15t8.5 12l32 35
q7 8 13 6.5t15 -7.5z" />
    <glyph glyph-name="rcaron" unicode="&#x159;" horiz-adv-x="411" 
d="M216 424l2 -2q13 14 31.5 26.5t38.5 23t39.5 17.5t35.5 10q16 2 23.5 -1t9.5 -22l12 -98q1 -7 1 -11.5t-3 -8t-9 -6t-17 -4.5q-90 -17 -164 -43v-283q0 -8 -3.5 -15t-17.5 -7h-110q-13 0 -17.5 6t-4.5 16v450q0 10 4.5 16t17.5 6h109q14 0 18 -7.5t4 -14.5v-48zM188 638
l131 102q9 7 15 8t14 -7l35 -33q8 -7 8.5 -12.5t-7.5 -14.5l-123 -136q-8 -8 -14 -11.5t-25 -3.5h-64q-18 0 -25 4t-15 14l-121 133q-8 9 -7.5 13.5t8.5 12.5l34 34q8 8 14 7t15 -9z" />
    <glyph glyph-name="Sacute" unicode="&#x15a;" horiz-adv-x="581" 
d="M274 -9q-16 0 -40 1.5t-51 5t-54.5 9.5t-51.5 15q-25 10 -28 19t0 23l12 58q5 20 12 22t27 -1l40 -4.5t45 -4.5t46 -3.5t44 -1.5q51 0 74.5 16t23.5 48q0 18 -5 29.5t-16.5 19.5t-29 13.5t-42.5 10.5q-43 9 -85 21.5t-75 34.5t-53.5 57t-20.5 89q0 49 17 87t48.5 63.5
t76.5 39t100 13.5q14 0 36.5 -0.5t49 -3.5t54 -9t51.5 -16q25 -9 28 -18.5t1 -23.5l-14 -59q-2 -10 -5 -14.5t-8 -6t-12.5 -1t-17.5 1.5q-34 5 -69.5 8t-81.5 3q-44 0 -65.5 -14t-21.5 -46q0 -16 4.5 -26t15 -17t27.5 -11.5t42 -9.5q43 -9 85 -21t75 -34t53.5 -58.5
t20.5 -95.5t-22 -99t-58.5 -64t-84 -34.5t-97.5 -10.5zM433 805q13 -19 -9 -29l-176 -77q-8 -3 -14 -3t-12 8l-33 50q-4 6 -4 12t10 12l163 107q11 7 18 4t11 -10z" />
    <glyph glyph-name="sacute" unicode="&#x15b;" horiz-adv-x="488" 
d="M451 156q0 -47 -18.5 -78.5t-49.5 -50.5t-70.5 -27.5t-82.5 -8.5q-18 0 -39 1.5t-42.5 4.5t-41 7t-34.5 9q-25 9 -32 18.5t-2 29.5l11 48q3 14 9 17t23 0q35 -6 76 -9.5t67 -3.5q38 0 54 8.5t16 28.5q0 22 -12 29.5t-44 11.5q-41 6 -76.5 14t-62.5 24t-42.5 43t-15.5 71
q0 40 15.5 70t42.5 50t64.5 30t81.5 10q17 0 37.5 -1.5t41.5 -4t40.5 -6.5t35.5 -10q20 -7 29.5 -14.5t4.5 -26.5l-11 -51q-4 -14 -8.5 -17t-21.5 -1l-37 4.5t-39.5 4t-36.5 2.5t-29 1q-38 1 -47.5 -8.5t-9.5 -25.5q0 -19 17.5 -24.5t44.5 -10.5q39 -5 74 -12.5t61.5 -24.5
t42.5 -45.5t16 -75.5zM377 729q21 -11 5 -30l-118 -151q-5 -7 -10.5 -10.5t-14.5 1.5l-52 28q-7 4 -9.5 9t2.5 15l93 172q6 11 13.5 12t14.5 -3z" />
    <glyph glyph-name="Scircumflex" unicode="&#x15c;" horiz-adv-x="581" 
d="M274 -9q-16 0 -40 1.5t-51 5t-54.5 9.5t-51.5 15q-25 10 -28 19t0 23l12 58q5 20 12 22t27 -1l40 -4.5t45 -4.5t46 -3.5t44 -1.5q51 0 74.5 16t23.5 48q0 18 -5 29.5t-16.5 19.5t-29 13.5t-42.5 10.5q-43 9 -85 21.5t-75 34.5t-53.5 57t-20.5 89q0 49 17 87t48.5 63.5
t76.5 39t100 13.5q14 0 36.5 -0.5t49 -3.5t54 -9t51.5 -16q25 -9 28 -18.5t1 -23.5l-14 -59q-2 -10 -5 -14.5t-8 -6t-12.5 -1t-17.5 1.5q-34 5 -69.5 8t-81.5 3q-44 0 -65.5 -14t-21.5 -46q0 -16 4.5 -26t15 -17t27.5 -11.5t42 -9.5q43 -9 85 -21t75 -34t53.5 -58.5
t20.5 -95.5t-22 -99t-58.5 -64t-84 -34.5t-97.5 -10.5zM159 693q-10 -8 -15.5 -8.5t-13.5 7.5l-32 34q-8 8 -8.5 12.5t7.5 14.5l123 112q9 8 15.5 13t23.5 5h64q18 0 24.5 -3.5t15.5 -11.5l123 -114q9 -8 8 -13.5t-9 -13.5l-33 -35q-8 -8 -13 -6.5t-15 8.5l-135 87z" />
    <glyph glyph-name="scircumflex" unicode="&#x15d;" horiz-adv-x="488" 
d="M451 156q0 -47 -18.5 -78.5t-49.5 -50.5t-70.5 -27.5t-82.5 -8.5q-18 0 -39 1.5t-42.5 4.5t-41 7t-34.5 9q-25 9 -32 18.5t-2 29.5l11 48q3 14 9 17t23 0q35 -6 76 -9.5t67 -3.5q38 0 54 8.5t16 28.5q0 22 -12 29.5t-44 11.5q-41 6 -76.5 14t-62.5 24t-42.5 43t-15.5 71
q0 40 15.5 70t42.5 50t64.5 30t81.5 10q17 0 37.5 -1.5t41.5 -4t40.5 -6.5t35.5 -10q20 -7 29.5 -14.5t4.5 -26.5l-11 -51q-4 -14 -8.5 -17t-21.5 -1l-37 4.5t-39.5 4t-36.5 2.5t-29 1q-38 1 -47.5 -8.5t-9.5 -25.5q0 -19 17.5 -24.5t44.5 -10.5q39 -5 74 -12.5t61.5 -24.5
t42.5 -45.5t16 -75.5zM110 531q-10 -8 -15.5 -9t-13.5 7l-35 34q-8 7 -8 12t8 14l121 133q8 9 15 13.5t25 4.5h64q19 0 25 -3.5t14 -11.5l122 -137q8 -9 8 -14t-8 -12l-35 -33q-9 -8 -14.5 -7t-14.5 8l-132 102z" />
    <glyph glyph-name="Scedilla" unicode="&#x15e;" horiz-adv-x="581" 
d="M305 -127q0 21 -17.5 24.5t-55.5 5.5q-23 2 -15 24l23 65q-18 1 -38.5 3t-42 5.5t-43 8.5t-39.5 13q-25 10 -28 19t0 23l12 58q5 20 12 22t27 -1l40 -4.5t45 -4.5t46 -3.5t44 -1.5q51 0 74.5 16t23.5 48q0 18 -5 29.5t-16.5 19.5t-29 13.5t-42.5 10.5q-43 9 -85 21.5
t-75 34.5t-53.5 57t-20.5 89q0 49 17 87t48.5 63.5t76.5 39t100 13.5q14 0 36.5 -0.5t49 -3.5t54 -9t51.5 -16q25 -9 28 -18.5t1 -23.5l-14 -59q-2 -10 -5 -14.5t-8 -6t-12.5 -1t-17.5 1.5q-34 5 -69.5 8t-81.5 3q-44 0 -65.5 -14t-21.5 -46q0 -16 4.5 -26t15 -17
t27.5 -11.5t42 -9.5q43 -9 85 -21t75 -34t53.5 -58.5t20.5 -95.5q0 -55 -19 -93.5t-51.5 -62.5t-74.5 -36t-88 -15l-15 -40q33 -1 53.5 -8t32 -18.5t15 -25t3.5 -28.5q0 -45 -33 -75t-104 -30q-8 0 -18.5 0.5t-22.5 2t-23.5 4t-20.5 5.5q-11 4 -9 12l9 41q1 7 12 6
q15 -2 33 -4t31 -2q23 0 41 7t18 34z" />
    <glyph glyph-name="scedilla" unicode="&#x15f;" horiz-adv-x="488" 
d="M269 -127q0 21 -17.5 24.5t-55.5 5.5q-23 2 -15 24l23 65q-34 2 -70 7.5t-61 13.5q-25 9 -32 18.5t-2 29.5l11 48q3 14 9 17t23 0q35 -6 76 -9.5t67 -3.5q38 0 54 8.5t16 28.5q0 22 -12 29.5t-44 11.5q-41 6 -76.5 14t-62.5 24t-42.5 43t-15.5 71q0 40 15.5 70t42.5 50
t64.5 30t81.5 10q17 0 37.5 -1.5t41.5 -4t40.5 -6.5t35.5 -10q20 -7 29.5 -14.5t4.5 -26.5l-11 -51q-4 -14 -8.5 -17t-21.5 -1l-37 4.5t-39.5 4t-36.5 2.5t-29 1q-38 1 -47.5 -8.5t-9.5 -25.5q0 -19 17.5 -24.5t44.5 -10.5q39 -5 74 -12.5t61.5 -24.5t42.5 -45.5t16 -75.5
q0 -41 -15 -70.5t-40 -49t-58 -30t-70 -13.5l-16 -41q33 -1 53.5 -8t32 -18.5t15 -25t3.5 -28.5q0 -45 -33 -75t-104 -30q-8 0 -18.5 0.5t-22.5 2t-23.5 4t-20.5 5.5q-11 4 -9 12l9 41q1 7 12 6q15 -2 33 -4t31 -2q23 0 41 7t18 34z" />
    <glyph glyph-name="Tcommaaccent" unicode="&#x162;" horiz-adv-x="521" 
d="M509 552q0 -9 -4.5 -15t-17.5 -6h-148v-509q0 -8 -3.5 -15t-17.5 -7h-115q-13 0 -17.5 6t-4.5 16v509h-147q-14 0 -18 6t-4 15v91q0 10 4 16t18 6h453q22 0 22 -22v-91zM335 -150q0 -64 -28 -109.5t-69 -69.5q-22 -12 -37 5l-26 27q-11 11 -10 17t14 20q18 18 22 35t4 29
q0 16 -7.5 29t-18.5 26q-13 14 -14 23.5t16 23.5l65 48q15 12 25.5 7.5t22.5 -15.5q20 -19 30.5 -46t10.5 -50z" />
    <glyph glyph-name="tcommaaccent" unicode="&#x163;" horiz-adv-x="409" 
d="M401 45q3 -11 -2.5 -20t-15.5 -12q-18 -6 -38.5 -10t-40.5 -6.5t-37.5 -3.5t-29.5 -1q-47 0 -76 13.5t-45 35.5t-21.5 50.5t-5.5 59.5v223h-44q-12 0 -16.5 5.5t-4.5 16.5v75q0 11 4.5 16.5t16.5 5.5h45v98q0 12 6 17.5t16 8.5l101 27q11 4 18 -0.5t7 -16.5v-134h102
q14 0 17.5 -5t3.5 -16v-76q0 -11 -3.5 -16.5t-17.5 -5.5h-103l1 -186q0 -14 1.5 -24t7.5 -16.5t18 -10t34 -3.5q12 0 31 1t38 3q10 0 16 -2t8 -19zM282 -150q0 -64 -28 -109.5t-69 -69.5q-22 -12 -37 5l-26 27q-11 11 -10 17t14 20q18 18 22 35t4 29q0 16 -7.5 29t-18.5 26
q-13 14 -14 23.5t16 23.5l65 48q15 12 25.5 7.5t22.5 -15.5q20 -19 30.5 -46t10.5 -50z" />
    <glyph glyph-name="Tcaron" unicode="&#x164;" horiz-adv-x="521" 
d="M509 552q0 -9 -4.5 -15t-17.5 -6h-148v-509q0 -8 -3.5 -15t-17.5 -7h-115q-13 0 -17.5 6t-4.5 16v509h-147q-14 0 -18 6t-4 15v91q0 10 4 16t18 6h453q22 0 22 -22v-91zM258 803l134 80q10 7 15.5 8.5t13.5 -6.5l33 -34q7 -8 7.5 -12.5t-7.5 -13.5l-123 -115
q-8 -8 -15 -11.5t-24 -3.5h-64q-17 0 -24.5 4.5t-15.5 12.5l-121 111q-9 10 -8.5 15t8.5 12l32 35q7 8 13 6.5t15 -7.5z" />
    <glyph glyph-name="tcaron" unicode="&#x165;" horiz-adv-x="473" 
d="M485 692q0 -64 -28 -109.5t-69 -69.5q-22 -12 -37 5l-26 27q-11 11 -10 17t14 20q18 18 22 35t4 29q0 16 -7.5 29t-18.5 26q-13 14 -14 23.5t16 23.5l65 48q15 12 25.5 7.5t22.5 -15.5q20 -19 30.5 -46t10.5 -50zM401 45q3 -11 -2.5 -20t-15.5 -12q-18 -6 -38.5 -10
t-40.5 -6.5t-37.5 -3.5t-29.5 -1q-47 0 -76 13.5t-45 35.5t-21.5 50.5t-5.5 59.5v223h-44q-12 0 -16.5 5.5t-4.5 16.5v75q0 11 4.5 16.5t16.5 5.5h45v98q0 12 6 17.5t16 8.5l101 27q11 4 18 -0.5t7 -16.5v-134h102q14 0 17.5 -5t3.5 -16v-76q0 -11 -3.5 -16.5t-17.5 -5.5
h-103l1 -186q0 -14 1.5 -24t7.5 -16.5t18 -10t34 -3.5q12 0 31 1t38 3q10 0 16 -2t8 -19z" />
    <glyph glyph-name="Utilde" unicode="&#x168;" horiz-adv-x="656" 
d="M327 128q51 0 78 30t27 93l-1 391q0 10 5 16.5t18 6.5h115q14 0 17.5 -7.5t3.5 -15.5l-1 -395q0 -29 -3.5 -58.5t-15.5 -60.5q-15 -37 -40.5 -63t-58 -42.5t-69.5 -24t-75 -7.5q-63 -1 -111.5 17.5t-81.5 52.5t-50 81.5t-17 104.5v395q0 10 4.5 16.5t17.5 6.5h115
q14 0 17.5 -7.5t3.5 -15.5v-391q0 -123 102 -123zM417 694q-17 0 -38.5 7.5t-43.5 16.5t-42.5 16.5t-36.5 7.5q-12 0 -27 -6.5t-32 -30.5q-5 -8 -9 -9.5t-16 4.5l-38 17q-3 2 -7.5 7.5t-0.5 15.5q24 62 59 87.5t70 25.5q21 0 43 -7.5t43 -17t40.5 -17t34.5 -7.5q33 0 56 38
q5 8 10.5 8.5t16.5 -4.5l37 -20q14 -7 9 -23q-26 -63 -58 -86t-70 -23z" />
    <glyph glyph-name="utilde" unicode="&#x169;" horiz-adv-x="555" 
d="M506 21q0 -10 -4.5 -15.5t-17.5 -5.5h-110q-14 0 -17.5 6.5t-3.5 14.5v25q-1 0 -1 0.5t-1 0.5q-34 -26 -77.5 -40.5t-79.5 -14.5q-53 0 -82.5 16t-44 42.5t-18 61t-3.5 72.5v287q0 8 3.5 15t17.5 7h110q12 0 16.5 -6t4.5 -16v-262q0 -38 13.5 -57.5t47.5 -19.5
q12 0 25 3.5t25.5 8t24 9.5t19.5 8v310q0 8 3.5 15t17.5 7h110q13 0 17.5 -6t4.5 -16v-450zM364 544q-17 0 -38.5 7.5t-43.5 16.5t-42.5 16.5t-36.5 7.5q-12 0 -27 -6.5t-32 -30.5q-5 -8 -9 -9.5t-16 4.5l-38 17q-3 2 -7.5 7.5t-0.5 15.5q24 62 59 87.5t70 25.5
q21 0 43 -7.5t43 -17t40.5 -17t34.5 -7.5q33 0 56 38q5 8 10.5 8.5t16.5 -4.5l37 -20q14 -7 9 -23q-26 -63 -58 -86t-70 -23z" />
    <glyph glyph-name="Umacron" unicode="&#x16a;" horiz-adv-x="656" 
d="M327 128q51 0 78 30t27 93l-1 391q0 10 5 16.5t18 6.5h115q14 0 17.5 -7.5t3.5 -15.5l-1 -395q0 -29 -3.5 -58.5t-15.5 -60.5q-15 -37 -40.5 -63t-58 -42.5t-69.5 -24t-75 -7.5q-63 -1 -111.5 17.5t-81.5 52.5t-50 81.5t-17 104.5v395q0 10 4.5 16.5t17.5 6.5h115
q14 0 17.5 -7.5t3.5 -15.5v-391q0 -123 102 -123zM177 709q-21 0 -21 21v70q0 21 21 21h304q12 0 16 -4.5t4 -15.5v-71q0 -11 -4 -16t-16 -5h-304z" />
    <glyph glyph-name="umacron" unicode="&#x16b;" horiz-adv-x="555" 
d="M506 21q0 -10 -4.5 -15.5t-17.5 -5.5h-110q-14 0 -17.5 6.5t-3.5 14.5v25q-1 0 -1 0.5t-1 0.5q-34 -26 -77.5 -40.5t-79.5 -14.5q-53 0 -82.5 16t-44 42.5t-18 61t-3.5 72.5v287q0 8 3.5 15t17.5 7h110q12 0 16.5 -6t4.5 -16v-262q0 -38 13.5 -57.5t47.5 -19.5
q12 0 25 3.5t25.5 8t24 9.5t19.5 8v310q0 8 3.5 15t17.5 7h110q13 0 17.5 -6t4.5 -16v-450zM123 564q-21 0 -21 21v71q0 21 21 21h305q12 0 16 -5t4 -15v-72q0 -11 -4 -16t-16 -5h-305z" />
    <glyph glyph-name="Ubreve" unicode="&#x16c;" horiz-adv-x="656" 
d="M327 128q51 0 78 30t27 93l-1 391q0 10 5 16.5t18 6.5h115q14 0 17.5 -7.5t3.5 -15.5l-1 -395q0 -29 -3.5 -58.5t-15.5 -60.5q-15 -37 -40.5 -63t-58 -42.5t-69.5 -24t-75 -7.5q-63 -1 -111.5 17.5t-81.5 52.5t-50 81.5t-17 104.5v395q0 10 4.5 16.5t17.5 6.5h115
q14 0 17.5 -7.5t3.5 -15.5v-391q0 -123 102 -123zM324 683q-28 0 -57 7.5t-54.5 22.5t-47 37t-34.5 52q-5 13 -8 23.5t8 19.5l36 29q14 9 20 5.5t16 -14.5q32 -38 58 -55t63 -17q33 0 59.5 15.5t58.5 56.5q9 11 16 13.5t19 -5.5l36 -22q14 -8 11 -19.5t-11 -26.5
q-31 -60 -80 -91t-109 -31z" />
    <glyph glyph-name="ubreve" unicode="&#x16d;" horiz-adv-x="555" 
d="M506 21q0 -10 -4.5 -15.5t-17.5 -5.5h-110q-14 0 -17.5 6.5t-3.5 14.5v25q-1 0 -1 0.5t-1 0.5q-34 -26 -77.5 -40.5t-79.5 -14.5q-53 0 -82.5 16t-44 42.5t-18 61t-3.5 72.5v287q0 8 3.5 15t17.5 7h110q12 0 16.5 -6t4.5 -16v-262q0 -38 13.5 -57.5t47.5 -19.5
q12 0 25 3.5t25.5 8t24 9.5t19.5 8v310q0 8 3.5 15t17.5 7h110q13 0 17.5 -6t4.5 -16v-450zM272 533q-28 0 -57 7.5t-54.5 22.5t-47 37t-34.5 52q-5 13 -8 23.5t8 19.5l36 29q14 9 20 5.5t16 -14.5q32 -38 58 -55t63 -17q33 0 59.5 15.5t58.5 56.5q9 11 16 13.5t19 -5.5
l36 -22q14 -8 11 -19.5t-11 -26.5q-31 -60 -80 -91t-109 -31z" />
    <glyph glyph-name="Uring" unicode="&#x16e;" horiz-adv-x="656" 
d="M327 128q51 0 78 30t27 93l-1 391q0 10 5 16.5t18 6.5h115q14 0 17.5 -7.5t3.5 -15.5l-1 -395q0 -29 -3.5 -58.5t-15.5 -60.5q-15 -37 -40.5 -63t-58 -42.5t-69.5 -24t-75 -7.5q-63 -1 -111.5 17.5t-81.5 52.5t-50 81.5t-17 104.5v395q0 10 4.5 16.5t17.5 6.5h115
q14 0 17.5 -7.5t3.5 -15.5v-391q0 -123 102 -123zM331 674q-25 0 -48 9t-41 25t-28.5 38.5t-10.5 49.5t10.5 49t28.5 38t41 25t48 9t48 -10t39.5 -26.5t26.5 -38.5t10 -46q0 -25 -10 -47.5t-26.5 -39t-39.5 -26t-48 -9.5zM331 843q-19 0 -32.5 -14t-13.5 -33q0 -22 13 -35
t33 -13q18 0 31 14t13 34q0 19 -13 33t-31 14z" />
    <glyph glyph-name="uring" unicode="&#x16f;" horiz-adv-x="555" 
d="M506 21q0 -10 -4.5 -15.5t-17.5 -5.5h-110q-14 0 -17.5 6.5t-3.5 14.5v25q-1 0 -1 0.5t-1 0.5q-34 -26 -77.5 -40.5t-79.5 -14.5q-53 0 -82.5 16t-44 42.5t-18 61t-3.5 72.5v287q0 8 3.5 15t17.5 7h110q12 0 16.5 -6t4.5 -16v-262q0 -38 13.5 -57.5t47.5 -19.5
q12 0 25 3.5t25.5 8t24 9.5t19.5 8v310q0 8 3.5 15t17.5 7h110q13 0 17.5 -6t4.5 -16v-450zM278 530q-25 0 -48 9t-41 25t-28.5 38.5t-10.5 49.5t10.5 49t28.5 38t41 25t48 9t48 -10t39.5 -26.5t26.5 -38.5t10 -46q0 -25 -10 -47.5t-26.5 -39t-39.5 -26t-48 -9.5zM278 699
q-19 0 -32.5 -14t-13.5 -33q0 -22 13 -35t33 -13q18 0 31 14t13 34q0 19 -13 33t-31 14z" />
    <glyph glyph-name="Uhungarumlaut" unicode="&#x170;" horiz-adv-x="656" 
d="M327 128q51 0 78 30t27 93l-1 391q0 10 5 16.5t18 6.5h115q14 0 17.5 -7.5t3.5 -15.5l-1 -395q0 -29 -3.5 -58.5t-15.5 -60.5q-15 -37 -40.5 -63t-58 -42.5t-69.5 -24t-75 -7.5q-63 -1 -111.5 17.5t-81.5 52.5t-50 81.5t-17 104.5v395q0 10 4.5 16.5t17.5 6.5h115
q14 0 17.5 -7.5t3.5 -15.5v-391q0 -123 102 -123zM386 814q14 -18 -7 -29l-168 -94q-7 -4 -13 -5t-13 7l-38 47q-5 5 -5 10.5t8 12.5l152 123q10 8 17 5.5t12 -7.5zM614 814q14 -18 -7 -29l-167 -94q-7 -4 -13.5 -5t-13.5 7l-37 47q-5 5 -5.5 10.5t8.5 12.5l152 123
q9 8 16.5 5.5t12.5 -7.5z" />
    <glyph glyph-name="uhungarumlaut" unicode="&#x171;" horiz-adv-x="555" 
d="M506 21q0 -10 -4.5 -15.5t-17.5 -5.5h-110q-14 0 -17.5 6.5t-3.5 14.5v25q-1 0 -1 0.5t-1 0.5q-34 -26 -77.5 -40.5t-79.5 -14.5q-53 0 -82.5 16t-44 42.5t-18 61t-3.5 72.5v287q0 8 3.5 15t17.5 7h110q12 0 16.5 -6t4.5 -16v-262q0 -38 13.5 -57.5t47.5 -19.5
q12 0 25 3.5t25.5 8t24 9.5t19.5 8v310q0 8 3.5 15t17.5 7h110q13 0 17.5 -6t4.5 -16v-450zM328 729q19 -11 5 -30l-118 -151q-5 -7 -11 -10.5t-14 1.5l-53 28q-6 4 -9 9t3 15l92 172q7 11 14.5 12t13.5 -3zM502 729q19 -10 6 -30l-118 -151q-5 -7 -11 -10.5t-14 1.5l-53 28
q-6 4 -9 9t3 15l92 172q6 11 13.5 12t14.5 -3z" />
    <glyph glyph-name="Wcircumflex" unicode="&#x174;" horiz-adv-x="877" 
d="M438 267l-28 -87l-47 -151q-5 -13 -12 -21t-30 -8h-93q-20 0 -29 7t-13 21l-171 612q-3 11 0 18t17 7h114q17 0 24.5 -6t11.5 -21l32 -128l12 -48l11 -43.5l8.5 -32.5t4.5 -16l36 -155h4l31 109q1 3 8 28.5t16 55.5l16.5 55.5t8.5 28.5l-47 148q-3 9 -0.5 17t13.5 8h106
q17 0 25.5 -5.5t12.5 -21.5l36 -138l13.5 -52t12.5 -47t9.5 -34.5t4.5 -16.5l33 -135h5l30 147q1 3 4 16.5l7.5 33.5l10.5 44.5l12 49.5l31 132q4 15 13 21t27 6h108q14 0 17 -7.5t-1 -18.5l-161 -610q-4 -14 -13 -21.5t-30 -7.5h-91q-23 0 -30.5 8t-12.5 21l-46 151l-26 87
h-5zM283 693q-10 -8 -15.5 -8.5t-13.5 7.5l-32 34q-8 8 -8.5 12.5t7.5 14.5l123 112q9 8 15.5 13t23.5 5h64q18 0 24.5 -3.5t15.5 -11.5l123 -114q9 -8 8 -13.5t-9 -13.5l-33 -35q-8 -8 -13 -6.5t-15 8.5l-135 87z" />
    <glyph glyph-name="wcircumflex" unicode="&#x175;" horiz-adv-x="759" 
d="M432 469l27 -89.5l26 -89.5l30 -104h4l32 125l41 159q4 14 8.5 18.5t15.5 4.5h112q14 0 16 -6.5t-1 -14.5l-138 -441q-5 -15 -12 -23t-27 -8h-84q-17 0 -24 5.5t-13 23.5l-24 72l-33 98h-3l-37 -101l-25 -69q-5 -13 -11.5 -21t-28.5 -8h-77q-20 0 -27.5 6t-12.5 22
l-149 443q-1 3 -1 8q0 14 16 14h113q13 0 19 -4t10 -17l45 -167l35 -128h5l36 113l27 79l-35 102q-3 8 0.5 15t14.5 7h100q15 0 20 -3.5t10 -20.5zM237 531q-10 -8 -15.5 -9t-13.5 7l-35 34q-8 7 -8 12t8 14l121 133q8 9 15 13.5t25 4.5h64q19 0 25 -3.5t14 -11.5l122 -137
q8 -9 8 -14t-8 -12l-35 -33q-9 -8 -14.5 -7t-14.5 8l-132 102z" />
    </font>
</defs>
</svg>
