<?xml version="1.0" standalone="no"?>
<!DOCTYPE svg PUBLIC "-//W3C//DTD SVG 1.1//EN" "http://www.w3.org/Graphics/SVG/1.1/DTD/svg11.dtd" >
<svg>
<metadata>
Created by FontForge 20090622 at Wed Mar 14 14:07:38 2018
 By deploy user
Copyright 2011 The Montserrat Project Authors (https://github.com/JulietaUla/Montserrat)
</metadata>
<defs>
<font id="Montserrat-Regular" horiz-adv-x="0" >
  <font-face 
    font-family="Montserrat"
    font-weight="400"
    font-stretch="normal"
    units-per-em="1000"
    panose-1="0 0 5 0 0 0 0 0 0 0"
    ascent="800"
    descent="-200"
    x-height="526"
    cap-height="700"
    bbox="-823 -262 1586 1042"
    underline-thickness="50"
    underline-position="-50"
    unicode-range="U+000D-U+FB02"
  />
<missing-glyph horiz-adv-x="587" 
d="M40 0v700h507v-700h-507zM120 70h347v560h-347v-560z" />
    <glyph glyph-name="fi" unicode="fi" horiz-adv-x="688" 
d="M111 591q0 72 41.5 114t117.5 42q66 0 105 -33l-24 -53q-31 26 -78 26q-93 0 -93 -99v-62h162v-60h-160v-466h-71v466h-94v60h94v65zM554 742q22 0 37 -14.5t15 -34.5q0 -22 -15 -37t-37 -15t-37 15t-15 36q0 20 15 35t37 15zM518 0v526h71v-526h-71z" />
    <glyph glyph-name="fl" unicode="fl" horiz-adv-x="608" 
d="M111 591q0 72 41.5 114t117.5 42q66 0 105 -33l-24 -53q-31 26 -78 26q-93 0 -93 -99v-62h162v-60h-160v-466h-71v466h-94v60h94v65zM438 742h71v-742h-71v742z" />
    <glyph glyph-name=".notdef" horiz-adv-x="587" 
d="M40 0v700h507v-700h-507zM120 70h347v560h-347v-560z" />
    <glyph glyph-name=".null" 
 />
    <glyph glyph-name="nonmarkingreturn" horiz-adv-x="333" 
 />
    <glyph glyph-name="NULL" 
 />
    <glyph glyph-name="NULL" 
 />
    <glyph glyph-name="CR" unicode="&#xd;" horiz-adv-x="262" 
 />
    <glyph glyph-name="space" unicode=" " horiz-adv-x="262" 
 />
    <glyph glyph-name="exclam" unicode="!" horiz-adv-x="260" 
d="M102 210l-14 490h84l-15 -490h-55zM130 -5q-22 0 -37.5 15.5t-15.5 36.5q0 22 15 36.5t38 14.5q22 0 37 -14.5t15 -36.5q0 -21 -15 -36.5t-37 -15.5z" />
    <glyph glyph-name="quotedbl" unicode="&#x22;" horiz-adv-x="373" 
d="M74 436l-5 264h63l-5 -264h-53zM245 436l-5 264h63l-5 -264h-53z" />
    <glyph glyph-name="numbersign" unicode="#" horiz-adv-x="696" 
d="M666 455h-148l-26 -210h142v-55h-149l-23 -190h-54l23 190h-205l-24 -190h-54l23 190h-142v55h149l26 210h-143v55h150l23 190h55l-24 -190h206l23 190h54l-23 -190h141v-55zM438 245l26 210h-205l-27 -210h206z" />
    <glyph glyph-name="dollar" unicode="$" horiz-adv-x="615" 
d="M568 185q0 -77 -59 -130.5t-173 -59.5v-115h-50v114q-73 4 -137.5 28.5t-101.5 62.5l29 57q35 -34 91.5 -57t118.5 -27v263q-51 13 -82.5 24t-68 32.5t-54 55.5t-17.5 81q0 77 56 129.5t166 61.5v115h50v-114q121 -5 203 -62l-25 -59q-83 53 -178 58v-265
q43 -10 68.5 -17.5t61 -23.5t54.5 -34.5t33.5 -48.5t14.5 -69zM137 516q0 -52 38.5 -79t110.5 -46v250q-74 -6 -111.5 -40.5t-37.5 -84.5zM336 58q79 6 119 39t40 84q0 54 -41 81t-118 46v-250z" />
    <glyph glyph-name="percent" unicode="%" horiz-adv-x="829" 
d="M200 325q-71 0 -114.5 52.5t-43.5 137.5t43.5 137.5t114.5 52.5q70 0 114 -52t44 -138t-44 -138t-114 -52zM146 0l478 700h59l-478 -700h-59zM200 370q49 0 78.5 38.5t29.5 106.5t-29.5 106.5t-78.5 38.5q-50 0 -79 -39t-29 -106t29 -106t79 -39zM629 -5q-70 0 -114 52.5
t-44 137.5t44 137.5t114 52.5q71 0 114.5 -52.5t43.5 -137.5t-43.5 -137.5t-114.5 -52.5zM629 40q50 0 79 39t29 106t-29 106t-79 39q-49 0 -78.5 -38.5t-29.5 -106.5t29.5 -106.5t78.5 -38.5z" />
    <glyph glyph-name="ampersand" unicode="&#x26;" horiz-adv-x="669" 
d="M656 36l-41 -47l-97 100q-89 -95 -234 -95q-103 0 -169 49.5t-66 128.5q0 63 40 113t136 105q-50 52 -69 88.5t-19 77.5q0 67 48 108t129 41q75 0 119 -37t44 -102q0 -52 -35 -93.5t-121 -91.5l192 -198q32 57 47 135l58 -18q-19 -94 -62 -161zM314 652q-52 0 -81.5 -26
t-29.5 -69q0 -31 16 -59t63 -76q76 44 105 75t29 68q0 40 -27 63.5t-75 23.5zM288 53q116 0 188 79l-211 217q-83 -47 -114.5 -85t-31.5 -85q0 -57 46.5 -91.5t122.5 -34.5z" />
    <glyph glyph-name="quotesingle" unicode="'" horiz-adv-x="202" 
d="M74 436l-5 264h63l-5 -264h-53z" />
    <glyph glyph-name="parenleft" unicode="(" horiz-adv-x="329" 
d="M220 -194q-116 190 -116 468q0 281 116 468h68q-114 -198 -114 -468t114 -468h-68z" />
    <glyph glyph-name="parenright" unicode=")" horiz-adv-x="329" 
d="M108 -194h-68q115 197 115 468t-115 468h68q117 -186 117 -468q0 -279 -117 -468z" />
    <glyph glyph-name="asterisk" unicode="*" horiz-adv-x="386" 
d="M364 631l-124 -70l124 -70l-23 -42l-125 73v-142h-46l1 142l-125 -73l-24 42l125 70l-125 70l24 43l125 -74l-1 142h46v-142l125 74z" />
    <glyph glyph-name="plus" unicode="+" horiz-adv-x="575" 
d="M505 379v-59h-186v-182h-63v182h-186v59h186v183h63v-183h186z" />
    <glyph glyph-name="comma" unicode="," horiz-adv-x="212" 
d="M107 104q23 0 38 -15.5t15 -38.5q0 -19 -14 -58l-42 -138h-48l34 145q-36 10 -36 51q0 23 15 38.5t38 15.5z" />
    <glyph glyph-name="hyphen" unicode="-" horiz-adv-x="382" 
d="M60 240v62h262v-62h-262z" />
    <glyph glyph-name="period" unicode="." horiz-adv-x="212" 
d="M106 -5q-22 0 -37.5 16t-15.5 39t15.5 38.5t37.5 15.5t38 -15.5t16 -38.5t-16 -39t-38 -16z" />
    <glyph glyph-name="slash" unicode="/" horiz-adv-x="335" 
d="M-25 -100l330 942h65l-330 -942h-65z" />
    <glyph glyph-name="zero" unicode="0" horiz-adv-x="662" 
d="M331 -6q-124 0 -201.5 96t-77.5 260t77.5 260t201.5 96t202 -96t78 -260t-78 -260t-202 -96zM331 60q93 0 149.5 76t56.5 214t-56.5 214t-149.5 76t-149.5 -76t-56.5 -214t56.5 -214t149.5 -76z" />
    <glyph glyph-name="one" unicode="1" horiz-adv-x="361" 
d="M9 700h237v-700h-72v636h-165v64z" />
    <glyph glyph-name="two" unicode="2" horiz-adv-x="568" 
d="M145 64h385v-64h-491v51l291 285q55 54 74.5 93.5t19.5 79.5q0 62 -42.5 96.5t-121.5 34.5q-123 0 -191 -78l-51 44q84 100 248 100q107 0 169.5 -50.5t62.5 -138.5q0 -54 -24 -104t-91 -115z" />
    <glyph glyph-name="three" unicode="3" horiz-adv-x="564" 
d="M290 400q110 -6 167.5 -59.5t57.5 -139.5q0 -92 -66 -149.5t-188 -57.5q-76 0 -143.5 24.5t-108.5 65.5l35 57q35 -36 93 -58.5t124 -22.5q86 0 133 37.5t47 103.5q0 65 -47 102t-142 37h-50v53l194 243h-358v64h450v-51z" />
    <glyph glyph-name="four" unicode="4" horiz-adv-x="661" 
d="M647 248v-64h-140v-184h-72v184h-395v52l371 464h80l-358 -452h304v162h70v-162h140z" />
    <glyph glyph-name="five" unicode="5" horiz-adv-x="566" 
d="M236 413q291 0 291 -207q0 -94 -65.5 -153t-188.5 -59q-75 0 -142.5 24.5t-108.5 65.5l35 57q35 -36 92 -58.5t123 -22.5q87 0 134.5 39t47.5 104q0 72 -53.5 109t-180.5 37h-149l36 351h383v-64h-320l-24 -223h90z" />
    <glyph glyph-name="six" unicode="6" horiz-adv-x="609" 
d="M342 419q105 0 170.5 -57.5t65.5 -152.5q0 -97 -67.5 -156t-171.5 -59q-139 0 -213 91.5t-74 258.5q0 174 87 268t233 94q104 0 166 -38l-29 -58q-49 33 -136 33q-116 0 -182 -73.5t-66 -213.5q0 -26 3 -57q26 57 83 88.5t131 31.5zM336 55q76 0 123.5 41.5t47.5 110.5
t-47.5 110t-128.5 41q-79 0 -129.5 -43.5t-50.5 -109.5q0 -62 49.5 -106t135.5 -44z" />
    <glyph glyph-name="seven" unicode="7" horiz-adv-x="589" 
d="M32 700h514v-51l-293 -649h-78l288 636h-360v-131h-71v195z" />
    <glyph glyph-name="eight" unicode="8" horiz-adv-x="638" 
d="M453 367q66 -22 101.5 -66t35.5 -106q0 -93 -73.5 -147t-198.5 -54q-126 0 -198 54t-72 147q0 127 135 172q-110 43 -110 154q0 85 66.5 135t178.5 50t179.5 -50t67.5 -135q0 -110 -112 -154zM145 519q0 -58 46 -92t127 -34t127.5 34t46.5 91q0 59 -47.5 93t-126.5 34
q-80 0 -126.5 -34t-46.5 -92zM318 55q93 0 145.5 38t52.5 103t-52.5 102.5t-145.5 37.5q-92 0 -144.5 -37.5t-52.5 -102.5q0 -66 52 -103.5t145 -37.5z" />
    <glyph glyph-name="nine" unicode="9" horiz-adv-x="609" 
d="M270 706q139 0 213 -91.5t74 -258.5q0 -174 -87 -268t-233 -94q-104 0 -166 38l29 58q50 -33 136 -33q116 0 182 73.5t66 213.5q0 26 -3 57q-26 -57 -83 -88.5t-131 -31.5q-105 0 -170.5 57.5t-65.5 152.5q0 97 67.5 156t171.5 59zM278 342q79 0 129.5 43.5t50.5 109.5
q0 62 -49.5 106t-135.5 44q-76 0 -123.5 -41.5t-47.5 -110.5t47.5 -110t128.5 -41z" />
    <glyph glyph-name="colon" unicode=":" horiz-adv-x="212" 
d="M106 421q-22 0 -37.5 16t-15.5 39t15.5 38.5t37.5 15.5t38 -15.5t16 -38.5t-16 -39t-38 -16zM106 -5q-22 0 -37.5 16t-15.5 39t15.5 38.5t37.5 15.5t38 -15.5t16 -38.5t-16 -39t-38 -16z" />
    <glyph glyph-name="semicolon" unicode=";" horiz-adv-x="212" 
d="M106 421q-22 0 -37.5 16t-15.5 39t15.5 38.5t37.5 15.5t38 -15.5t16 -38.5t-16 -39t-38 -16zM107 104q23 0 38 -15.5t15 -38.5q0 -19 -14 -58l-42 -138h-48l34 145q-36 10 -36 51q0 23 15 38.5t38 15.5z" />
    <glyph glyph-name="less" unicode="&#x3c;" horiz-adv-x="575" 
d="M505 558v-63l-368 -145l368 -145v-62l-435 174v66z" />
    <glyph glyph-name="equal" unicode="=" horiz-adv-x="575" 
d="M70 436v59h435v-59h-435zM70 205v59h435v-59h-435z" />
    <glyph glyph-name="greater" unicode="&#x3e;" horiz-adv-x="575" 
d="M70 558l435 -175v-66l-435 -174v62l368 145l-368 145v63z" />
    <glyph glyph-name="question" unicode="?" horiz-adv-x="567" 
d="M235 210q0 46 19 82.5t45.5 61.5t53.5 48t46 53t19 66q0 55 -43 88.5t-118 33.5q-124 0 -191 -81l-53 40q85 104 249 104q105 0 167.5 -47t62.5 -127q0 -47 -19 -84.5t-46 -62.5l-53.5 -48.5t-45.5 -55.5t-19 -71h-74zM272 -5q-22 0 -37 15.5t-15 36.5q0 22 15 36.5
t37 14.5q23 0 38 -14.5t15 -36.5q0 -21 -15.5 -36.5t-37.5 -15.5z" />
    <glyph glyph-name="at" unicode="@" horiz-adv-x="1033" 
d="M519 706q204 0 333.5 -122.5t129.5 -318.5q0 -127 -44 -198.5t-122 -71.5q-49 0 -79.5 29t-33.5 80q-30 -52 -82 -80.5t-118 -28.5q-107 0 -177.5 73t-70.5 186q0 112 70.5 184.5t177.5 72.5q134 0 198 -105v101h65v-379q0 -76 62 -76q47 0 74.5 56t27.5 156
q0 175 -114.5 283t-296.5 108q-183 0 -297.5 -111.5t-114.5 -289.5t113 -290.5t295 -112.5q107 0 192 44l17 -49q-89 -46 -209 -46q-205 0 -334 127t-129 327t130 326t337 126zM512 53q82 0 136 55.5t54 145.5q0 89 -54 144t-136 55q-84 0 -137.5 -55t-53.5 -144t53.5 -145
t137.5 -56z" />
    <glyph glyph-name="A" unicode="A" horiz-adv-x="717" 
d="M637 0l-84 187h-390l-84 -187h-77l320 700h73l320 -700h-78zM190 247h336l-168 376z" />
    <glyph glyph-name="B" unicode="B" horiz-adv-x="754" 
d="M555 361q69 -15 106.5 -59.5t37.5 -114.5q0 -90 -66.5 -138.5t-196.5 -48.5h-322v700h302q117 0 181.5 -47t64.5 -133q0 -116 -107 -159zM411 639h-223v-254h223q85 0 131 32.5t46 94.5t-46 94.5t-131 32.5zM435 61q190 0 190 132q0 131 -190 131h-247v-263h247z" />
    <glyph glyph-name="C" unicode="C" horiz-adv-x="719" 
d="M418 -6q-158 0 -262 101t-104 255t104.5 255t262.5 101q163 0 256 -102l-47 -47q-82 83 -207 83q-127 0 -211.5 -83t-84.5 -207t84.5 -207t211.5 -83q126 0 207 84l47 -47q-94 -103 -257 -103z" />
    <glyph glyph-name="D" unicode="D" horiz-adv-x="826" 
d="M114 0v700h285q167 0 271 -97.5t104 -252.5t-104 -252.5t-271 -97.5h-285zM188 64h207q138 0 222 79.5t84 206.5t-84 206.5t-222 79.5h-207v-572z" />
    <glyph glyph-name="E" unicode="E" horiz-adv-x="669" 
d="M188 64h421v-64h-495v700h480v-64h-406v-249h362v-63h-362v-260z" />
    <glyph glyph-name="F" unicode="F" horiz-adv-x="633" 
d="M594 636h-406v-275h362v-64h-362v-297h-74v700h480v-64z" />
    <glyph glyph-name="G" unicode="G" horiz-adv-x="773" 
d="M607 114v236h71v-267q-100 -89 -257 -89q-160 0 -264.5 101t-104.5 255t105 255t265 101q167 0 260 -101l-46 -47q-83 82 -211 82q-130 0 -215 -82.5t-85 -207.5t85 -207.5t214 -82.5q108 0 183 54z" />
    <glyph glyph-name="H" unicode="H" horiz-adv-x="813" 
d="M626 700h73v-700h-73v323h-438v-323h-74v700h74v-312h438v312z" />
    <glyph glyph-name="I" unicode="I" horiz-adv-x="302" 
d="M114 0v700h74v-700h-74z" />
    <glyph glyph-name="J" unicode="J" horiz-adv-x="501" 
d="M189 -6q-60 0 -111 26t-83 74l44 50q58 -86 151 -86q130 0 130 154v424h-256v64h329v-485q0 -221 -204 -221z" />
    <glyph glyph-name="K" unicode="K" horiz-adv-x="711" 
d="M617 0l-286 329l-143 -145v-184h-74v700h74v-423l411 423h85l-303 -317l324 -383h-88z" />
    <glyph glyph-name="L" unicode="L" horiz-adv-x="589" 
d="M114 0v700h74v-636h392v-64h-466z" />
    <glyph glyph-name="M" unicode="M" horiz-adv-x="955" 
d="M780 700h61v-700h-71v560l-275 -471h-35l-275 468v-557h-71v700h61l304 -519z" />
    <glyph glyph-name="N" unicode="N" horiz-adv-x="813" 
d="M626 700h73v-700h-61l-450 568v-568h-74v700h61l451 -568v568z" />
    <glyph glyph-name="O" unicode="O" horiz-adv-x="839" 
d="M420 -6q-159 0 -263.5 101.5t-104.5 254.5t104.5 254.5t263.5 101.5q158 0 262.5 -101t104.5 -255t-104.5 -255t-262.5 -101zM420 60q126 0 209.5 82.5t83.5 207.5t-83.5 207.5t-209.5 82.5q-127 0 -211 -82.5t-84 -207.5t84 -207.5t211 -82.5z" />
    <glyph glyph-name="P" unicode="P" horiz-adv-x="718" 
d="M376 700q134 0 210 -64t76 -176t-76 -175.5t-210 -63.5h-188v-221h-74v700h262zM374 286q104 0 159 45.5t55 128.5q0 85 -55 130.5t-159 45.5h-186v-350h186z" />
    <glyph glyph-name="Q" unicode="Q" horiz-adv-x="839" 
d="M783 -16l36 -43q-66 -80 -170 -80q-62 0 -117.5 30.5t-124.5 102.5q-154 5 -254.5 105.5t-100.5 250.5q0 153 104.5 254.5t263.5 101.5q158 0 262.5 -101t104.5 -255q0 -133 -80 -228.5t-209 -120.5q77 -81 152 -81q78 0 133 64zM125 350q0 -125 84 -207.5t211 -82.5
q126 0 209.5 82.5t83.5 207.5t-83.5 207.5t-209.5 82.5q-127 0 -211 -82.5t-84 -207.5z" />
    <glyph glyph-name="R" unicode="R" horiz-adv-x="723" 
d="M673 0h-81l-160 225q-27 -3 -56 -3h-188v-222h-74v700h262q134 0 210 -64t76 -176q0 -82 -41.5 -138.5t-118.5 -81.5zM374 285q104 0 159 46t55 129q0 85 -55 130.5t-159 45.5h-186v-351h186z" />
    <glyph glyph-name="S" unicode="S" horiz-adv-x="615" 
d="M307 -6q-78 0 -149.5 25t-110.5 66l29 57q38 -38 101 -61.5t130 -23.5q94 0 141 34.5t47 89.5q0 45 -32 73.5t-80 40.5t-103.5 27.5t-103.5 32.5t-80 57.5t-32 101.5q0 83 65.5 137.5t192.5 54.5q128 0 217 -62l-25 -59q-89 58 -192 58q-92 0 -138.5 -35.5t-46.5 -91.5
q0 -52 44.5 -82.5t107.5 -44.5t126.5 -31.5t108 -60t44.5 -112.5q0 -83 -66.5 -137t-194.5 -54z" />
    <glyph glyph-name="T" unicode="T" horiz-adv-x="574" 
d="M250 0v636h-246v64h566v-64h-246v-636h-74z" />
    <glyph glyph-name="U" unicode="U" horiz-adv-x="792" 
d="M396 -6q-136 0 -212 78t-76 227v401h74v-398q0 -242 214 -242q215 0 215 242v398h72v-401q0 -149 -75.5 -227t-211.5 -78z" />
    <glyph glyph-name="V" unicode="V" horiz-adv-x="698" 
d="M621 700h75l-310 -700h-73l-310 700h80l268 -608z" />
    <glyph glyph-name="W" unicode="W" horiz-adv-x="1111" 
d="M1004 700h71l-236 -700h-78l-205 597l-206 -597h-77l-236 700h76l202 -602l209 602h69l206 -605z" />
    <glyph glyph-name="X" unicode="X" horiz-adv-x="656" 
d="M639 0h-86l-226 308l-225 -308h-85l266 360l-249 340h85l211 -286l210 286h80l-248 -338z" />
    <glyph glyph-name="Y" unicode="Y" horiz-adv-x="635" 
d="M634 700l-280 -458v-242h-73v242l-280 458h79l240 -393l240 393h74z" />
    <glyph glyph-name="Z" unicode="Z" horiz-adv-x="651" 
d="M144 64h475v-64h-574v51l464 585h-457v64h555v-51z" />
    <glyph glyph-name="bracketleft" unicode="[" horiz-adv-x="318" 
d="M114 -194v936h183v-59h-112v-818h112v-59h-183z" />
    <glyph glyph-name="backslash" unicode="\" horiz-adv-x="335" 
d="M360 -100h-65l-330 942h65z" />
    <glyph glyph-name="bracketright" unicode="]" horiz-adv-x="318" 
d="M204 -194h-183v59h112v818h-112v59h183v-936z" />
    <glyph glyph-name="asciicircum" unicode="^" horiz-adv-x="576" 
d="M493 143h-59l-146 353l-146 -353h-59l175 414h61z" />
    <glyph glyph-name="underscore" unicode="_" horiz-adv-x="500" 
d="M0 -48v48h500v-48h-500z" />
    <glyph glyph-name="grave" unicode="`" horiz-adv-x="600" 
d="M295 607l-162 124h95l137 -124h-70z" />
    <glyph glyph-name="a" unicode="a" horiz-adv-x="590" 
d="M283 530q103 0 158 -51.5t55 -152.5v-326h-68v82q-52 -87 -181 -87q-88 0 -140 42t-52 111q0 67 48.5 108t154.5 41h167v32q0 68 -38 103.5t-111 35.5q-105 0 -175 -62l-32 53q84 71 214 71zM258 51q124 0 167 107v86h-165q-135 0 -135 -94q0 -46 35 -72.5t98 -26.5z" />
    <glyph glyph-name="b" unicode="b" horiz-adv-x="678" 
d="M370 530q114 0 188 -74.5t74 -192.5t-74.5 -193t-187.5 -75q-137 0 -203 109v-104h-68v742h71v-316q67 104 200 104zM365 58q84 0 140 57t56 148t-56 148t-140 57q-85 0 -140.5 -57t-55.5 -148t55.5 -148t140.5 -57z" />
    <glyph glyph-name="c" unicode="c" horiz-adv-x="563" 
d="M317 -5q-118 0 -194.5 75.5t-76.5 192.5t76.5 192t194.5 75q143 0 206 -104l-53 -36q-53 78 -153 78q-87 0 -143 -57t-56 -148q0 -92 56 -148.5t143 -56.5q101 0 153 77l53 -36q-64 -104 -206 -104z" />
    <glyph glyph-name="d" unicode="d" horiz-adv-x="678" 
d="M508 742h71v-742h-68v104q-66 -109 -203 -109q-113 0 -187.5 75t-74.5 193t74 192.5t188 74.5q133 0 200 -104v316zM314 58q84 0 139.5 57t55.5 148t-55.5 148t-139.5 57q-85 0 -140.5 -57t-55.5 -148t55.5 -148t140.5 -57z" />
    <glyph glyph-name="e" unicode="e" horiz-adv-x="604" 
d="M558 263q0 -3 -0.5 -10.5t-0.5 -11.5h-440q6 -82 63 -132.5t144 -50.5q101 0 161 69l40 -46q-72 -86 -203 -86q-122 0 -199 75t-77 193q0 117 73 192t184 75q112 0 183.5 -74.5t71.5 -192.5zM303 469q-76 0 -127.5 -48.5t-58.5 -126.5h373q-7 78 -58.5 126.5t-128.5 48.5
z" />
    <glyph glyph-name="f" unicode="f" horiz-adv-x="339" 
d="M273 687q-93 0 -93 -99v-62h162v-60h-160v-466h-71v466h-94v60h94v65q0 72 41.5 114t117.5 42q66 0 105 -33l-24 -53q-31 26 -78 26z" />
    <glyph glyph-name="g" unicode="g" horiz-adv-x="686" 
d="M518 526h68v-462q0 -134 -65.5 -198.5t-197.5 -64.5q-73 0 -138.5 21.5t-106.5 59.5l36 54q80 -72 207 -72q100 0 147 46.5t47 144.5v67q-67 -102 -205 -102q-114 0 -189 72t-75 184t75 183t189 71q141 0 208 -105v101zM317 83q87 0 143.5 54t56.5 139t-56.5 138.5
t-143.5 53.5t-143 -53.5t-56 -138.5t56 -139t143 -54z" />
    <glyph glyph-name="h" unicode="h" horiz-adv-x="677" 
d="M367 530q99 0 157.5 -57.5t58.5 -167.5v-305h-71v298q0 82 -41 125t-117 43q-85 0 -134.5 -50.5t-49.5 -139.5v-276h-71v742h71v-308q61 96 197 96z" />
    <glyph glyph-name="i" unicode="i" horiz-adv-x="269" 
d="M135 641q-22 0 -37 15t-15 36q0 20 15 35t37 15t37 -14.5t15 -34.5q0 -22 -15 -37t-37 -15zM99 0v526h71v-526h-71z" />
    <glyph glyph-name="j" unicode="j" horiz-adv-x="274" 
d="M140 641q-22 0 -37 15t-15 36q0 20 15 35t37 15t37 -14.5t15 -34.5q0 -22 -15 -37t-37 -15zM21 -199q-73 0 -111 34l25 54q31 -27 82 -27q87 0 87 99v565h71v-565q0 -74 -40 -117t-114 -43z" />
    <glyph glyph-name="k" unicode="k" horiz-adv-x="601" 
d="M506 0l-212 264l-124 -114v-150h-71v742h71v-503l314 287h88l-225 -215l246 -311h-87z" />
    <glyph glyph-name="l" unicode="l" horiz-adv-x="269" 
d="M99 0v742h71v-742h-71z" />
    <glyph glyph-name="m" unicode="m" horiz-adv-x="1061" 
d="M755 530q99 0 155.5 -57t56.5 -168v-305h-71v298q0 82 -39.5 125t-111.5 43q-82 0 -129 -50.5t-47 -139.5v-276h-71v298q0 82 -39.5 125t-112.5 43q-81 0 -128.5 -50.5t-47.5 -139.5v-276h-71v526h68v-96q59 100 193 100q139 0 187 -111q29 52 83.5 81.5t124.5 29.5z" />
    <glyph glyph-name="n" unicode="n" horiz-adv-x="677" 
d="M367 530q99 0 157.5 -57.5t58.5 -167.5v-305h-71v298q0 82 -41 125t-117 43q-85 0 -134.5 -50.5t-49.5 -139.5v-276h-71v526h68v-97q60 101 200 101z" />
    <glyph glyph-name="o" unicode="o" horiz-adv-x="627" 
d="M314 -5q-116 0 -192 75.5t-76 192.5t76 192t192 75t191.5 -75t75.5 -192t-75.5 -192.5t-191.5 -75.5zM314 58q85 0 140 57t55 148t-55 148t-140 57t-140.5 -57t-55.5 -148t55.5 -148t140.5 -57z" />
    <glyph glyph-name="p" unicode="p" horiz-adv-x="678" 
d="M370 530q114 0 188 -74.5t74 -192.5q0 -119 -74 -193.5t-188 -74.5q-133 0 -200 104v-293h-71v720h68v-104q66 108 203 108zM365 58q84 0 140 57t56 148q0 90 -56 147.5t-140 57.5q-85 0 -140.5 -57t-55.5 -148t55.5 -148t140.5 -57z" />
    <glyph glyph-name="q" unicode="q" horiz-adv-x="678" 
d="M511 526h68v-720h-71v293q-67 -104 -200 -104q-114 0 -188 74.5t-74 193.5q0 118 74 192.5t188 74.5q137 0 203 -108v104zM314 58q84 0 139.5 57t55.5 148t-55.5 148t-139.5 57q-85 0 -140.5 -57t-55.5 -148t55.5 -148t140.5 -57z" />
    <glyph glyph-name="r" unicode="r" horiz-adv-x="401" 
d="M167 423q50 107 197 107v-69q-3 0 -9 0.5t-8 0.5q-83 0 -130 -51t-47 -143v-268h-71v526h68v-103z" />
    <glyph glyph-name="s" unicode="s" horiz-adv-x="489" 
d="M240 -5q-64 0 -122.5 18.5t-91.5 46.5l32 56q75 -59 187 -59q141 0 141 86q0 32 -25.5 51t-63 25t-82 16t-82 21.5t-63 43t-25.5 80.5q0 66 55 108t153 42q114 0 186 -49l-31 -57q-65 45 -155 45q-68 0 -102.5 -24t-34.5 -63t35 -59t85 -28.5t100.5 -19t85.5 -42.5
t35 -88q0 -69 -57.5 -109.5t-159.5 -40.5z" />
    <glyph glyph-name="t" unicode="t" horiz-adv-x="406" 
d="M351 83l25 -51q-41 -37 -111 -37q-74 0 -114 40t-40 113v318h-94v60h94v115h71v-115h160v-60h-160v-314q0 -47 23.5 -71.5t67.5 -24.5q48 0 78 27z" />
    <glyph glyph-name="u" unicode="u" horiz-adv-x="673" 
d="M502 526h71v-526h-68v96q-28 -48 -77 -74.5t-112 -26.5q-103 0 -162.5 57.5t-59.5 168.5v305h71v-298q0 -83 41 -126t117 -43q83 0 131 50.5t48 140.5v276z" />
    <glyph glyph-name="v" unicode="v" horiz-adv-x="542" 
d="M471 526h70l-234 -526h-73l-233 526h74l197 -448z" />
    <glyph glyph-name="w" unicode="w" horiz-adv-x="879" 
d="M806 526h65l-199 -526h-67l-166 431l-166 -431h-67l-198 526h68l165 -447l169 447h61l168 -447z" />
    <glyph glyph-name="x" unicode="x" horiz-adv-x="534" 
d="M515 0h-81l-167 220l-168 -220h-80l208 270l-198 256h80l158 -206l158 206h78l-198 -256z" />
    <glyph glyph-name="y" unicode="y" horiz-adv-x="542" 
d="M471 526h70l-263 -589q-32 -74 -74 -105t-101 -31q-80 0 -128 48l33 53q40 -40 96 -40q36 0 61.5 20t47.5 68l23 51l-235 525h74l198 -447z" />
    <glyph glyph-name="z" unicode="z" horiz-adv-x="511" 
d="M133 59h337v-59h-428v47l331 419h-325v60h416v-47z" />
    <glyph glyph-name="braceleft" unicode="{" horiz-adv-x="334" 
d="M210 356q0 -37 -11 -55t-36 -27q25 -9 36 -27t11 -55v-247q0 -80 76 -80h27v-59h-37q-137 0 -137 133v254q0 51 -45 51h-34v60h34q45 0 45 51v254q0 133 137 133h37v-59h-27q-76 0 -76 -80v-247z" />
    <glyph glyph-name="bar" unicode="|" horiz-adv-x="295" 
d="M114 -194v936h66v-936h-66z" />
    <glyph glyph-name="braceright" unicode="}" horiz-adv-x="334" 
d="M240 304h34v-60h-34q-45 0 -45 -51v-254q0 -133 -136 -133h-38v59h27q76 0 76 80v247q0 37 11 55t36 27q-25 9 -36 27t-11 55v247q0 80 -76 80h-27v59h38q136 0 136 -133v-254q0 -51 45 -51z" />
    <glyph glyph-name="asciitilde" unicode="~" horiz-adv-x="575" 
d="M389 272q-32 0 -62 16t-48.5 34.5t-43 34.5t-47.5 16q-35 0 -55.5 -25.5t-22.5 -69.5h-48q2 73 35.5 112t88.5 39q32 0 62 -16t49 -35t43 -35t47 -16q35 0 55.5 26t22.5 70h48q-2 -73 -35.5 -112t-88.5 -39z" />
    <glyph glyph-name="uni00A0" unicode="&#xa0;" horiz-adv-x="262" 
 />
    <glyph glyph-name="exclamdown" unicode="&#xa1;" horiz-adv-x="260" 
d="M130 530q22 0 37 -15t15 -37q0 -21 -15 -36t-37 -15t-37.5 15t-15.5 36q0 22 15.5 37t37.5 15zM157 315l15 -469h-84l14 469h55z" />
    <glyph glyph-name="cent" unicode="&#xa2;" horiz-adv-x="563" 
d="M335 59q89 7 135 76l53 -36q-60 -97 -188 -103v-116h-49v116q-106 11 -173 84.5t-67 182.5t67 182t173 84v117h49v-116q129 -8 188 -104l-53 -36q-47 70 -135 77v-408zM118 263q0 -84 46.5 -138.5t121.5 -64.5v406q-75 -10 -121.5 -65t-46.5 -138z" />
    <glyph glyph-name="sterling" unicode="&#xa3;" horiz-adv-x="637" 
d="M216 325v-261h392v-64h-578v64h113v261h-113v50h113v84q0 114 72 180.5t206 66.5q123 0 200 -53l-27 -61q-66 48 -179 48q-99 0 -149 -46.5t-50 -134.5v-84h277v-50h-277z" />
    <glyph glyph-name="currency" unicode="&#xa4;" horiz-adv-x="700" 
d="M626 318q0 -95 -64 -169l104 -104l-42 -45l-107 107q-72 -55 -167 -55q-93 0 -167 55l-108 -107l-41 45l104 104q-62 73 -62 169q0 94 61 169l-103 103l41 45l107 -106q73 57 168 57q94 0 169 -56l105 105l42 -45l-103 -103q63 -74 63 -169zM135 318q0 -85 63.5 -145.5
t151.5 -60.5q89 0 153 60.5t64 145.5q0 86 -64 147t-153 61q-88 0 -151.5 -61t-63.5 -147z" />
    <glyph glyph-name="yen" unicode="&#xa5;" horiz-adv-x="695" 
d="M694 700l-285 -388h195v-44h-220v-94h220v-44h-220v-130h-73v130h-220v44h220v94h-220v44h195l-285 388h78l270 -365l269 365h76z" />
    <glyph glyph-name="brokenbar" unicode="&#xa6;" horiz-adv-x="295" 
d="M114 392v350h66v-350h-66zM114 -194v350h66v-350h-66z" />
    <glyph glyph-name="section" unicode="&#xa7;" horiz-adv-x="490" 
d="M454 288q0 -42 -22 -75.5t-59 -52.5q59 -37 59 -110q0 -71 -55.5 -113t-146.5 -42q-57 0 -114 18.5t-88 47.5l25 55q31 -27 79.5 -45t99.5 -18q64 0 99.5 24.5t35.5 71.5q0 34 -24.5 56.5t-60.5 31.5t-79 21t-79 25.5t-60.5 46t-24.5 80.5q0 87 82 130q-59 37 -59 109
t57.5 114t159.5 42q48 0 99 -14t82 -37l-25 -54q-66 47 -161 47q-148 0 -148 -96q0 -40 34 -62.5t82 -33.5t96 -25.5t82 -49t34 -92.5zM307 189q38 10 61 35.5t23 63.5q0 25 -11 43.5t-35 30.5t-44.5 19t-58 16t-55.5 15q-38 -11 -61.5 -36.5t-23.5 -62.5q0 -25 11 -43.5
t35.5 -30.5t44.5 -19t57.5 -16t56.5 -15z" />
    <glyph glyph-name="dieresis" unicode="&#xa8;" horiz-adv-x="600" 
d="M211 630q-18 0 -30.5 12t-12.5 31q0 18 12.5 30.5t30.5 12.5q17 0 30 -12.5t13 -30.5t-12.5 -30.5t-30.5 -12.5zM389 630q-18 0 -30.5 12.5t-12.5 30.5t13 30.5t30 12.5q18 0 30.5 -12.5t12.5 -30.5q0 -19 -12.5 -31t-30.5 -12z" />
    <glyph glyph-name="copyright" unicode="&#xa9;" horiz-adv-x="809" 
d="M404 -3q-149 0 -250.5 102.5t-101.5 250.5t102 250.5t252 102.5t251 -100.5t101 -250.5q0 -149 -102.5 -252t-251.5 -103zM404 34q133 0 224.5 92t91.5 226t-89.5 224t-224.5 90t-226 -91.5t-91 -224.5t90.5 -224.5t224.5 -91.5zM413 142q-90 0 -149 58.5t-59 149.5
t59 149.5t149 58.5q106 0 159 -77l-43 -32q-41 57 -117 57q-65 0 -107.5 -43t-42.5 -113t42.5 -113t107.5 -43q76 0 117 57l43 -31q-53 -78 -159 -78z" />
    <glyph glyph-name="ordfeminine" unicode="&#xaa;" horiz-adv-x="401" 
d="M190 746q140 0 140 -124v-192h-49v48q-32 -51 -117 -51q-59 0 -91 25t-32 66t31.5 65.5t99.5 24.5h105v16q0 80 -92 80q-68 0 -113 -37l-21 35q55 44 139 44zM175 464q75 0 102 58v51h-99q-87 0 -87 -52q0 -27 22 -42t62 -15z" />
    <glyph glyph-name="guillemotleft" unicode="&#xab;" horiz-adv-x="477" 
d="M195 74l-145 189l145 190h66l-142 -190l142 -189h-66zM373 74l-145 189l145 190h66l-142 -190l142 -189h-66z" />
    <glyph glyph-name="logicalnot" unicode="&#xac;" horiz-adv-x="575" 
d="M505 380v-239h-63v180h-372v59h435z" />
    <glyph glyph-name="uni00AD" unicode="&#xad;" horiz-adv-x="382" 
d="M60 240v62h262v-62h-262z" />
    <glyph glyph-name="registered" unicode="&#xae;" horiz-adv-x="809" 
d="M406 703q150 0 251 -100.5t101 -250.5q0 -149 -102.5 -252t-251.5 -103t-250.5 102.5t-101.5 250.5t102 250.5t252 102.5zM404 34q133 0 224.5 92t91.5 226t-89.5 224t-224.5 90t-226 -91.5t-91 -224.5t90.5 -224.5t224.5 -91.5zM583 418q0 -94 -90 -126l94 -144h-54
l-87 135q-8 -1 -23 -1h-104v-134h-52v404h156q74 0 117 -36t43 -98zM420 326q53 0 82.5 24t29.5 68q0 43 -29.5 66.5t-82.5 23.5h-102v-182h102z" />
    <glyph glyph-name="macron" unicode="&#xaf;" horiz-adv-x="600" 
d="M146 645v47h308v-47h-308z" />
    <glyph glyph-name="degree" unicode="&#xb0;" horiz-adv-x="419" 
d="M209 388q-67 0 -113 46t-46 113q0 66 46 112t113 46t113.5 -46t46.5 -112q0 -67 -46.5 -113t-113.5 -46zM209 430q49 0 82.5 33.5t33.5 83.5q0 49 -33.5 82.5t-82.5 33.5t-82 -33.5t-33 -82.5q0 -50 33 -83.5t82 -33.5z" />
    <glyph glyph-name="plusminus" unicode="&#xb1;" horiz-adv-x="575" 
d="M319 412h186v-60h-186v-179h-63v179h-186v60h186v179h63v-179zM70 0v59h435v-59h-435z" />
    <glyph glyph-name="uni00B2" unicode="&#xb2;" horiz-adv-x="430" 
d="M130 372h246v-45h-328v35l190 168q37 33 50.5 54.5t13.5 44.5q0 31 -27.5 51t-83.5 20q-81 0 -122 -46l-37 29q52 63 162 63q78 0 120 -32t42 -82q0 -32 -16.5 -60.5t-61.5 -68.5z" />
    <glyph glyph-name="uni00B3" unicode="&#xb3;" horiz-adv-x="430" 
d="M227 567q71 -4 109.5 -36t38.5 -84q0 -54 -45.5 -89t-127.5 -35q-54 0 -100.5 14.5t-70.5 38.5l23 40q52 -47 148 -47q59 0 89 21t30 57q0 78 -117 78h-42v37l125 135h-245v45h313v-35z" />
    <glyph glyph-name="acute" unicode="&#xb4;" horiz-adv-x="600" 
d="M235 607l137 124h95l-162 -124h-70z" />
    <glyph glyph-name="uni00B5" unicode="&#xb5;" horiz-adv-x="678" 
d="M508 526h71v-526h-68v98q-26 -51 -74 -77t-107 -26q-109 0 -160 75v-264h-71v720h71v-298q0 -83 41 -126t118 -43q82 0 130.5 51t48.5 140v276z" />
    <glyph glyph-name="paragraph" unicode="&#xb6;" horiz-adv-x="632" 
d="M226 -100v495q-92 1 -148.5 48t-56.5 126q0 80 58.5 126.5t156.5 46.5h282v-842h-60v786h-172v-786h-60z" />
    <glyph glyph-name="periodcentered" unicode="&#xb7;" horiz-adv-x="252" 
d="M126 216q-23 0 -38 15.5t-15 39.5t15 39.5t38 15.5t38.5 -15.5t15.5 -39.5t-15.5 -39.5t-38.5 -15.5z" />
    <glyph glyph-name="cedilla" unicode="&#xb8;" horiz-adv-x="600" 
d="M278 -220q-49 0 -84 23l17 38q29 -19 66 -19q62 0 62 47q0 46 -62 46h-23l24 91h43l-15 -58q41 -4 63 -25.5t22 -55.5q0 -40 -31 -63.5t-82 -23.5z" />
    <glyph glyph-name="uni00B9" unicode="&#xb9;" horiz-adv-x="430" 
d="M260 372h108v-45h-284v45h121v325h-114v45h169v-370z" />
    <glyph glyph-name="ordmasculine" unicode="&#xba;" horiz-adv-x="414" 
d="M207 427q-75 0 -124 45t-49 115t49 114.5t124 44.5t124 -44.5t49 -114.5t-49 -115t-124 -45zM207 472q54 0 87.5 32t33.5 83t-34 83t-87 32t-87 -32t-34 -83t33.5 -83t87.5 -32z" />
    <glyph glyph-name="guillemotright" unicode="&#xbb;" horiz-adv-x="477" 
d="M104 74h-66l142 189l-142 190h66l145 -190zM282 74h-66l142 189l-142 190h66l145 -190z" />
    <glyph glyph-name="onequarter" unicode="&#xbc;" horiz-adv-x="1029" 
d="M368 330v-45h-284v45h121v325h-114v45h169v-370h108zM724 700h59l-478 -700h-59zM999 150v-44h-88v-106h-52v106h-233v36l206 273h60l-201 -265h172v91h48v-91h88z" />
    <glyph glyph-name="onehalf" unicode="&#xbd;" horiz-adv-x="1029" 
d="M368 330v-45h-284v45h121v325h-114v45h169v-370h108zM724 700h59l-478 -700h-59zM729 45h246v-45h-328v35l190 168q37 33 50.5 54.5t13.5 44.5q0 31 -27.5 51t-83.5 20q-81 0 -122 -46l-37 29q52 63 162 63q78 0 120 -32t42 -82q0 -32 -16.5 -60.5t-61.5 -68.5z" />
    <glyph glyph-name="threequarters" unicode="&#xbe;" horiz-adv-x="1029" 
d="M375 405q0 -54 -45.5 -89t-127.5 -35q-54 0 -100.5 14.5t-70.5 38.5l23 40q52 -47 148 -47q59 0 89 21t30 57q0 78 -117 78h-42v37l125 135h-245v45h313v-35l-128 -140q71 -4 109.5 -36t38.5 -84zM724 700h59l-478 -700h-59zM999 150v-44h-88v-106h-52v106h-233v36
l206 273h60l-201 -265h172v91h48v-91h88z" />
    <glyph glyph-name="questiondown" unicode="&#xbf;" horiz-adv-x="567" 
d="M295 427q-22 0 -37 15t-15 36q0 22 15 37t37 15t37 -15t15 -37q0 -21 -15 -36t-37 -15zM305 -160q-105 0 -167.5 46t-62.5 122q0 45 19 80.5t46 59.5l53.5 46.5t45.5 53t19 67.5h74q0 -43 -19 -78.5t-45.5 -59l-53.5 -46t-46 -51.5t-19 -64q0 -49 43.5 -81t117.5 -32
q124 0 191 81l53 -40q-85 -104 -249 -104z" />
    <glyph glyph-name="Agrave" unicode="&#xc0;" horiz-adv-x="717" 
d="M424 757h-70l-162 124h95zM637 0l-84 187h-390l-84 -187h-77l320 700h73l320 -700h-78zM190 247h336l-168 376z" />
    <glyph glyph-name="Aacute" unicode="&#xc1;" horiz-adv-x="717" 
d="M526 881l-162 -124h-70l137 124h95zM637 0l-84 187h-390l-84 -187h-77l320 700h73l320 -700h-78zM190 247h336l-168 376z" />
    <glyph glyph-name="Acircumflex" unicode="&#xc2;" horiz-adv-x="717" 
d="M359 840l-99 -83h-66l129 124h72l129 -124h-66zM637 0l-84 187h-390l-84 -187h-77l320 700h73l320 -700h-78zM190 247h336l-168 376z" />
    <glyph glyph-name="Atilde" unicode="&#xc3;" horiz-adv-x="717" 
d="M296 831q-23 0 -37 -17t-15 -47h-43q2 50 26 80t64 30q34 0 74 -34t57 -34q22 0 36 16.5t16 45.5h43q-2 -49 -26 -78.5t-64 -29.5q-26 0 -50.5 17t-44.5 34t-36 17zM637 0l-84 187h-390l-84 -187h-77l320 700h73l320 -700h-78zM190 247h336l-168 376z" />
    <glyph glyph-name="Adieresis" unicode="&#xc4;" horiz-adv-x="717" 
d="M270 780q-18 0 -30.5 12t-12.5 31q0 18 12.5 30.5t30.5 12.5q17 0 30 -12.5t13 -30.5t-12.5 -30.5t-30.5 -12.5zM448 780q-18 0 -30.5 12.5t-12.5 30.5t13 30.5t30 12.5q18 0 30.5 -12.5t12.5 -30.5q0 -19 -12.5 -31t-30.5 -12zM637 0l-84 187h-390l-84 -187h-77l320 700
h73l320 -700h-78zM190 247h336l-168 376z" />
    <glyph glyph-name="Aring" unicode="&#xc5;" horiz-adv-x="717" 
d="M358 769q-44 0 -74 29.5t-30 72.5t30 74t74 31t74.5 -31t30.5 -74q0 -42 -30 -72t-75 -30zM358 941q-29 0 -48 -20t-19 -50q0 -29 18.5 -48t48.5 -19t49 19t19 48t-19.5 49.5t-48.5 20.5zM637 0l-84 187h-390l-84 -187h-77l320 700h73l320 -700h-78zM190 247h336
l-168 376z" />
    <glyph glyph-name="AE" unicode="&#xc6;" horiz-adv-x="1033" 
d="M552 64h421v-64h-494v187h-287l-113 -187h-77l427 700h529v-64h-406v-249h363v-63h-363v-260zM228 247h251v389h-15z" />
    <glyph glyph-name="Ccedilla" unicode="&#xc7;" horiz-adv-x="719" 
d="M421 60q126 0 207 84l47 -47q-92 -101 -253 -103l-12 -46q41 -4 63 -25.5t22 -55.5q0 -40 -31 -63.5t-82 -23.5q-50 0 -84 23l17 38q29 -19 66 -19q62 0 62 47q0 46 -62 46h-23l21 81q-143 13 -235 112t-92 242q0 154 104.5 255t262.5 101q163 0 256 -102l-47 -47
q-82 83 -207 83q-127 0 -211.5 -83t-84.5 -207t84.5 -207t211.5 -83z" />
    <glyph glyph-name="Egrave" unicode="&#xc8;" horiz-adv-x="669" 
d="M420 757h-70l-162 124h95zM188 64h421v-64h-495v700h480v-64h-406v-249h362v-63h-362v-260z" />
    <glyph glyph-name="Eacute" unicode="&#xc9;" horiz-adv-x="669" 
d="M522 881l-162 -124h-70l137 124h95zM188 64h421v-64h-495v700h480v-64h-406v-249h362v-63h-362v-260z" />
    <glyph glyph-name="Ecircumflex" unicode="&#xca;" horiz-adv-x="669" 
d="M355 840l-99 -83h-66l129 124h72l129 -124h-66zM188 64h421v-64h-495v700h480v-64h-406v-249h362v-63h-362v-260z" />
    <glyph glyph-name="Edieresis" unicode="&#xcb;" horiz-adv-x="669" 
d="M266 780q-18 0 -30.5 12t-12.5 31q0 18 12.5 30.5t30.5 12.5q17 0 30 -12.5t13 -30.5t-12.5 -30.5t-30.5 -12.5zM444 780q-18 0 -30.5 12.5t-12.5 30.5t13 30.5t30 12.5q18 0 30.5 -12.5t12.5 -30.5q0 -19 -12.5 -31t-30.5 -12zM188 64h421v-64h-495v700h480v-64h-406
v-249h362v-63h-362v-260z" />
    <glyph glyph-name="Igrave" unicode="&#xcc;" horiz-adv-x="302" 
d="M146 757l-162 124h95l137 -124h-70zM114 0v700h74v-700h-74z" />
    <glyph glyph-name="Iacute" unicode="&#xcd;" horiz-adv-x="302" 
d="M86 757l137 124h95l-162 -124h-70zM114 0v700h74v-700h-74z" />
    <glyph glyph-name="Icircumflex" unicode="&#xce;" horiz-adv-x="302" 
d="M187 881l129 -124h-66l-99 83l-99 -83h-66l129 124h72zM114 0v700h74v-700h-74z" />
    <glyph glyph-name="Idieresis" unicode="&#xcf;" horiz-adv-x="302" 
d="M62 780q-18 0 -30.5 12t-12.5 31q0 18 12.5 30.5t30.5 12.5q17 0 30 -12.5t13 -30.5t-12.5 -30.5t-30.5 -12.5zM240 780q-18 0 -30.5 12.5t-12.5 30.5t13 30.5t30 12.5q18 0 30.5 -12.5t12.5 -30.5q0 -19 -12.5 -31t-30.5 -12zM114 0v700h74v-700h-74z" />
    <glyph glyph-name="Eth" unicode="&#xd0;" horiz-adv-x="831" 
d="M404 700q167 0 271 -97.5t104 -252.5t-104 -252.5t-271 -97.5h-285v327h-106v59h106v314h285zM400 64q138 0 222 79.5t84 206.5t-84 206.5t-222 79.5h-207v-250h208v-59h-208v-263h207z" />
    <glyph glyph-name="Ntilde" unicode="&#xd1;" horiz-adv-x="813" 
d="M343 831q-23 0 -37 -17t-15 -47h-43q2 50 26 80t64 30q34 0 74 -34t57 -34q22 0 36 16.5t16 45.5h43q-2 -49 -26 -78.5t-64 -29.5q-26 0 -50.5 17t-44.5 34t-36 17zM626 700h73v-700h-61l-450 568v-568h-74v700h61l451 -568v568z" />
    <glyph glyph-name="Ograve" unicode="&#xd2;" horiz-adv-x="839" 
d="M415 757l-162 124h95l137 -124h-70zM420 -6q-159 0 -263.5 101.5t-104.5 254.5t104.5 254.5t263.5 101.5q158 0 262.5 -101t104.5 -255t-104.5 -255t-262.5 -101zM420 60q126 0 209.5 82.5t83.5 207.5t-83.5 207.5t-209.5 82.5q-127 0 -211 -82.5t-84 -207.5t84 -207.5
t211 -82.5z" />
    <glyph glyph-name="Oacute" unicode="&#xd3;" horiz-adv-x="839" 
d="M355 757l137 124h95l-162 -124h-70zM420 -6q-159 0 -263.5 101.5t-104.5 254.5t104.5 254.5t263.5 101.5q158 0 262.5 -101t104.5 -255t-104.5 -255t-262.5 -101zM420 60q126 0 209.5 82.5t83.5 207.5t-83.5 207.5t-209.5 82.5q-127 0 -211 -82.5t-84 -207.5t84 -207.5
t211 -82.5z" />
    <glyph glyph-name="Ocircumflex" unicode="&#xd4;" horiz-adv-x="839" 
d="M420 840l-99 -83h-66l129 124h72l129 -124h-66zM420 706q158 0 262.5 -101t104.5 -255t-104.5 -255t-262.5 -101q-159 0 -263.5 101.5t-104.5 254.5t104.5 254.5t263.5 101.5zM420 60q126 0 209.5 82.5t83.5 207.5t-83.5 207.5t-209.5 82.5q-127 0 -211 -82.5t-84 -207.5
t84 -207.5t211 -82.5z" />
    <glyph glyph-name="Otilde" unicode="&#xd5;" horiz-adv-x="839" 
d="M488 763q-26 0 -50.5 17t-44.5 34t-36 17q-23 0 -37 -17t-15 -47h-43q2 50 26 80t64 30q34 0 74 -34t57 -34q22 0 36 16.5t16 45.5h43q-2 -49 -26 -78.5t-64 -29.5zM420 -6q-159 0 -263.5 101.5t-104.5 254.5t104.5 254.5t263.5 101.5q158 0 262.5 -101t104.5 -255
t-104.5 -255t-262.5 -101zM420 60q126 0 209.5 82.5t83.5 207.5t-83.5 207.5t-209.5 82.5q-127 0 -211 -82.5t-84 -207.5t84 -207.5t211 -82.5z" />
    <glyph glyph-name="Odieresis" unicode="&#xd6;" horiz-adv-x="839" 
d="M331 780q-18 0 -30.5 12t-12.5 31q0 18 12.5 30.5t30.5 12.5q17 0 30 -12.5t13 -30.5t-12.5 -30.5t-30.5 -12.5zM509 780q-18 0 -30.5 12.5t-12.5 30.5t13 30.5t30 12.5q18 0 30.5 -12.5t12.5 -30.5q0 -19 -12.5 -31t-30.5 -12zM420 -6q-159 0 -263.5 101.5t-104.5 254.5
t104.5 254.5t263.5 101.5q158 0 262.5 -101t104.5 -255t-104.5 -255t-262.5 -101zM420 60q126 0 209.5 82.5t83.5 207.5t-83.5 207.5t-209.5 82.5q-127 0 -211 -82.5t-84 -207.5t84 -207.5t211 -82.5z" />
    <glyph glyph-name="multiply" unicode="&#xd7;" horiz-adv-x="575" 
d="M461 483l-132 -133l132 -133l-40 -43l-133 134l-134 -134l-40 43l132 133l-132 133l40 43l134 -134l133 134z" />
    <glyph glyph-name="Oslash" unicode="&#xd8;" horiz-adv-x="839" 
d="M652 631q64 -49 99.5 -121.5t35.5 -159.5q0 -154 -104.5 -255t-262.5 -101q-107 0 -192 48l-81 -112h-60l100 139q-64 49 -99.5 121.5t-35.5 159.5q0 153 104.5 254.5t263.5 101.5q105 0 192 -49l82 113h59zM125 350q0 -141 103 -225l344 476q-69 39 -152 39
q-127 0 -211 -82.5t-84 -207.5zM420 60q126 0 209.5 82.5t83.5 207.5q0 139 -101 224l-344 -476q70 -38 152 -38z" />
    <glyph glyph-name="Ugrave" unicode="&#xd9;" horiz-adv-x="792" 
d="M391 757l-162 124h95l137 -124h-70zM396 -6q-136 0 -212 78t-76 227v401h74v-398q0 -242 214 -242q215 0 215 242v398h72v-401q0 -149 -75.5 -227t-211.5 -78z" />
    <glyph glyph-name="Uacute" unicode="&#xda;" horiz-adv-x="792" 
d="M331 757l137 124h95l-162 -124h-70zM396 -6q-136 0 -212 78t-76 227v401h74v-398q0 -242 214 -242q215 0 215 242v398h72v-401q0 -149 -75.5 -227t-211.5 -78z" />
    <glyph glyph-name="Ucircumflex" unicode="&#xdb;" horiz-adv-x="792" 
d="M396 840l-99 -83h-66l129 124h72l129 -124h-66zM611 700h72v-401q0 -149 -75.5 -227t-211.5 -78t-212 78t-76 227v401h74v-398q0 -242 214 -242q215 0 215 242v398z" />
    <glyph glyph-name="Udieresis" unicode="&#xdc;" horiz-adv-x="792" 
d="M307 780q-18 0 -30.5 12t-12.5 31q0 18 12.5 30.5t30.5 12.5q17 0 30 -12.5t13 -30.5t-12.5 -30.5t-30.5 -12.5zM485 780q-18 0 -30.5 12.5t-12.5 30.5t13 30.5t30 12.5q18 0 30.5 -12.5t12.5 -30.5q0 -19 -12.5 -31t-30.5 -12zM396 -6q-136 0 -212 78t-76 227v401h74
v-398q0 -242 214 -242q215 0 215 242v398h72v-401q0 -149 -75.5 -227t-211.5 -78z" />
    <glyph glyph-name="Yacute" unicode="&#xdd;" horiz-adv-x="635" 
d="M484 881l-162 -124h-70l137 124h95zM634 700l-280 -458v-242h-73v242l-280 458h79l240 -393l240 393h74z" />
    <glyph glyph-name="Thorn" unicode="&#xde;" horiz-adv-x="718" 
d="M376 609q134 0 210 -64t76 -176t-76 -176t-210 -64h-188v-129h-74v700h74v-91h188zM374 194q104 0 159 45.5t55 129.5q0 85 -55 130.5t-159 45.5h-186v-351h186z" />
    <glyph glyph-name="germandbls" unicode="&#xdf;" horiz-adv-x="668" 
d="M462 389q73 -16 116.5 -65.5t43.5 -124.5q0 -94 -66.5 -149t-170.5 -55q-67 0 -112 16l12 60q42 -14 97 -14q76 0 122 38t46 106q0 67 -48 104.5t-127 37.5h-58v61q83 1 130 41t47 108q0 60 -41 96t-113 36q-80 0 -125 -46.5t-45 -134.5v-504h-71v498q0 120 66.5 184.5
t174.5 64.5q102 0 162.5 -54t60.5 -137q0 -57 -28 -100.5t-73 -66.5z" />
    <glyph glyph-name="agrave" unicode="&#xe0;" horiz-adv-x="590" 
d="M350 607h-70l-162 124h95zM283 530q103 0 158 -51.5t55 -152.5v-326h-68v82q-52 -87 -181 -87q-88 0 -140 42t-52 111q0 67 48.5 108t154.5 41h167v32q0 68 -38 103.5t-111 35.5q-105 0 -175 -62l-32 53q84 71 214 71zM258 51q124 0 167 107v86h-165q-135 0 -135 -94
q0 -46 35 -72.5t98 -26.5z" />
    <glyph glyph-name="aacute" unicode="&#xe1;" horiz-adv-x="590" 
d="M452 731l-162 -124h-70l137 124h95zM283 530q103 0 158 -51.5t55 -152.5v-326h-68v82q-52 -87 -181 -87q-88 0 -140 42t-52 111q0 67 48.5 108t154.5 41h167v32q0 68 -38 103.5t-111 35.5q-105 0 -175 -62l-32 53q84 71 214 71zM258 51q124 0 167 107v86h-165
q-135 0 -135 -94q0 -46 35 -72.5t98 -26.5z" />
    <glyph glyph-name="acircumflex" unicode="&#xe2;" horiz-adv-x="590" 
d="M285 690l-99 -83h-66l129 124h72l129 -124h-66zM283 530q103 0 158 -51.5t55 -152.5v-326h-68v82q-52 -87 -181 -87q-88 0 -140 42t-52 111q0 67 48.5 108t154.5 41h167v32q0 68 -38 103.5t-111 35.5q-105 0 -175 -62l-32 53q84 71 214 71zM258 51q124 0 167 107v86h-165
q-135 0 -135 -94q0 -46 35 -72.5t98 -26.5z" />
    <glyph glyph-name="atilde" unicode="&#xe3;" horiz-adv-x="590" 
d="M222 681q-23 0 -37 -17t-15 -47h-43q2 50 26 80t64 30q34 0 74 -34t57 -34q22 0 36 16.5t16 45.5h43q-2 -49 -26 -78.5t-64 -29.5q-26 0 -50.5 17t-44.5 34t-36 17zM283 530q103 0 158 -51.5t55 -152.5v-326h-68v82q-52 -87 -181 -87q-88 0 -140 42t-52 111
q0 67 48.5 108t154.5 41h167v32q0 68 -38 103.5t-111 35.5q-105 0 -175 -62l-32 53q84 71 214 71zM258 51q124 0 167 107v86h-165q-135 0 -135 -94q0 -46 35 -72.5t98 -26.5z" />
    <glyph glyph-name="adieresis" unicode="&#xe4;" horiz-adv-x="590" 
d="M196 630q-18 0 -30.5 12t-12.5 31q0 18 12.5 30.5t30.5 12.5q17 0 30 -12.5t13 -30.5t-12.5 -30.5t-30.5 -12.5zM374 630q-18 0 -30.5 12.5t-12.5 30.5t13 30.5t30 12.5q18 0 30.5 -12.5t12.5 -30.5q0 -19 -12.5 -31t-30.5 -12zM283 530q103 0 158 -51.5t55 -152.5v-326
h-68v82q-52 -87 -181 -87q-88 0 -140 42t-52 111q0 67 48.5 108t154.5 41h167v32q0 68 -38 103.5t-111 35.5q-105 0 -175 -62l-32 53q84 71 214 71zM258 51q124 0 167 107v86h-165q-135 0 -135 -94q0 -46 35 -72.5t98 -26.5z" />
    <glyph glyph-name="aring" unicode="&#xe5;" horiz-adv-x="590" 
d="M284 595q-44 0 -74 29.5t-30 72.5t30 74t74 31t74.5 -31t30.5 -74q0 -42 -30 -72t-75 -30zM284 767q-29 0 -48 -20t-19 -50q0 -29 18.5 -48t48.5 -19t49 19t19 48t-19.5 49.5t-48.5 20.5zM283 530q103 0 158 -51.5t55 -152.5v-326h-68v82q-52 -87 -181 -87q-88 0 -140 42
t-52 111q0 67 48.5 108t154.5 41h167v32q0 68 -38 103.5t-111 35.5q-105 0 -175 -62l-32 53q84 71 214 71zM258 51q124 0 167 107v86h-165q-135 0 -135 -94q0 -46 35 -72.5t98 -26.5z" />
    <glyph glyph-name="ae" unicode="&#xe6;" horiz-adv-x="986" 
d="M940 267q0 -8 -2 -24h-441q5 -83 62 -134t145 -51q100 0 161 69l40 -46q-72 -86 -203 -86q-161 0 -235 121q-28 -62 -85 -91.5t-128 -29.5q-93 0 -146 42.5t-53 112.5q0 64 48.5 105t154.5 41h167v33q0 68 -38 103.5t-111 35.5q-105 0 -175 -62l-32 53q84 71 213 71
q152 0 193 -108q73 108 209 108q111 0 183.5 -74.5t72.5 -188.5zM683 469q-73 0 -125.5 -47t-60.5 -126h373q-7 78 -60.5 125.5t-126.5 47.5zM259 51q76 0 121 40.5t45 109.5v42h-165q-135 0 -135 -91q0 -47 35.5 -74t98.5 -27z" />
    <glyph glyph-name="ccedilla" unicode="&#xe7;" horiz-adv-x="563" 
d="M317 58q101 0 153 77l53 -36q-64 -104 -206 -104h-2l-12 -47q41 -4 63 -25.5t22 -55.5q0 -40 -31 -63.5t-82 -23.5q-49 0 -84 23l17 38q29 -19 66 -19q62 0 62 47q0 46 -62 46h-23l22 83q-101 14 -164 86.5t-63 178.5q0 117 76.5 192t194.5 75q143 0 206 -104l-53 -36
q-53 78 -153 78q-87 0 -143 -57t-56 -148q0 -92 56 -148.5t143 -56.5z" />
    <glyph glyph-name="egrave" unicode="&#xe8;" horiz-adv-x="604" 
d="M368 607h-70l-162 124h95zM558 263q0 -3 -0.5 -10.5t-0.5 -11.5h-440q6 -82 63 -132.5t144 -50.5q101 0 161 69l40 -46q-72 -86 -203 -86q-122 0 -199 75t-77 193q0 117 73 192t184 75q112 0 183.5 -74.5t71.5 -192.5zM303 469q-76 0 -127.5 -48.5t-58.5 -126.5h373
q-7 78 -58.5 126.5t-128.5 48.5z" />
    <glyph glyph-name="eacute" unicode="&#xe9;" horiz-adv-x="604" 
d="M470 731l-162 -124h-70l137 124h95zM558 263q0 -3 -0.5 -10.5t-0.5 -11.5h-440q6 -82 63 -132.5t144 -50.5q101 0 161 69l40 -46q-72 -86 -203 -86q-122 0 -199 75t-77 193q0 117 73 192t184 75q112 0 183.5 -74.5t71.5 -192.5zM303 469q-76 0 -127.5 -48.5t-58.5 -126.5
h373q-7 78 -58.5 126.5t-128.5 48.5z" />
    <glyph glyph-name="ecircumflex" unicode="&#xea;" horiz-adv-x="604" 
d="M303 690l-99 -83h-66l129 124h72l129 -124h-66zM558 263q0 -3 -0.5 -10.5t-0.5 -11.5h-440q6 -82 63 -132.5t144 -50.5q101 0 161 69l40 -46q-72 -86 -203 -86q-122 0 -199 75t-77 193q0 117 73 192t184 75q112 0 183.5 -74.5t71.5 -192.5zM303 469q-76 0 -127.5 -48.5
t-58.5 -126.5h373q-7 78 -58.5 126.5t-128.5 48.5z" />
    <glyph glyph-name="edieresis" unicode="&#xeb;" horiz-adv-x="604" 
d="M214 630q-18 0 -30.5 12t-12.5 31q0 18 12.5 30.5t30.5 12.5q17 0 30 -12.5t13 -30.5t-12.5 -30.5t-30.5 -12.5zM392 630q-18 0 -30.5 12.5t-12.5 30.5t13 30.5t30 12.5q18 0 30.5 -12.5t12.5 -30.5q0 -19 -12.5 -31t-30.5 -12zM558 263q0 -3 -0.5 -10.5t-0.5 -11.5h-440
q6 -82 63 -132.5t144 -50.5q101 0 161 69l40 -46q-72 -86 -203 -86q-122 0 -199 75t-77 193q0 117 73 192t184 75q112 0 183.5 -74.5t71.5 -192.5zM303 469q-76 0 -127.5 -48.5t-58.5 -126.5h373q-7 78 -58.5 126.5t-128.5 48.5z" />
    <glyph glyph-name="igrave" unicode="&#xec;" horiz-adv-x="269" 
d="M130 607l-162 124h95l137 -124h-70zM99 0v526h71v-526h-71z" />
    <glyph glyph-name="iacute" unicode="&#xed;" horiz-adv-x="269" 
d="M70 607l137 124h95l-162 -124h-70zM99 0v526h71v-526h-71z" />
    <glyph glyph-name="icircumflex" unicode="&#xee;" horiz-adv-x="269" 
d="M170 731l105 -124h-64l-76 81l-76 -81h-64l105 124h70zM99 0v526h71v-526h-71z" />
    <glyph glyph-name="idieresis" unicode="&#xef;" horiz-adv-x="269" 
d="M69 630q-18 0 -30 12.5t-12 30.5q0 17 12 29.5t30 12.5q17 0 29 -12t12 -30q0 -19 -12 -31t-29 -12zM201 630q-17 0 -29 12.5t-12 30.5q0 17 12 29.5t29 12.5q18 0 30 -12t12 -30q0 -19 -12 -31t-30 -12zM99 0v526h71v-526h-71z" />
    <glyph glyph-name="eth" unicode="&#xf0;" horiz-adv-x="633" 
d="M487 633q100 -98 100 -286q0 -164 -77 -258.5t-218 -94.5q-107 0 -176.5 61t-69.5 160q0 100 69.5 160.5t180.5 60.5q76 0 133.5 -34.5t83.5 -98.5q2 21 2 59q0 165 -95 243l-268 -112l-20 49l231 96q-49 20 -110 20q-75 0 -147 -22l-12 61q72 21 159 21q109 0 186 -48
l89 37l20 -49zM296 55q87 0 138.5 47.5t51.5 112.5q0 68 -51.5 114t-131.5 46q-86 0 -135.5 -43.5t-49.5 -116.5q0 -72 49 -116t129 -44z" />
    <glyph glyph-name="ntilde" unicode="&#xf1;" horiz-adv-x="677" 
d="M277 681q-23 0 -37 -17t-15 -47h-43q2 50 26 80t64 30q34 0 74 -34t57 -34q22 0 36 16.5t16 45.5h43q-2 -49 -26 -78.5t-64 -29.5q-26 0 -50.5 17t-44.5 34t-36 17zM367 530q99 0 157.5 -57.5t58.5 -167.5v-305h-71v298q0 82 -41 125t-117 43q-85 0 -134.5 -50.5
t-49.5 -139.5v-276h-71v526h68v-97q60 101 200 101z" />
    <glyph glyph-name="ograve" unicode="&#xf2;" horiz-adv-x="627" 
d="M308 607l-162 124h95l137 -124h-70zM314 -5q-116 0 -192 75.5t-76 192.5t76 192t192 75t191.5 -75t75.5 -192t-75.5 -192.5t-191.5 -75.5zM314 58q85 0 140 57t55 148t-55 148t-140 57t-140.5 -57t-55.5 -148t55.5 -148t140.5 -57z" />
    <glyph glyph-name="oacute" unicode="&#xf3;" horiz-adv-x="627" 
d="M248 607l137 124h95l-162 -124h-70zM314 -5q-116 0 -192 75.5t-76 192.5t76 192t192 75t191.5 -75t75.5 -192t-75.5 -192.5t-191.5 -75.5zM314 58q85 0 140 57t55 148t-55 148t-140 57t-140.5 -57t-55.5 -148t55.5 -148t140.5 -57z" />
    <glyph glyph-name="ocircumflex" unicode="&#xf4;" horiz-adv-x="627" 
d="M313 690l-99 -83h-66l129 124h72l129 -124h-66zM314 530q116 0 191.5 -75t75.5 -192t-75.5 -192.5t-191.5 -75.5t-192 75.5t-76 192.5t76 192t192 75zM314 58q85 0 140 57t55 148t-55 148t-140 57t-140.5 -57t-55.5 -148t55.5 -148t140.5 -57z" />
    <glyph glyph-name="otilde" unicode="&#xf5;" horiz-adv-x="627" 
d="M381 613q-26 0 -50.5 17t-44.5 34t-36 17q-23 0 -37 -17t-15 -47h-43q2 50 26 80t64 30q34 0 74 -34t57 -34q22 0 36 16.5t16 45.5h43q-2 -49 -26 -78.5t-64 -29.5zM314 -5q-116 0 -192 75.5t-76 192.5t76 192t192 75t191.5 -75t75.5 -192t-75.5 -192.5t-191.5 -75.5z
M314 58q85 0 140 57t55 148t-55 148t-140 57t-140.5 -57t-55.5 -148t55.5 -148t140.5 -57z" />
    <glyph glyph-name="odieresis" unicode="&#xf6;" horiz-adv-x="627" 
d="M224 630q-18 0 -30.5 12t-12.5 31q0 18 12.5 30.5t30.5 12.5q17 0 30 -12.5t13 -30.5t-12.5 -30.5t-30.5 -12.5zM402 630q-18 0 -30.5 12.5t-12.5 30.5t13 30.5t30 12.5q18 0 30.5 -12.5t12.5 -30.5q0 -19 -12.5 -31t-30.5 -12zM314 -5q-116 0 -192 75.5t-76 192.5
t76 192t192 75t191.5 -75t75.5 -192t-75.5 -192.5t-191.5 -75.5zM314 58q85 0 140 57t55 148t-55 148t-140 57t-140.5 -57t-55.5 -148t55.5 -148t140.5 -57z" />
    <glyph glyph-name="divide" unicode="&#xf7;" horiz-adv-x="575" 
d="M287 493q-20 0 -33.5 14t-13.5 34q0 21 13.5 35t33.5 14q21 0 34.5 -14t13.5 -35q0 -20 -14 -34t-34 -14zM70 320v59h435v-59h-435zM287 110q-20 0 -33.5 14t-13.5 35t13.5 34.5t33.5 13.5t34 -13.5t14 -34.5t-14 -35t-34 -14z" />
    <glyph glyph-name="oslash" unicode="&#xf8;" horiz-adv-x="627" 
d="M479 477q102 -76 102 -214q0 -117 -75.5 -192.5t-191.5 -75.5q-72 0 -134 32l-65 -98h-48l80 120q-101 77 -101 214q0 117 76 192t192 75q74 0 132 -32l64 96h47zM118 263q0 -100 66 -158l226 339q-42 24 -96 24q-85 0 -140.5 -57t-55.5 -148zM314 58q85 0 140 57t55 148
q0 101 -66 159l-226 -340q42 -24 97 -24z" />
    <glyph glyph-name="ugrave" unicode="&#xf9;" horiz-adv-x="673" 
d="M399 607h-70l-162 124h95zM502 526h71v-526h-68v96q-28 -48 -77 -74.5t-112 -26.5q-103 0 -162.5 57.5t-59.5 168.5v305h71v-298q0 -83 41 -126t117 -43q83 0 131 50.5t48 140.5v276z" />
    <glyph glyph-name="uacute" unicode="&#xfa;" horiz-adv-x="673" 
d="M501 731l-162 -124h-70l137 124h95zM502 526h71v-526h-68v96q-28 -48 -77 -74.5t-112 -26.5q-103 0 -162.5 57.5t-59.5 168.5v305h71v-298q0 -83 41 -126t117 -43q83 0 131 50.5t48 140.5v276z" />
    <glyph glyph-name="ucircumflex" unicode="&#xfb;" horiz-adv-x="673" 
d="M334 690l-99 -83h-66l129 124h72l129 -124h-66zM502 526h71v-526h-68v96q-28 -48 -77 -74.5t-112 -26.5q-103 0 -162.5 57.5t-59.5 168.5v305h71v-298q0 -83 41 -126t117 -43q83 0 131 50.5t48 140.5v276z" />
    <glyph glyph-name="udieresis" unicode="&#xfc;" horiz-adv-x="673" 
d="M245 630q-18 0 -30.5 12t-12.5 31q0 18 12.5 30.5t30.5 12.5q17 0 30 -12.5t13 -30.5t-12.5 -30.5t-30.5 -12.5zM423 630q-18 0 -30.5 12.5t-12.5 30.5t13 30.5t30 12.5q18 0 30.5 -12.5t12.5 -30.5q0 -19 -12.5 -31t-30.5 -12zM502 526h71v-526h-68v96
q-28 -48 -77 -74.5t-112 -26.5q-103 0 -162.5 57.5t-59.5 168.5v305h71v-298q0 -83 41 -126t117 -43q83 0 131 50.5t48 140.5v276z" />
    <glyph glyph-name="yacute" unicode="&#xfd;" horiz-adv-x="542" 
d="M424 731l-162 -124h-70l137 124h95zM471 526h70l-263 -589q-32 -74 -74 -105t-101 -31q-80 0 -128 48l33 53q40 -40 96 -40q36 0 61.5 20t47.5 68l23 51l-235 525h74l198 -447z" />
    <glyph glyph-name="thorn" unicode="&#xfe;" horiz-adv-x="678" 
d="M370 530q114 0 188 -74.5t74 -192.5q0 -119 -74 -193.5t-188 -74.5q-133 0 -200 104v-293h-71v936h71v-315q66 103 200 103zM365 58q84 0 140 57t56 148q0 90 -56 147.5t-140 57.5q-85 0 -140.5 -57t-55.5 -148t55.5 -148t140.5 -57z" />
    <glyph glyph-name="ydieresis" unicode="&#xff;" horiz-adv-x="542" 
d="M168 630q-18 0 -30.5 12t-12.5 31q0 18 12.5 30.5t30.5 12.5q17 0 30 -12.5t13 -30.5t-12.5 -30.5t-30.5 -12.5zM346 630q-18 0 -30.5 12.5t-12.5 30.5t13 30.5t30 12.5q18 0 30.5 -12.5t12.5 -30.5q0 -19 -12.5 -31t-30.5 -12zM471 526h70l-263 -589q-32 -74 -74 -105
t-101 -31q-80 0 -128 48l33 53q40 -40 96 -40q36 0 61.5 20t47.5 68l23 51l-235 525h74l198 -447z" />
    <glyph glyph-name="Amacron" unicode="&#x100;" horiz-adv-x="717" 
d="M513 842v-47h-308v47h308zM637 0l-84 187h-390l-84 -187h-77l320 700h73l320 -700h-78zM190 247h336l-168 376z" />
    <glyph glyph-name="amacron" unicode="&#x101;" horiz-adv-x="590" 
d="M439 692v-47h-308v47h308zM283 530q103 0 158 -51.5t55 -152.5v-326h-68v82q-52 -87 -181 -87q-88 0 -140 42t-52 111q0 67 48.5 108t154.5 41h167v32q0 68 -38 103.5t-111 35.5q-105 0 -175 -62l-32 53q84 71 214 71zM258 51q124 0 167 107v86h-165q-135 0 -135 -94
q0 -46 35 -72.5t98 -26.5z" />
    <glyph glyph-name="Abreve" unicode="&#x102;" horiz-adv-x="717" 
d="M359 752q-64 0 -107 35t-45 94h50q1 -39 30 -62t72 -23t72 23t30 62h50q-2 -59 -45 -94t-107 -35zM637 0l-84 187h-390l-84 -187h-77l320 700h73l320 -700h-78zM190 247h336l-168 376z" />
    <glyph glyph-name="abreve" unicode="&#x103;" horiz-adv-x="590" 
d="M285 602q-64 0 -107 35t-45 94h50q1 -39 30 -62t72 -23t72 23t30 62h50q-2 -59 -45 -94t-107 -35zM283 530q103 0 158 -51.5t55 -152.5v-326h-68v82q-52 -87 -181 -87q-88 0 -140 42t-52 111q0 67 48.5 108t154.5 41h167v32q0 68 -38 103.5t-111 35.5q-105 0 -175 -62
l-32 53q84 71 214 71zM258 51q124 0 167 107v86h-165q-135 0 -135 -94q0 -46 35 -72.5t98 -26.5z" />
    <glyph glyph-name="Aogonek" unicode="&#x104;" horiz-adv-x="717" 
d="M720 -157l16 -39q-36 -24 -85 -24q-50 0 -80 26t-30 69q0 75 94 129l-82 183h-390l-84 -187h-77l320 700h73l320 -700q-122 -54 -122 -120q0 -27 18 -41.5t47 -14.5q39 0 62 19zM190 247h336l-168 376z" />
    <glyph glyph-name="aogonek" unicode="&#x105;" horiz-adv-x="590" 
d="M501 -157l16 -39q-36 -24 -85 -24q-50 0 -80 26t-30 69q0 80 106 136v71q-52 -87 -181 -87q-88 0 -140 42t-52 111q0 67 48.5 108t154.5 41h167v32q0 68 -38 103.5t-111 35.5q-105 0 -175 -62l-32 53q84 71 214 71q103 0 158 -51.5t55 -152.5v-326q-122 -54 -122 -120
q0 -27 18 -41.5t47 -14.5q39 0 62 19zM258 51q124 0 167 107v86h-165q-135 0 -135 -94q0 -46 35 -72.5t98 -26.5z" />
    <glyph glyph-name="Cacute" unicode="&#x106;" horiz-adv-x="719" 
d="M345 757l137 124h95l-162 -124h-70zM418 -6q-158 0 -262 101t-104 255t104.5 255t262.5 101q163 0 256 -102l-47 -47q-82 83 -207 83q-127 0 -211.5 -83t-84.5 -207t84.5 -207t211.5 -83q126 0 207 84l47 -47q-94 -103 -257 -103z" />
    <glyph glyph-name="cacute" unicode="&#x107;" horiz-adv-x="563" 
d="M234 607l137 124h95l-162 -124h-70zM317 -5q-118 0 -194.5 75.5t-76.5 192.5t76.5 192t194.5 75q143 0 206 -104l-53 -36q-53 78 -153 78q-87 0 -143 -57t-56 -148q0 -92 56 -148.5t143 -56.5q101 0 153 77l53 -36q-64 -104 -206 -104z" />
    <glyph glyph-name="Ccircumflex" unicode="&#x108;" horiz-adv-x="719" 
d="M410 840l-99 -83h-66l129 124h72l129 -124h-66zM421 60q126 0 207 84l47 -47q-94 -103 -257 -103q-158 0 -262 101t-104 255t104.5 255t262.5 101q163 0 256 -102l-47 -47q-82 83 -207 83q-127 0 -211.5 -83t-84.5 -207t84.5 -207t211.5 -83z" />
    <glyph glyph-name="ccircumflex" unicode="&#x109;" horiz-adv-x="563" 
d="M299 690l-99 -83h-66l129 124h72l129 -124h-66zM317 58q101 0 153 77l53 -36q-64 -104 -206 -104q-118 0 -194.5 75.5t-76.5 192.5t76.5 192t194.5 75q143 0 206 -104l-53 -36q-53 78 -153 78q-87 0 -143 -57t-56 -148q0 -92 56 -148.5t143 -56.5z" />
    <glyph glyph-name="Cdotaccent" unicode="&#x10a;" horiz-adv-x="719" 
d="M410 780q-20 0 -34 14t-14 34t14 34t34 14t34 -14t14 -34t-14 -34t-34 -14zM418 -6q-158 0 -262 101t-104 255t104.5 255t262.5 101q163 0 256 -102l-47 -47q-82 83 -207 83q-127 0 -211.5 -83t-84.5 -207t84.5 -207t211.5 -83q126 0 207 84l47 -47q-94 -103 -257 -103z
" />
    <glyph glyph-name="cdotaccent" unicode="&#x10b;" horiz-adv-x="563" 
d="M299 630q-20 0 -34 14t-14 34t14 34t34 14t34 -14t14 -34t-14 -34t-34 -14zM317 -5q-118 0 -194.5 75.5t-76.5 192.5t76.5 192t194.5 75q143 0 206 -104l-53 -36q-53 78 -153 78q-87 0 -143 -57t-56 -148q0 -92 56 -148.5t143 -56.5q101 0 153 77l53 -36
q-64 -104 -206 -104z" />
    <glyph glyph-name="Ccaron" unicode="&#x10c;" horiz-adv-x="719" 
d="M446 757h-72l-129 124h66l99 -82l99 82h66zM421 60q126 0 207 84l47 -47q-94 -103 -257 -103q-158 0 -262 101t-104 255t104.5 255t262.5 101q163 0 256 -102l-47 -47q-82 83 -207 83q-127 0 -211.5 -83t-84.5 -207t84.5 -207t211.5 -83z" />
    <glyph glyph-name="ccaron" unicode="&#x10d;" horiz-adv-x="563" 
d="M335 607h-72l-129 124h66l99 -82l99 82h66zM317 58q101 0 153 77l53 -36q-64 -104 -206 -104q-118 0 -194.5 75.5t-76.5 192.5t76.5 192t194.5 75q143 0 206 -104l-53 -36q-53 78 -153 78q-87 0 -143 -57t-56 -148q0 -92 56 -148.5t143 -56.5z" />
    <glyph glyph-name="Dcaron" unicode="&#x10e;" horiz-adv-x="826" 
d="M419 756h-72l-129 124h66l99 -82l99 82h66zM399 700q167 0 271 -97.5t104 -252.5t-104 -252.5t-271 -97.5h-285v700h285zM395 64q138 0 222 79.5t84 206.5t-84 206.5t-222 79.5h-207v-572h207z" />
    <glyph glyph-name="dcaron" unicode="&#x10f;" horiz-adv-x="678" 
d="M672 771h60l-9 -189h-51v189zM508 426v316h71v-742h-68v104q-66 -109 -203 -109q-113 0 -187.5 75t-74.5 193t74 192.5t188 74.5q133 0 200 -104zM314 58q84 0 139.5 57t55.5 148t-55.5 148t-139.5 57q-85 0 -140.5 -57t-55.5 -148t55.5 -148t140.5 -57z" />
    <glyph glyph-name="Dcroat" unicode="&#x110;" horiz-adv-x="831" 
d="M404 700q167 0 271 -97.5t104 -252.5t-104 -252.5t-271 -97.5h-285v327h-106v59h106v314h285zM400 64q138 0 222 79.5t84 206.5t-84 206.5t-222 79.5h-207v-250h208v-59h-208v-263h207z" />
    <glyph glyph-name="dcroat" unicode="&#x111;" horiz-adv-x="678" 
d="M678 659v-52h-99v-607h-68v104q-66 -109 -203 -109q-113 0 -187.5 75t-74.5 193t74 192.5t188 74.5q133 0 200 -104v181h-220v52h220v83h71v-83h99zM314 58q84 0 139.5 57t55.5 148t-55.5 148t-139.5 57q-85 0 -140.5 -57t-55.5 -148t55.5 -148t140.5 -57z" />
    <glyph glyph-name="Emacron" unicode="&#x112;" horiz-adv-x="669" 
d="M509 842v-47h-308v47h308zM188 64h421v-64h-495v700h480v-64h-406v-249h362v-63h-362v-260z" />
    <glyph glyph-name="emacron" unicode="&#x113;" horiz-adv-x="604" 
d="M457 692v-47h-308v47h308zM558 263q0 -3 -0.5 -10.5t-0.5 -11.5h-440q6 -82 63 -132.5t144 -50.5q101 0 161 69l40 -46q-72 -86 -203 -86q-122 0 -199 75t-77 193q0 117 73 192t184 75q112 0 183.5 -74.5t71.5 -192.5zM303 469q-76 0 -127.5 -48.5t-58.5 -126.5h373
q-7 78 -58.5 126.5t-128.5 48.5z" />
    <glyph glyph-name="Ebreve" unicode="&#x114;" horiz-adv-x="669" 
d="M355 752q-64 0 -107 35t-45 94h50q1 -39 30 -62t72 -23t72 23t30 62h50q-2 -59 -45 -94t-107 -35zM188 64h421v-64h-495v700h480v-64h-406v-249h362v-63h-362v-260z" />
    <glyph glyph-name="ebreve" unicode="&#x115;" horiz-adv-x="604" 
d="M303 602q-64 0 -107 35t-45 94h50q1 -39 30 -62t72 -23t72 23t30 62h50q-2 -59 -45 -94t-107 -35zM558 263q0 -3 -0.5 -10.5t-0.5 -11.5h-440q6 -82 63 -132.5t144 -50.5q101 0 161 69l40 -46q-72 -86 -203 -86q-122 0 -199 75t-77 193q0 117 73 192t184 75
q112 0 183.5 -74.5t71.5 -192.5zM303 469q-76 0 -127.5 -48.5t-58.5 -126.5h373q-7 78 -58.5 126.5t-128.5 48.5z" />
    <glyph glyph-name="Edotaccent" unicode="&#x116;" horiz-adv-x="669" 
d="M355 780q-20 0 -34 14t-14 34t14 34t34 14t34 -14t14 -34t-14 -34t-34 -14zM188 64h421v-64h-495v700h480v-64h-406v-249h362v-63h-362v-260z" />
    <glyph glyph-name="edotaccent" unicode="&#x117;" horiz-adv-x="604" 
d="M303 630q-20 0 -34 14t-14 34t14 34t34 14t34 -14t14 -34t-14 -34t-34 -14zM558 263q0 -3 -0.5 -10.5t-0.5 -11.5h-440q6 -82 63 -132.5t144 -50.5q101 0 161 69l40 -46q-72 -86 -203 -86q-122 0 -199 75t-77 193q0 117 73 192t184 75q112 0 183.5 -74.5t71.5 -192.5z
M303 469q-76 0 -127.5 -48.5t-58.5 -126.5h373q-7 78 -58.5 126.5t-128.5 48.5z" />
    <glyph glyph-name="Eogonek" unicode="&#x118;" horiz-adv-x="669" 
d="M614 -157l16 -39q-36 -24 -85 -24q-50 0 -80 26t-30 69q0 73 87 125h-408v700h480v-64h-406v-249h362v-63h-362v-260h421v-64q-122 -54 -122 -120q0 -27 18 -41.5t47 -14.5q39 0 62 19z" />
    <glyph glyph-name="eogonek" unicode="&#x119;" horiz-adv-x="604" 
d="M558 263q0 -3 -0.5 -10.5t-0.5 -11.5h-440q6 -82 63 -132.5t144 -50.5q101 0 161 69l40 -46q-10 -11 -38 -36q-66 -57 -90.5 -93.5t-24.5 -69.5q0 -29 18 -43.5t48 -14.5q38 0 61 19l16 -39q-36 -24 -85 -24q-50 0 -80 26.5t-30 71.5q0 64 57 122q-30 -5 -55 -5
q-122 0 -199 75t-77 193q0 117 73 192t184 75q112 0 183.5 -74.5t71.5 -192.5zM303 469q-76 0 -127.5 -48.5t-58.5 -126.5h373q-7 78 -58.5 126.5t-128.5 48.5z" />
    <glyph glyph-name="Ecaron" unicode="&#x11a;" horiz-adv-x="669" 
d="M391 757h-72l-129 124h66l99 -82l99 82h66zM188 64h421v-64h-495v700h480v-64h-406v-249h362v-63h-362v-260z" />
    <glyph glyph-name="ecaron" unicode="&#x11b;" horiz-adv-x="604" 
d="M339 607h-72l-129 124h66l99 -82l99 82h66zM558 263q0 -3 -0.5 -10.5t-0.5 -11.5h-440q6 -82 63 -132.5t144 -50.5q101 0 161 69l40 -46q-72 -86 -203 -86q-122 0 -199 75t-77 193q0 117 73 192t184 75q112 0 183.5 -74.5t71.5 -192.5zM303 469q-76 0 -127.5 -48.5
t-58.5 -126.5h373q-7 78 -58.5 126.5t-128.5 48.5z" />
    <glyph glyph-name="Gcircumflex" unicode="&#x11c;" horiz-adv-x="773" 
d="M408 840l-99 -83h-66l129 124h72l129 -124h-66zM607 114v236h71v-267q-100 -89 -257 -89q-160 0 -264.5 101t-104.5 255t105 255t265 101q167 0 260 -101l-46 -47q-83 82 -211 82q-130 0 -215 -82.5t-85 -207.5t85 -207.5t214 -82.5q108 0 183 54z" />
    <glyph glyph-name="gcircumflex" unicode="&#x11d;" horiz-adv-x="686" 
d="M325 690l-99 -83h-66l129 124h72l129 -124h-66zM518 526h68v-462q0 -134 -65.5 -198.5t-197.5 -64.5q-73 0 -138.5 21.5t-106.5 59.5l36 54q80 -72 207 -72q100 0 147 46.5t47 144.5v67q-67 -102 -205 -102q-114 0 -189 72t-75 184t75 183t189 71q141 0 208 -105v101z
M317 83q87 0 143.5 54t56.5 139t-56.5 138.5t-143.5 53.5t-143 -53.5t-56 -138.5t56 -139t143 -54z" />
    <glyph glyph-name="Gbreve" unicode="&#x11e;" horiz-adv-x="773" 
d="M408 752q-64 0 -107 35t-45 94h50q1 -39 30 -62t72 -23t72 23t30 62h50q-2 -59 -45 -94t-107 -35zM607 114v236h71v-267q-100 -89 -257 -89q-160 0 -264.5 101t-104.5 255t105 255t265 101q167 0 260 -101l-46 -47q-83 82 -211 82q-130 0 -215 -82.5t-85 -207.5
t85 -207.5t214 -82.5q108 0 183 54z" />
    <glyph glyph-name="gbreve" unicode="&#x11f;" horiz-adv-x="686" 
d="M325 602q-64 0 -107 35t-45 94h50q1 -39 30 -62t72 -23t72 23t30 62h50q-2 -59 -45 -94t-107 -35zM518 526h68v-462q0 -134 -65.5 -198.5t-197.5 -64.5q-73 0 -138.5 21.5t-106.5 59.5l36 54q80 -72 207 -72q100 0 147 46.5t47 144.5v67q-67 -102 -205 -102
q-114 0 -189 72t-75 184t75 183t189 71q141 0 208 -105v101zM317 83q87 0 143.5 54t56.5 139t-56.5 138.5t-143.5 53.5t-143 -53.5t-56 -138.5t56 -139t143 -54z" />
    <glyph glyph-name="Gdotaccent" unicode="&#x120;" horiz-adv-x="773" 
d="M408 780q-20 0 -34 14t-14 34t14 34t34 14t34 -14t14 -34t-14 -34t-34 -14zM607 114v236h71v-267q-100 -89 -257 -89q-160 0 -264.5 101t-104.5 255t105 255t265 101q167 0 260 -101l-46 -47q-83 82 -211 82q-130 0 -215 -82.5t-85 -207.5t85 -207.5t214 -82.5
q108 0 183 54z" />
    <glyph glyph-name="gdotaccent" unicode="&#x121;" horiz-adv-x="686" 
d="M325 630q-20 0 -34 14t-14 34t14 34t34 14t34 -14t14 -34t-14 -34t-34 -14zM518 526h68v-462q0 -134 -65.5 -198.5t-197.5 -64.5q-73 0 -138.5 21.5t-106.5 59.5l36 54q80 -72 207 -72q100 0 147 46.5t47 144.5v67q-67 -102 -205 -102q-114 0 -189 72t-75 184t75 183
t189 71q141 0 208 -105v101zM317 83q87 0 143.5 54t56.5 139t-56.5 138.5t-143.5 53.5t-143 -53.5t-56 -138.5t56 -139t143 -54z" />
    <glyph glyph-name="Gcommaaccent" unicode="&#x122;" horiz-adv-x="773" 
d="M607 114v236h71v-267q-100 -89 -257 -89q-160 0 -264.5 101t-104.5 255t105 255t265 101q167 0 260 -101l-46 -47q-83 82 -211 82q-130 0 -215 -82.5t-85 -207.5t85 -207.5t214 -82.5q108 0 183 54zM404 -104q19 0 31 -11.5t12 -27.5q0 -20 -11 -45l-28 -74h-39l21 82
q-29 6 -29 37q0 17 12 28t31 11z" />
    <glyph glyph-name="gcommaaccent" unicode="&#x123;" horiz-adv-x="686" 
d="M325 602q-22 0 -34 11t-12 28q0 14 11 44l35 96h43l-28 -103q31 -7 31 -37q0 -17 -12.5 -28t-33.5 -11zM518 526h68v-462q0 -134 -65.5 -198.5t-197.5 -64.5q-73 0 -138.5 21.5t-106.5 59.5l36 54q80 -72 207 -72q100 0 147 46.5t47 144.5v67q-67 -102 -205 -102
q-114 0 -189 72t-75 184t75 183t189 71q141 0 208 -105v101zM317 83q87 0 143.5 54t56.5 139t-56.5 138.5t-143.5 53.5t-143 -53.5t-56 -138.5t56 -139t143 -54z" />
    <glyph glyph-name="Hcircumflex" unicode="&#x124;" horiz-adv-x="813" 
d="M406 840l-99 -83h-66l129 124h72l129 -124h-66zM626 700h73v-700h-73v323h-438v-323h-74v700h74v-312h438v312z" />
    <glyph glyph-name="hcircumflex" unicode="&#x125;" horiz-adv-x="677" 
d="M234 799l-99 83l-99 -83h-66l129 124h72l129 -124h-66zM367 530q99 0 157.5 -57.5t58.5 -167.5v-305h-71v298q0 82 -41 125t-117 43q-85 0 -134.5 -50.5t-49.5 -139.5v-276h-71v742h71v-308q61 96 197 96z" />
    <glyph glyph-name="Hbar" unicode="&#x126;" horiz-adv-x="823" 
d="M809 578v-60h-105v-518h-73v323h-438v-323h-74v518h-107v60h107v122h74v-122h438v122h73v-122h105zM631 388v130h-438v-130h438z" />
    <glyph glyph-name="hbar" unicode="&#x127;" horiz-adv-x="677" 
d="M367 530q99 0 157.5 -57.5t58.5 -167.5v-305h-71v298q0 82 -41 125t-117 43q-85 0 -134.5 -50.5t-49.5 -139.5v-276h-71v607h-99v52h99v83h71v-83h220v-52h-220v-173q61 96 197 96z" />
    <glyph glyph-name="Itilde" unicode="&#x128;" horiz-adv-x="302" 
d="M219 763q-26 0 -50.5 17t-44.5 34t-36 17q-23 0 -37 -17t-15 -47h-43q2 50 26 80t64 30q34 0 74 -34t57 -34q22 0 36 16.5t16 45.5h43q-2 -49 -26 -78.5t-64 -29.5zM114 0v700h74v-700h-74z" />
    <glyph glyph-name="itilde" unicode="&#x129;" horiz-adv-x="269" 
d="M192 613q-24 0 -45 17t-37 34t-29 17q-36 0 -36 -64h-43q0 52 20 81t56 29q19 0 36.5 -10.5t28 -23t23 -23t23.5 -10.5q36 0 36 61h43q0 -50 -20 -79t-56 -29zM99 0v526h71v-526h-71z" />
    <glyph glyph-name="Imacron" unicode="&#x12a;" horiz-adv-x="302" 
d="M25 795v47h252v-47h-252zM114 0v700h74v-700h-74z" />
    <glyph glyph-name="imacron" unicode="&#x12b;" horiz-adv-x="269" 
d="M9 645v47h252v-47h-252zM99 0v526h71v-526h-71z" />
    <glyph glyph-name="Ibreve" unicode="&#x12c;" horiz-adv-x="302" 
d="M151 752q-64 0 -107 35t-45 94h50q1 -39 30 -62t72 -23t72 23t30 62h50q-2 -59 -45 -94t-107 -35zM114 0v700h74v-700h-74z" />
    <glyph glyph-name="ibreve" unicode="&#x12d;" horiz-adv-x="269" 
d="M135 602q-56 0 -91.5 35t-35.5 94h48q0 -40 21.5 -62.5t57.5 -22.5t58 23t22 62h47q0 -59 -35.5 -94t-91.5 -35zM99 0v526h71v-526h-71z" />
    <glyph glyph-name="Iogonek" unicode="&#x12e;" horiz-adv-x="302" 
d="M212 -163l14 -36q-21 -21 -59 -21q-40 0 -64.5 25t-24.5 66q0 68 56 129h-20v700h74v-700q-58 -59 -58 -122q0 -25 13 -40t32 -15q20 0 37 14z" />
    <glyph glyph-name="iogonek" unicode="&#x12f;" horiz-adv-x="269" 
d="M135 641q-22 0 -37 15t-15 36q0 20 15 35t37 15t37 -14.5t15 -34.5q0 -22 -15 -37t-37 -15zM194 -163l14 -36q-21 -21 -59 -21q-40 0 -64.5 25t-24.5 66q0 68 56 129h-17v526h71v-526q-58 -59 -58 -122q0 -25 13 -40t32 -15q20 0 37 14z" />
    <glyph glyph-name="Idotaccent" unicode="&#x130;" horiz-adv-x="302" 
d="M151 780q-20 0 -34 14t-14 34t14 34t34 14t34 -14t14 -34t-14 -34t-34 -14zM114 0v700h74v-700h-74z" />
    <glyph glyph-name="dotlessi" unicode="&#x131;" horiz-adv-x="269" 
d="M99 0v526h71v-526h-71z" />
    <glyph glyph-name="IJ" unicode="&#x132;" horiz-adv-x="718" 
d="M327 -6q-131 0 -229 69l30 59q87 -62 201 -62q100 0 153.5 59.5t53.5 179.5v401h74v-398q0 -150 -76 -229t-207 -79zM108 302v398h74v-398h-74z" />
    <glyph glyph-name="ij" unicode="&#x133;" horiz-adv-x="543" 
d="M409 642q-22 0 -37 15t-15 36q0 20 15 35t37 15t37 -14.5t15 -34.5q0 -22 -15 -37t-37 -15zM135 641q-22 0 -37 15t-15 36q0 20 15 35t37 15t37 -14.5t15 -34.5q0 -22 -15 -37t-37 -15zM99 0v526h71v-526h-71zM290 -199q-73 0 -111 34l25 54q32 -27 82 -27q87 0 87 99
v565h71v-565q0 -74 -40 -117t-114 -43z" />
    <glyph glyph-name="Jcircumflex" unicode="&#x134;" horiz-adv-x="501" 
d="M229 840l-99 -83h-66l129 124h72l129 -124h-66zM64 636v64h329v-485q0 -221 -204 -221q-60 0 -111 26t-83 74l44 50q58 -86 151 -86q130 0 130 154v424h-256z" />
    <glyph glyph-name="jcircumflex" unicode="&#x135;" horiz-adv-x="274" 
d="M175 731l105 -124h-64l-76 81l-76 -81h-64l105 124h70zM104 -39v565h71v-565q0 -74 -40 -117t-114 -43q-73 0 -111 34l25 54q31 -27 82 -27q87 0 87 99z" />
    <glyph glyph-name="Kcommaaccent" unicode="&#x136;" horiz-adv-x="711" 
d="M381 383l324 -383h-88l-286 329l-143 -145v-184h-74v700h74v-423l411 423h85zM373 -104q19 0 31 -11.5t12 -27.5q0 -20 -11 -45l-28 -74h-39l21 82q-29 6 -29 37q0 17 12 28t31 11z" />
    <glyph glyph-name="kcommaaccent" unicode="&#x137;" horiz-adv-x="601" 
d="M347 311l246 -311h-87l-212 264l-124 -114v-150h-71v742h71v-503l314 287h88zM311 -104q19 0 31 -11.5t12 -27.5q0 -20 -11 -45l-28 -74h-39l21 82q-29 6 -29 37q0 17 12 28t31 11z" />
    <glyph glyph-name="kgreenlandic" unicode="&#x138;" horiz-adv-x="590" 
d="M506 0l-212 264l-124 -114v-150h-71v526h71v-287l314 287h88l-225 -215l246 -311h-87z" />
    <glyph glyph-name="Lacute" unicode="&#x139;" horiz-adv-x="589" 
d="M86 757l137 124h95l-162 -124h-70zM114 0v700h74v-636h392v-64h-466z" />
    <glyph glyph-name="lacute" unicode="&#x13a;" horiz-adv-x="269" 
d="M70 823l137 124h95l-162 -124h-70zM99 0v742h71v-742h-71z" />
    <glyph glyph-name="Lcommaaccent" unicode="&#x13b;" horiz-adv-x="589" 
d="M188 64h392v-64h-466v700h74v-636zM358 -104q19 0 31 -11.5t12 -27.5q0 -20 -11 -45l-28 -74h-39l21 82q-29 6 -29 37q0 17 12 28t31 11z" />
    <glyph glyph-name="lcommaaccent" unicode="&#x13c;" horiz-adv-x="269" 
d="M170 742v-742h-71v742h71zM135 -104q19 0 31 -11.5t12 -27.5q0 -20 -11 -45l-28 -74h-39l21 82q-29 6 -29 37q0 17 12 28t31 11z" />
    <glyph glyph-name="Lcaron" unicode="&#x13d;" horiz-adv-x="589" 
d="M440 540v189h60l-9 -189h-51zM114 0v700h74v-636h392v-64h-466z" />
    <glyph glyph-name="lcaron" unicode="&#x13e;" horiz-adv-x="269" 
d="M262 582v189h60l-9 -189h-51zM99 0v742h71v-742h-71z" />
    <glyph glyph-name="Ldot" unicode="&#x13f;" horiz-adv-x="589" 
d="M114 0v700h74v-636h392v-64h-466zM445 332q-21 0 -35 14t-14 36t14 36t35 14t35 -14t14 -36t-14 -36t-35 -14z" />
    <glyph glyph-name="ldot" unicode="&#x140;" horiz-adv-x="314" 
d="M99 0v742h71v-742h-71zM292 308q-20 0 -33.5 13.5t-13.5 33.5t13.5 33.5t33.5 13.5t33.5 -14t13.5 -33t-13.5 -33t-33.5 -14z" />
    <glyph glyph-name="Lslash" unicode="&#x141;" horiz-adv-x="594" 
d="M193 64h392v-64h-466v309l-67 -50l-33 42l100 75v324h74v-268l118 89l34 -43l-152 -114v-300z" />
    <glyph glyph-name="lslash" unicode="&#x142;" horiz-adv-x="279" 
d="M277 425l-102 -77v-348h-71v295l-68 -51l-33 43l101 76v379h71v-326l70 53z" />
    <glyph glyph-name="Nacute" unicode="&#x143;" horiz-adv-x="813" 
d="M573 881l-162 -124h-70l137 124h95zM626 700h73v-700h-61l-450 568v-568h-74v700h61l451 -568v568z" />
    <glyph glyph-name="nacute" unicode="&#x144;" horiz-adv-x="677" 
d="M507 731l-162 -124h-70l137 124h95zM367 530q99 0 157.5 -57.5t58.5 -167.5v-305h-71v298q0 82 -41 125t-117 43q-85 0 -134.5 -50.5t-49.5 -139.5v-276h-71v526h68v-97q60 101 200 101z" />
    <glyph glyph-name="Ncommaaccent" unicode="&#x145;" horiz-adv-x="813" 
d="M626 700h73v-700h-61l-450 568v-568h-74v700h61l451 -568v568zM406 -104q19 0 31 -11.5t12 -27.5q0 -20 -11 -45l-28 -74h-39l21 82q-29 6 -29 37q0 17 12 28t31 11z" />
    <glyph glyph-name="ncommaaccent" unicode="&#x146;" horiz-adv-x="677" 
d="M367 530q99 0 157.5 -57.5t58.5 -167.5v-305h-71v298q0 82 -41 125t-117 43q-85 0 -134.5 -50.5t-49.5 -139.5v-276h-71v526h68v-97q60 101 200 101zM340 -104q19 0 31 -11.5t12 -27.5q0 -20 -11 -45l-28 -74h-39l21 82q-29 6 -29 37q0 17 12 28t31 11z" />
    <glyph glyph-name="Ncaron" unicode="&#x147;" horiz-adv-x="813" 
d="M442 757h-72l-129 124h66l99 -82l99 82h66zM626 700h73v-700h-61l-450 568v-568h-74v700h61l451 -568v568z" />
    <glyph glyph-name="ncaron" unicode="&#x148;" horiz-adv-x="677" 
d="M376 607h-72l-129 124h66l99 -82l99 82h66zM367 530q99 0 157.5 -57.5t58.5 -167.5v-305h-71v298q0 82 -41 125t-117 43q-85 0 -134.5 -50.5t-49.5 -139.5v-276h-71v526h68v-97q60 101 200 101z" />
    <glyph glyph-name="napostrophe" unicode="&#x149;" horiz-adv-x="750" 
d="M57 440l4 260h51l-13 -260h-42zM440 530q99 0 157.5 -57.5t58.5 -167.5v-305h-71v298q0 82 -41 125t-117 43q-85 0 -134.5 -50.5t-49.5 -139.5v-276h-71v526h68v-97q60 101 200 101z" />
    <glyph glyph-name="Eng" unicode="&#x14a;" horiz-adv-x="813" 
d="M626 700h73v-672q0 -227 -202 -227q-114 0 -178 86l37 52q55 -74 141 -74q128 0 129 150l-438 553v-568h-74v700h61l451 -568v568z" />
    <glyph glyph-name="eng" unicode="&#x14b;" horiz-adv-x="677" 
d="M367 530q99 0 157.5 -57.5t58.5 -167.5v-344q0 -74 -40.5 -117t-113.5 -43t-111 34l25 54q30 -27 82 -27q87 0 87 99v337q0 82 -41 125t-117 43q-85 0 -134.5 -50.5t-49.5 -139.5v-276h-71v526h68v-97q60 101 200 101z" />
    <glyph glyph-name="Omacron" unicode="&#x14c;" horiz-adv-x="839" 
d="M266 795v47h308v-47h-308zM420 -6q-159 0 -263.5 101.5t-104.5 254.5t104.5 254.5t263.5 101.5q158 0 262.5 -101t104.5 -255t-104.5 -255t-262.5 -101zM420 60q126 0 209.5 82.5t83.5 207.5t-83.5 207.5t-209.5 82.5q-127 0 -211 -82.5t-84 -207.5t84 -207.5t211 -82.5z
" />
    <glyph glyph-name="omacron" unicode="&#x14d;" horiz-adv-x="627" 
d="M159 645v47h308v-47h-308zM314 -5q-116 0 -192 75.5t-76 192.5t76 192t192 75t191.5 -75t75.5 -192t-75.5 -192.5t-191.5 -75.5zM314 58q85 0 140 57t55 148t-55 148t-140 57t-140.5 -57t-55.5 -148t55.5 -148t140.5 -57z" />
    <glyph glyph-name="Obreve" unicode="&#x14e;" horiz-adv-x="839" 
d="M420 752q-64 0 -107 35t-45 94h50q1 -39 30 -62t72 -23t72 23t30 62h50q-2 -59 -45 -94t-107 -35zM420 -6q-159 0 -263.5 101.5t-104.5 254.5t104.5 254.5t263.5 101.5q158 0 262.5 -101t104.5 -255t-104.5 -255t-262.5 -101zM420 60q126 0 209.5 82.5t83.5 207.5
t-83.5 207.5t-209.5 82.5q-127 0 -211 -82.5t-84 -207.5t84 -207.5t211 -82.5z" />
    <glyph glyph-name="obreve" unicode="&#x14f;" horiz-adv-x="627" 
d="M313 602q-64 0 -107 35t-45 94h50q1 -39 30 -62t72 -23t72 23t30 62h50q-2 -59 -45 -94t-107 -35zM314 -5q-116 0 -192 75.5t-76 192.5t76 192t192 75t191.5 -75t75.5 -192t-75.5 -192.5t-191.5 -75.5zM314 58q85 0 140 57t55 148t-55 148t-140 57t-140.5 -57t-55.5 -148
t55.5 -148t140.5 -57z" />
    <glyph glyph-name="Ohungarumlaut" unicode="&#x150;" horiz-adv-x="839" 
d="M307 757l97 124h79l-113 -124h-63zM470 757l96 124h79l-112 -124h-63zM420 -6q-159 0 -263.5 101.5t-104.5 254.5t104.5 254.5t263.5 101.5q158 0 262.5 -101t104.5 -255t-104.5 -255t-262.5 -101zM420 60q126 0 209.5 82.5t83.5 207.5t-83.5 207.5t-209.5 82.5
q-127 0 -211 -82.5t-84 -207.5t84 -207.5t211 -82.5z" />
    <glyph glyph-name="ohungarumlaut" unicode="&#x151;" horiz-adv-x="627" 
d="M200 607l97 124h79l-113 -124h-63zM363 607l96 124h79l-112 -124h-63zM314 -5q-116 0 -192 75.5t-76 192.5t76 192t192 75t191.5 -75t75.5 -192t-75.5 -192.5t-191.5 -75.5zM314 58q85 0 140 57t55 148t-55 148t-140 57t-140.5 -57t-55.5 -148t55.5 -148t140.5 -57z" />
    <glyph glyph-name="OE" unicode="&#x152;" horiz-adv-x="1121" 
d="M640 64h421v-64h-634q-167 0 -271 97.5t-104 251.5q0 156 104 253.5t271 97.5h619v-64h-406v-249h362v-63h-362v-260zM430 64h136v572h-136q-138 0 -221.5 -79.5t-83.5 -207.5q0 -127 83.5 -206t221.5 -79z" />
    <glyph glyph-name="oe" unicode="&#x153;" horiz-adv-x="1068" 
d="M1022 263q0 -3 -0.5 -10.5t-0.5 -11.5h-441q6 -82 63.5 -132.5t144.5 -50.5q102 0 160 69l40 -46q-72 -86 -202 -86q-83 0 -146 36.5t-96 99.5q-32 -63 -92 -99.5t-138 -36.5q-116 0 -192 75.5t-76 192.5t76 192t192 75q77 0 137.5 -36t92.5 -98q31 62 89.5 98t133.5 36
q111 0 183 -74.5t72 -192.5zM767 469q-76 0 -128 -49t-59 -126h374q-7 77 -59 126t-128 49zM314 58q85 0 140 57t55 148t-55 148t-140 57t-140.5 -57t-55.5 -148t55.5 -148t140.5 -57z" />
    <glyph glyph-name="Racute" unicode="&#x154;" horiz-adv-x="723" 
d="M536 881l-162 -124h-70l137 124h95zM673 0h-81l-160 225q-27 -3 -56 -3h-188v-222h-74v700h262q134 0 210 -64t76 -176q0 -82 -41.5 -138.5t-118.5 -81.5zM374 285q104 0 159 46t55 129q0 85 -55 130.5t-159 45.5h-186v-351h186z" />
    <glyph glyph-name="racute" unicode="&#x155;" horiz-adv-x="401" 
d="M399 731l-162 -124h-70l137 124h95zM167 423q50 107 197 107v-69q-3 0 -9 0.5t-8 0.5q-83 0 -130 -51t-47 -143v-268h-71v526h68v-103z" />
    <glyph glyph-name="Rcommaaccent" unicode="&#x156;" horiz-adv-x="723" 
d="M673 0h-81l-160 225q-27 -3 -56 -3h-188v-222h-74v700h262q134 0 210 -64t76 -176q0 -82 -41.5 -138.5t-118.5 -81.5zM374 285q104 0 159 46t55 129q0 85 -55 130.5t-159 45.5h-186v-351h186zM369 -104q19 0 31 -11.5t12 -27.5q0 -20 -11 -45l-28 -74h-39l21 82
q-29 6 -29 37q0 17 12 28t31 11z" />
    <glyph glyph-name="rcommaaccent" unicode="&#x157;" horiz-adv-x="401" 
d="M167 423q50 107 197 107v-69q-3 0 -9 0.5t-8 0.5q-83 0 -130 -51t-47 -143v-268h-71v526h68v-103zM135 -104q19 0 31 -11.5t12 -27.5q0 -20 -11 -45l-28 -74h-39l21 82q-29 6 -29 37q0 17 12 28t31 11z" />
    <glyph glyph-name="Rcaron" unicode="&#x158;" horiz-adv-x="723" 
d="M405 757h-72l-129 124h66l99 -82l99 82h66zM673 0h-81l-160 225q-27 -3 -56 -3h-188v-222h-74v700h262q134 0 210 -64t76 -176q0 -82 -41.5 -138.5t-118.5 -81.5zM374 285q104 0 159 46t55 129q0 85 -55 130.5t-159 45.5h-186v-351h186z" />
    <glyph glyph-name="rcaron" unicode="&#x159;" horiz-adv-x="401" 
d="M268 607h-72l-129 124h66l99 -82l99 82h66zM167 423q50 107 197 107v-69q-3 0 -9 0.5t-8 0.5q-83 0 -130 -51t-47 -143v-268h-71v526h68v-103z" />
    <glyph glyph-name="Sacute" unicode="&#x15a;" horiz-adv-x="615" 
d="M256 757l137 124h95l-162 -124h-70zM307 -6q-78 0 -149.5 25t-110.5 66l29 57q38 -38 101 -61.5t130 -23.5q94 0 141 34.5t47 89.5q0 45 -32 73.5t-80 40.5t-103.5 27.5t-103.5 32.5t-80 57.5t-32 101.5q0 83 65.5 137.5t192.5 54.5q128 0 217 -62l-25 -59
q-89 58 -192 58q-92 0 -138.5 -35.5t-46.5 -91.5q0 -52 44.5 -82.5t107.5 -44.5t126.5 -31.5t108 -60t44.5 -112.5q0 -83 -66.5 -137t-194.5 -54z" />
    <glyph glyph-name="sacute" unicode="&#x15b;" horiz-adv-x="489" 
d="M178 607l137 124h95l-162 -124h-70zM240 -5q-64 0 -122.5 18.5t-91.5 46.5l32 56q75 -59 187 -59q141 0 141 86q0 32 -25.5 51t-63 25t-82 16t-82 21.5t-63 43t-25.5 80.5q0 66 55 108t153 42q114 0 186 -49l-31 -57q-65 45 -155 45q-68 0 -102.5 -24t-34.5 -63t35 -59
t85 -28.5t100.5 -19t85.5 -42.5t35 -88q0 -69 -57.5 -109.5t-159.5 -40.5z" />
    <glyph glyph-name="Scircumflex" unicode="&#x15c;" horiz-adv-x="615" 
d="M321 840l-99 -83h-66l129 124h72l129 -124h-66zM137 516q0 -52 44.5 -82.5t107.5 -44.5t126.5 -31.5t108 -60t44.5 -112.5q0 -83 -66.5 -137t-194.5 -54q-78 0 -149.5 25t-110.5 66l29 57q38 -38 101 -61.5t130 -23.5q94 0 141 34.5t47 89.5q0 45 -32 73.5t-80 40.5
t-103.5 27.5t-103.5 32.5t-80 57.5t-32 101.5q0 83 65.5 137.5t192.5 54.5q128 0 217 -62l-25 -59q-89 58 -192 58q-92 0 -138.5 -35.5t-46.5 -91.5z" />
    <glyph glyph-name="scircumflex" unicode="&#x15d;" horiz-adv-x="489" 
d="M243 690l-99 -83h-66l129 124h72l129 -124h-66zM116 382q0 -39 35 -59t85 -28.5t100.5 -19t85.5 -42.5t35 -88q0 -69 -57.5 -109.5t-159.5 -40.5q-64 0 -122.5 18.5t-91.5 46.5l32 56q75 -59 187 -59q141 0 141 86q0 32 -25.5 51t-63 25t-82 16t-82 21.5t-63 43
t-25.5 80.5q0 66 55 108t153 42q114 0 186 -49l-31 -57q-65 45 -155 45q-68 0 -102.5 -24t-34.5 -63z" />
    <glyph glyph-name="Scedilla" unicode="&#x15e;" horiz-adv-x="615" 
d="M568 185q0 -77 -58 -130t-171 -60l-12 -47q41 -4 63 -25.5t22 -55.5q0 -40 -31 -63.5t-82 -23.5q-49 0 -84 23l17 38q29 -19 66 -19q62 0 62 47q0 46 -62 46h-23l21 79q-76 2 -143.5 27t-105.5 64l29 57q38 -38 101 -61.5t130 -23.5q94 0 141 34.5t47 89.5q0 45 -32 73.5
t-80 40.5t-103.5 27.5t-103.5 32.5t-80 57.5t-32 101.5q0 83 65.5 137.5t192.5 54.5q128 0 217 -62l-25 -59q-89 58 -192 58q-92 0 -138.5 -35.5t-46.5 -91.5q0 -52 44.5 -82.5t107.5 -44.5t126.5 -31.5t108 -60t44.5 -112.5z" />
    <glyph glyph-name="scedilla" unicode="&#x15f;" horiz-adv-x="489" 
d="M457 145q0 -65 -52 -105.5t-144 -44.5l-12 -47q41 -4 63 -25.5t22 -55.5q0 -40 -31 -63.5t-82 -23.5q-49 0 -84 23l17 38q29 -19 66 -19q62 0 62 47q0 46 -62 46h-23l21 81q-58 3 -110 20.5t-82 43.5l32 56q75 -59 187 -59q141 0 141 86q0 32 -25.5 51t-63 25t-82 16
t-82 21.5t-63 43t-25.5 80.5q0 66 55 108t153 42q114 0 186 -49l-31 -57q-65 45 -155 45q-68 0 -102.5 -24t-34.5 -63t35 -59t85 -28.5t100.5 -19t85.5 -42.5t35 -88z" />
    <glyph glyph-name="Scaron" unicode="&#x160;" horiz-adv-x="615" 
d="M357 757h-72l-129 124h66l99 -82l99 82h66zM137 516q0 -52 44.5 -82.5t107.5 -44.5t126.5 -31.5t108 -60t44.5 -112.5q0 -83 -66.5 -137t-194.5 -54q-78 0 -149.5 25t-110.5 66l29 57q38 -38 101 -61.5t130 -23.5q94 0 141 34.5t47 89.5q0 45 -32 73.5t-80 40.5
t-103.5 27.5t-103.5 32.5t-80 57.5t-32 101.5q0 83 65.5 137.5t192.5 54.5q128 0 217 -62l-25 -59q-89 58 -192 58q-92 0 -138.5 -35.5t-46.5 -91.5z" />
    <glyph glyph-name="scaron" unicode="&#x161;" horiz-adv-x="489" 
d="M279 607h-72l-129 124h66l99 -82l99 82h66zM116 382q0 -39 35 -59t85 -28.5t100.5 -19t85.5 -42.5t35 -88q0 -69 -57.5 -109.5t-159.5 -40.5q-64 0 -122.5 18.5t-91.5 46.5l32 56q75 -59 187 -59q141 0 141 86q0 32 -25.5 51t-63 25t-82 16t-82 21.5t-63 43t-25.5 80.5
q0 66 55 108t153 42q114 0 186 -49l-31 -57q-65 45 -155 45q-68 0 -102.5 -24t-34.5 -63z" />
    <glyph glyph-name="uni0162" unicode="&#x162;" horiz-adv-x="574" 
d="M324 0h-18l-13 -52q41 -4 63 -25.5t22 -55.5q0 -40 -31 -63.5t-82 -23.5q-49 0 -84 23l17 38q29 -19 66 -19q62 0 62 47q0 46 -62 46h-23l22 85h-13v636h-246v64h566v-64h-246v-636z" />
    <glyph glyph-name="uni0163" unicode="&#x163;" horiz-adv-x="406" 
d="M255 -52q41 -4 63 -25.5t22 -55.5q0 -40 -31 -63.5t-82 -23.5q-49 0 -84 23l17 38q29 -19 66 -19q62 0 62 47q0 46 -62 46h-23l22 83q-114 22 -114 150v318h-94v60h94v115h71v-115h160v-60h-160v-314q0 -47 23.5 -71.5t67.5 -24.5q48 0 78 27l25 -51q-41 -37 -109 -37z
" />
    <glyph glyph-name="Tcaron" unicode="&#x164;" horiz-adv-x="574" 
d="M323 757h-72l-129 124h66l99 -82l99 82h66zM4 700h566v-64h-246v-636h-74v636h-246v64z" />
    <glyph glyph-name="tcaron" unicode="&#x165;" horiz-adv-x="406" 
d="M330 764l-9 -166h-48v166h57zM351 83l25 -51q-41 -37 -111 -37q-74 0 -114 40t-40 113v318h-94v60h94v115h71v-115h160v-60h-160v-314q0 -47 23.5 -71.5t67.5 -24.5q48 0 78 27z" />
    <glyph glyph-name="Tbar" unicode="&#x166;" horiz-adv-x="574" 
d="M570 636h-246v-261h157v-59h-157v-316h-74v316h-157v59h157v261h-246v64h566v-64z" />
    <glyph glyph-name="tbar" unicode="&#x167;" horiz-adv-x="416" 
d="M356 83l25 -51q-41 -37 -111 -37q-74 0 -114 40t-40 113v122h-82v51h82v145h-94v60h94v115h71v-115h160v-60h-160v-145h149v-51h-149v-118q0 -47 23.5 -71.5t67.5 -24.5q48 0 78 27z" />
    <glyph glyph-name="Utilde" unicode="&#x168;" horiz-adv-x="792" 
d="M464 763q-26 0 -50.5 17t-44.5 34t-36 17q-23 0 -37 -17t-15 -47h-43q2 50 26 80t64 30q34 0 74 -34t57 -34q22 0 36 16.5t16 45.5h43q-2 -49 -26 -78.5t-64 -29.5zM396 -6q-136 0 -212 78t-76 227v401h74v-398q0 -242 214 -242q215 0 215 242v398h72v-401
q0 -149 -75.5 -227t-211.5 -78z" />
    <glyph glyph-name="utilde" unicode="&#x169;" horiz-adv-x="673" 
d="M271 681q-23 0 -37 -17t-15 -47h-43q2 50 26 80t64 30q34 0 74 -34t57 -34q22 0 36 16.5t16 45.5h43q-2 -49 -26 -78.5t-64 -29.5q-26 0 -50.5 17t-44.5 34t-36 17zM502 526h71v-526h-68v96q-28 -48 -77 -74.5t-112 -26.5q-103 0 -162.5 57.5t-59.5 168.5v305h71v-298
q0 -83 41 -126t117 -43q83 0 131 50.5t48 140.5v276z" />
    <glyph glyph-name="Umacron" unicode="&#x16a;" horiz-adv-x="792" 
d="M242 795v47h308v-47h-308zM396 -6q-136 0 -212 78t-76 227v401h74v-398q0 -242 214 -242q215 0 215 242v398h72v-401q0 -149 -75.5 -227t-211.5 -78z" />
    <glyph glyph-name="umacron" unicode="&#x16b;" horiz-adv-x="673" 
d="M488 692v-47h-308v47h308zM502 526h71v-526h-68v96q-28 -48 -77 -74.5t-112 -26.5q-103 0 -162.5 57.5t-59.5 168.5v305h71v-298q0 -83 41 -126t117 -43q83 0 131 50.5t48 140.5v276z" />
    <glyph glyph-name="Ubreve" unicode="&#x16c;" horiz-adv-x="792" 
d="M396 752q-64 0 -107 35t-45 94h50q1 -39 30 -62t72 -23t72 23t30 62h50q-2 -59 -45 -94t-107 -35zM396 -6q-136 0 -212 78t-76 227v401h74v-398q0 -242 214 -242q215 0 215 242v398h72v-401q0 -149 -75.5 -227t-211.5 -78z" />
    <glyph glyph-name="ubreve" unicode="&#x16d;" horiz-adv-x="673" 
d="M334 602q-64 0 -107 35t-45 94h50q1 -39 30 -62t72 -23t72 23t30 62h50q-2 -59 -45 -94t-107 -35zM502 526h71v-526h-68v96q-28 -48 -77 -74.5t-112 -26.5q-103 0 -162.5 57.5t-59.5 168.5v305h71v-298q0 -83 41 -126t117 -43q83 0 131 50.5t48 140.5v276z" />
    <glyph glyph-name="Uring" unicode="&#x16e;" horiz-adv-x="792" 
d="M395 769q-45 0 -74.5 29.5t-29.5 72.5t30 74t74 31t74.5 -31t30.5 -74q0 -42 -30 -72t-75 -30zM395 804q30 0 49 19t19 48t-19.5 49.5t-48.5 20.5t-48 -20t-19 -50q0 -29 18.5 -48t48.5 -19zM396 -6q-136 0 -212 78t-76 227v401h74v-398q0 -242 214 -242q215 0 215 242
v398h72v-401q0 -149 -75.5 -227t-211.5 -78z" />
    <glyph glyph-name="uring" unicode="&#x16f;" horiz-adv-x="673" 
d="M333 595q-45 0 -74.5 29.5t-29.5 72.5t30 74t74 31t74.5 -31t30.5 -74q0 -42 -30 -72t-75 -30zM333 767q-29 0 -48 -20t-19 -50q0 -29 18.5 -48t48.5 -19t49 19t19 48t-19.5 49.5t-48.5 20.5zM502 526h71v-526h-68v96q-28 -48 -77 -74.5t-112 -26.5q-103 0 -162.5 57.5
t-59.5 168.5v305h71v-298q0 -83 41 -126t117 -43q83 0 131 50.5t48 140.5v276z" />
    <glyph glyph-name="Uhungarumlaut" unicode="&#x170;" horiz-adv-x="792" 
d="M283 757l97 124h79l-113 -124h-63zM446 757l96 124h79l-112 -124h-63zM396 -6q-136 0 -212 78t-76 227v401h74v-398q0 -242 214 -242q215 0 215 242v398h72v-401q0 -149 -75.5 -227t-211.5 -78z" />
    <glyph glyph-name="uhungarumlaut" unicode="&#x171;" horiz-adv-x="673" 
d="M397 731l-113 -124h-63l97 124h79zM447 607h-63l96 124h79zM502 526h71v-526h-68v96q-28 -48 -77 -74.5t-112 -26.5q-103 0 -162.5 57.5t-59.5 168.5v305h71v-298q0 -83 41 -126t117 -43q83 0 131 50.5t48 140.5v276z" />
    <glyph glyph-name="Uogonek" unicode="&#x172;" horiz-adv-x="792" 
d="M611 700h72v-401q0 -230 -179 -291q-148 -51 -148 -128q0 -27 18 -41.5t47 -14.5q38 0 61 19l16 -39q-34 -24 -84 -24q-51 0 -81 25.5t-30 69.5q0 71 77 119q-129 5 -200.5 83t-71.5 222v401h74v-398q0 -242 214 -242q215 0 215 242v398z" />
    <glyph glyph-name="uogonek" unicode="&#x173;" horiz-adv-x="673" 
d="M578 -157l16 -39q-36 -24 -85 -24q-50 0 -80 26t-30 69q0 80 106 136v85q-28 -48 -77 -74.5t-112 -26.5q-103 0 -162.5 57.5t-59.5 168.5v305h71v-298q0 -83 41 -126t117 -43q83 0 131 50.5t48 140.5v276h71v-526q-122 -54 -122 -120q0 -27 18 -41.5t47 -14.5q39 0 62 19
z" />
    <glyph glyph-name="Wcircumflex" unicode="&#x174;" horiz-adv-x="1111" 
d="M556 840l-99 -83h-66l129 124h72l129 -124h-66zM1004 700h71l-236 -700h-78l-205 597l-206 -597h-77l-236 700h76l202 -602l209 602h69l206 -605z" />
    <glyph glyph-name="wcircumflex" unicode="&#x175;" horiz-adv-x="879" 
d="M438 688l-99 -83h-66l129 124h72l129 -124h-66zM806 526h65l-199 -526h-67l-166 431l-166 -431h-67l-198 526h68l165 -447l169 447h61l168 -447z" />
    <glyph glyph-name="Ycircumflex" unicode="&#x176;" horiz-adv-x="635" 
d="M317 840l-99 -83h-66l129 124h72l129 -124h-66zM634 700l-280 -458v-242h-73v242l-280 458h79l240 -393l240 393h74z" />
    <glyph glyph-name="ycircumflex" unicode="&#x177;" horiz-adv-x="542" 
d="M257 690l-99 -83h-66l129 124h72l129 -124h-66zM471 526h70l-263 -589q-32 -74 -74 -105t-101 -31q-80 0 -128 48l33 53q40 -40 96 -40q36 0 61.5 20t47.5 68l23 51l-235 525h74l198 -447z" />
    <glyph glyph-name="Ydieresis" unicode="&#x178;" horiz-adv-x="635" 
d="M228 780q-18 0 -30.5 12t-12.5 31q0 18 12.5 30.5t30.5 12.5q17 0 30 -12.5t13 -30.5t-12.5 -30.5t-30.5 -12.5zM406 780q-18 0 -30.5 12.5t-12.5 30.5t13 30.5t30 12.5q18 0 30.5 -12.5t12.5 -30.5q0 -19 -12.5 -31t-30.5 -12zM634 700l-280 -458v-242h-73v242l-280 458
h79l240 -393l240 393h74z" />
    <glyph glyph-name="Zacute" unicode="&#x179;" horiz-adv-x="651" 
d="M499 881l-162 -124h-70l137 124h95zM144 64h475v-64h-574v51l464 585h-457v64h555v-51z" />
    <glyph glyph-name="zacute" unicode="&#x17a;" horiz-adv-x="511" 
d="M423 731l-162 -124h-70l137 124h95zM133 59h337v-59h-428v47l331 419h-325v60h416v-47z" />
    <glyph glyph-name="Zdotaccent" unicode="&#x17b;" horiz-adv-x="651" 
d="M332 780q-20 0 -34 14t-14 34t14 34t34 14t34 -14t14 -34t-14 -34t-34 -14zM144 64h475v-64h-574v51l464 585h-457v64h555v-51z" />
    <glyph glyph-name="zdotaccent" unicode="&#x17c;" horiz-adv-x="511" 
d="M256 630q-20 0 -34 14t-14 34t14 34t34 14t34 -14t14 -34t-14 -34t-34 -14zM133 59h337v-59h-428v47l331 419h-325v60h416v-47z" />
    <glyph glyph-name="Zcaron" unicode="&#x17d;" horiz-adv-x="651" 
d="M368 757h-72l-129 124h66l99 -82l99 82h66zM144 64h475v-64h-574v51l464 585h-457v64h555v-51z" />
    <glyph glyph-name="zcaron" unicode="&#x17e;" horiz-adv-x="511" 
d="M292 607h-72l-129 124h66l99 -82l99 82h66zM133 59h337v-59h-428v47l331 419h-325v60h416v-47z" />
    <glyph glyph-name="longs" unicode="&#x17f;" horiz-adv-x="295" 
d="M280 747q67 0 106 -33l-25 -53q-31 26 -77 26q-91 0 -91 -99v-588h-71v466h-94v60h94v65q0 72 41.5 114t116.5 42z" />
    <glyph glyph-name="uni018F" unicode="&#x18f;" horiz-adv-x="817" 
d="M401 706q157 0 260.5 -101t103.5 -254q0 -152 -102.5 -254.5t-253.5 -102.5q-154 0 -255.5 102t-101.5 257v22h638q-8 114 -90 189.5t-199 75.5q-136 0 -224 -81l-44 51q101 96 268 96zM409 58q113 0 191 71t89 183h-562q12 -114 89.5 -184t192.5 -70z" />
    <glyph glyph-name="florin" unicode="&#x192;" horiz-adv-x="438" 
d="M369 686q-91 0 -105 -99l-9 -70h161l-7 -59h-159l-62 -501q-8 -72 -53 -114t-117 -42q-73 0 -108 34l29 54q29 -27 77 -27q89 0 101 99l62 497h-94l7 59h94l9 74q8 71 54 113.5t119 42.5q71 0 106 -34l-31 -54q-29 27 -74 27z" />
    <glyph glyph-name="Ohorn" unicode="&#x1a0;" horiz-adv-x="839" 
d="M631 644q73 -45 114.5 -123t41.5 -171q0 -154 -104.5 -255t-262.5 -101q-159 0 -263.5 101.5t-104.5 254.5q0 154 105 255t265 101q44 0 107.5 -7t90.5 -7q99 0 99 76q0 31 -20 64l47 18q26 -37 26 -84q0 -56 -36.5 -87.5t-104.5 -34.5zM420 60q126 0 209.5 83t83.5 207
t-83.5 207t-209.5 83t-210.5 -83t-84.5 -207t84.5 -207t210.5 -83z" />
    <glyph glyph-name="ohorn" unicode="&#x1a1;" horiz-adv-x="627" 
d="M476 479q105 -76 105 -216q0 -117 -75.5 -192.5t-191.5 -75.5t-192 75.5t-76 192.5t76 192t192 75q28 0 64.5 -3t59.5 -3q40 0 60.5 20t20.5 50q0 31 -20 64l46 18q27 -41 27 -84t-25 -73t-71 -40zM314 58q84 0 139.5 57t55.5 148t-55 148t-140 57t-140.5 -57t-55.5 -148
t55.5 -148t140.5 -57z" />
    <glyph glyph-name="Uhorn" unicode="&#x1af;" horiz-adv-x="797" 
d="M783 765q0 -50 -26 -82t-74 -37v-347q0 -149 -75.5 -227t-211.5 -78t-212 78t-76 227v401h74v-398q0 -242 214 -242q215 0 215 242v398h53q33 0 49.5 18.5t16.5 48.5q0 36 -20 64l47 18q26 -36 26 -84z" />
    <glyph glyph-name="uhorn" unicode="&#x1b0;" horiz-adv-x="679" 
d="M658 591q0 -46 -22 -76.5t-63 -39.5v-475h-68v96q-28 -48 -77 -74.5t-112 -26.5q-103 0 -162.5 57.5t-59.5 168.5v305h71v-298q0 -83 41 -126t117 -43q83 0 131 50.5t48 140.5v276h37q33 0 49.5 18.5t16.5 48.5q0 36 -20 64l47 18q26 -36 26 -84z" />
    <glyph glyph-name="uni01B7" unicode="&#x1b7;" horiz-adv-x="615" 
d="M316 400q119 -4 181.5 -58t62.5 -141q0 -92 -68.5 -149.5t-196.5 -57.5q-82 0 -153 24t-110 64l29 58q36 -36 98 -58.5t134 -22.5q92 0 142.5 37.5t50.5 104.5q0 66 -50.5 103t-151.5 37h-52v52l210 244h-384v63h471v-51z" />
    <glyph glyph-name="uni01C4" unicode="&#x1c4;" horiz-adv-x="1456" 
d="M1166 757h-72l-129 124h66l99 -82l99 82h66zM399 700q167 0 271 -97.5t104 -252.5t-104 -252.5t-271 -97.5h-285v700h285zM942 64h475v-64h-574v51l464 585h-457v64h555v-51zM395 64q138 0 222 79.5t84 206.5t-84 206.5t-222 79.5h-207v-572h207z" />
    <glyph glyph-name="uni01C5" unicode="&#x1c5;" horiz-adv-x="1337" 
d="M1118 608h-72l-129 124h66l99 -82l99 82h66zM399 700q167 0 271 -97.5t104 -252.5t-104 -252.5t-271 -97.5h-285v700h285zM395 64q138 0 222 79.5t84 206.5t-84 206.5t-222 79.5h-207v-572h207zM959 59h337v-59h-428v47l331 419h-325v60h416v-47z" />
    <glyph glyph-name="uni01C6" unicode="&#x1c6;" horiz-adv-x="1202" 
d="M508 426v316h71v-742h-68v104q-66 -109 -203 -109q-113 0 -187.5 75t-74.5 193t74 192.5t188 74.5q133 0 200 -104zM969 608h-72l-129 124h66l99 -82l99 82h66zM810 59h337v-59h-428v47l331 419h-325v60h416v-47zM314 58q84 0 139.5 57t55.5 148t-55.5 148t-139.5 57
q-85 0 -140.5 -57t-55.5 -148t55.5 -148t140.5 -57z" />
    <glyph glyph-name="uni01C7" unicode="&#x1c7;" horiz-adv-x="1090" 
d="M114 0v700h74v-636h392v-64h-466zM778 -6q-60 0 -111 26t-83 74l44 50q58 -86 151 -86q130 0 130 154v424h-256v64h329v-485q0 -221 -204 -221z" />
    <glyph glyph-name="uni01C8" unicode="&#x1c8;" horiz-adv-x="863" 
d="M729 642q-22 0 -37 15t-15 36q0 20 15 35t37 15t37 -14.5t15 -34.5q0 -22 -15 -37t-37 -15zM114 0v700h74v-636h392v-64h-466zM610 -199q-73 0 -111 34l25 54q32 -27 82 -27q87 0 87 99v565h71v-565q0 -74 -40 -117t-114 -43z" />
    <glyph glyph-name="uni01C9" unicode="&#x1c9;" horiz-adv-x="543" 
d="M99 0v742h71v-742h-71zM409 641q-22 0 -37 15t-15 36q0 20 15 35t37 15t37 -14.5t15 -34.5q0 -22 -15 -37t-37 -15zM290 -199q-73 0 -111 34l25 54q32 -27 82 -27q87 0 87 99v565h71v-565q0 -74 -40 -117t-114 -43z" />
    <glyph glyph-name="uni01CA" unicode="&#x1ca;" horiz-adv-x="1314" 
d="M626 132v568h73v-700h-61l-450 568v-568h-74v700h61zM877 700h329v-485q0 -221 -204 -221q-60 0 -111 26t-83 74l44 50q58 -86 151 -86q130 0 130 154v424h-256v64z" />
    <glyph glyph-name="uni01CB" unicode="&#x1cb;" horiz-adv-x="1087" 
d="M953 743q22 0 37 -14.5t15 -34.5q0 -22 -15 -37t-37 -15t-37 15t-15 36q0 20 15 35t37 15zM626 132v568h73v-700h-61l-450 568v-568h-74v700h61zM917 -39v565h71v-565q0 -74 -40 -117t-114 -43q-73 0 -111 34l25 54q32 -27 82 -27q87 0 87 99z" />
    <glyph glyph-name="uni01CC" unicode="&#x1cc;" horiz-adv-x="951" 
d="M817 742q22 0 37 -14.5t15 -34.5q0 -22 -15 -37t-37 -15t-37 15t-15 36q0 20 15 35t37 15zM367 530q99 0 157.5 -57.5t58.5 -167.5v-305h-71v298q0 82 -41 125t-117 43q-85 0 -134.5 -50.5t-49.5 -139.5v-276h-71v526h68v-97q60 101 200 101zM781 -39v565h71v-565
q0 -74 -40 -117t-114 -43q-73 0 -111 34l25 54q32 -27 82 -27q87 0 87 99z" />
    <glyph glyph-name="uni01CD" unicode="&#x1cd;" horiz-adv-x="717" 
d="M395 757h-72l-129 124h66l99 -82l99 82h66zM637 0l-84 187h-390l-84 -187h-77l320 700h73l320 -700h-78zM190 247h336l-168 376z" />
    <glyph glyph-name="uni01CE" unicode="&#x1ce;" horiz-adv-x="590" 
d="M321 607h-72l-129 124h66l99 -82l99 82h66zM283 530q103 0 158 -51.5t55 -152.5v-326h-68v82q-52 -87 -181 -87q-88 0 -140 42t-52 111q0 67 48.5 108t154.5 41h167v32q0 68 -38 103.5t-111 35.5q-105 0 -175 -62l-32 53q84 71 214 71zM258 51q124 0 167 107v86h-165
q-135 0 -135 -94q0 -46 35 -72.5t98 -26.5z" />
    <glyph glyph-name="uni01D3" unicode="&#x1d3;" horiz-adv-x="792" 
d="M432 757h-72l-129 124h66l99 -82l99 82h66zM611 700h72v-401q0 -149 -75.5 -227t-211.5 -78t-212 78t-76 227v401h74v-398q0 -242 214 -242q215 0 215 242v398z" />
    <glyph glyph-name="uni01D4" unicode="&#x1d4;" horiz-adv-x="673" 
d="M370 607h-72l-129 124h66l99 -82l99 82h66zM502 526h71v-526h-68v96q-28 -48 -77 -74.5t-112 -26.5q-103 0 -162.5 57.5t-59.5 168.5v305h71v-298q0 -83 41 -126t117 -43q83 0 131 50.5t48 140.5v276z" />
    <glyph glyph-name="uni01E4" unicode="&#x1e4;" horiz-adv-x="806" 
d="M783 266v-59h-105v-124q-100 -89 -257 -89q-160 0 -264.5 101t-104.5 255t105 255t265 101q167 0 260 -101l-46 -47q-83 82 -211 82q-130 0 -215 -82.5t-85 -207.5t85 -207.5t214 -82.5q108 0 183 54v93h-201v59h201v84h71v-84h105z" />
    <glyph glyph-name="uni01E5" unicode="&#x1e5;" horiz-adv-x="691" 
d="M650 -11v-51h-84q-51 -137 -243 -137q-73 0 -138.5 21.5t-106.5 59.5l36 54q80 -72 207 -72q125 0 168 74h-201v51h220q7 28 7 66v78q-67 -98 -205 -98q-114 0 -189 69.5t-75 178.5t75 178t189 69q141 0 208 -102v98h68v-462q0 -40 -6 -75h70zM317 95q87 0 143.5 52.5
t56.5 135.5t-56.5 135t-143.5 52t-143 -52t-56 -135t56 -135.5t143 -52.5z" />
    <glyph glyph-name="Gcaron" unicode="&#x1e6;" horiz-adv-x="773" 
d="M444 757h-72l-129 124h66l99 -82l99 82h66zM607 114v236h71v-267q-100 -89 -257 -89q-160 0 -264.5 101t-104.5 255t105 255t265 101q167 0 260 -101l-46 -47q-83 82 -211 82q-130 0 -215 -82.5t-85 -207.5t85 -207.5t214 -82.5q108 0 183 54z" />
    <glyph glyph-name="gcaron" unicode="&#x1e7;" horiz-adv-x="686" 
d="M361 607h-72l-129 124h66l99 -82l99 82h66zM518 526h68v-462q0 -134 -65.5 -198.5t-197.5 -64.5q-73 0 -138.5 21.5t-106.5 59.5l36 54q80 -72 207 -72q100 0 147 46.5t47 144.5v67q-67 -102 -205 -102q-114 0 -189 72t-75 184t75 183t189 71q141 0 208 -105v101zM317 83
q87 0 143.5 54t56.5 139t-56.5 138.5t-143.5 53.5t-143 -53.5t-56 -138.5t56 -139t143 -54z" />
    <glyph glyph-name="uni01E8" unicode="&#x1e8;" horiz-adv-x="711" 
d="M409 757h-72l-129 124h66l99 -82l99 82h66zM617 0l-286 329l-143 -145v-184h-74v700h74v-423l411 423h85l-303 -317l324 -383h-88z" />
    <glyph glyph-name="uni01E9" unicode="&#x1e9;" horiz-adv-x="601" 
d="M171 823h-72l-129 124h66l99 -82l99 82h66zM506 0l-212 264l-124 -114v-150h-71v742h71v-503l314 287h88l-225 -215l246 -311h-87z" />
    <glyph glyph-name="uni01EA" unicode="&#x1ea;" horiz-adv-x="839" 
d="M420 706q158 0 262.5 -101t104.5 -255q0 -132 -77 -224.5t-194 -119.5q-66 -16 -108 -50.5t-42 -75.5q0 -27 18 -41.5t47 -14.5q38 0 61 19l17 -39q-36 -24 -85 -24q-51 0 -80.5 25.5t-29.5 69.5q0 70 78 120q-148 10 -244 109.5t-96 245.5q0 154 105 255t263 101z
M420 60q126 0 209.5 82.5t83.5 207.5t-83.5 207.5t-209.5 82.5q-127 0 -211 -82.5t-84 -207.5t84 -207.5t211 -82.5z" />
    <glyph glyph-name="uni01EB" unicode="&#x1eb;" horiz-adv-x="627" 
d="M426 17q-82 -37 -111.5 -70t-29.5 -67q0 -27 18 -41.5t47 -14.5q38 0 61 19l16 -39q-35 -24 -84 -24q-51 0 -81 25.5t-30 67.5q0 71 76 122q-114 2 -188 77.5t-74 190.5q0 117 76 192t192 75t191.5 -75t75.5 -192q0 -85 -41.5 -149.5t-113.5 -96.5zM118 263
q0 -91 55.5 -148t140.5 -57t140 57t55 148t-55 148t-140 57t-140.5 -57t-55.5 -148z" />
    <glyph glyph-name="uni01EE" unicode="&#x1ee;" horiz-adv-x="615" 
d="M333 757h-72l-129 124h66l99 -82l99 82h66zM316 400q119 -4 181.5 -58t62.5 -141q0 -92 -68.5 -149.5t-196.5 -57.5q-82 0 -153 24t-110 64l29 58q36 -36 98 -58.5t134 -22.5q92 0 142.5 37.5t50.5 104.5q0 66 -50.5 103t-151.5 37h-52v52l210 244h-384v63h471v-51z" />
    <glyph glyph-name="uni01EF" unicode="&#x1ef;" horiz-adv-x="514" 
d="M258 607h-72l-129 124h66l99 -82l99 82h66zM249 217q112 -5 170.5 -60t58.5 -145q0 -94 -65.5 -153t-186.5 -59q-76 0 -143 25t-105 67l29 58q34 -38 92 -61t125 -23q87 0 134 39t47 107q0 69 -47 107.5t-142 38.5h-50v51l198 253h-362v64h447v-52z" />
    <glyph glyph-name="Aringacute" unicode="&#x1fa;" horiz-adv-x="717" 
d="M358 769q-44 0 -74 29.5t-30 72.5t30 74t74 31q28 0 55 -15l82 81l40 -32l-92 -77q20 -28 20 -62q0 -42 -30 -72t-75 -30zM358 941q-29 0 -48 -20t-19 -50q0 -29 18.5 -48t48.5 -19t49 19t19 48t-19.5 49.5t-48.5 20.5zM637 0l-84 187h-390l-84 -187h-77l320 700h73
l320 -700h-78zM190 247h336l-168 376z" />
    <glyph glyph-name="aringacute" unicode="&#x1fb;" horiz-adv-x="590" 
d="M284 595q-44 0 -74 29.5t-30 72.5t30 74t74 31q28 0 55 -15l82 81l40 -32l-92 -77q20 -28 20 -62q0 -42 -30 -72t-75 -30zM284 767q-29 0 -48 -20t-19 -50q0 -29 18.5 -48t48.5 -19t49 19t19 48t-19.5 49.5t-48.5 20.5zM283 530q103 0 158 -51.5t55 -152.5v-326h-68v82
q-52 -87 -181 -87q-88 0 -140 42t-52 111q0 67 48.5 108t154.5 41h167v32q0 68 -38 103.5t-111 35.5q-105 0 -175 -62l-32 53q84 71 214 71zM258 51q124 0 167 107v86h-165q-135 0 -135 -94q0 -46 35 -72.5t98 -26.5z" />
    <glyph glyph-name="AEacute" unicode="&#x1fc;" horiz-adv-x="1033" 
d="M682 881l-162 -124h-70l137 124h95zM552 64h421v-64h-494v187h-287l-113 -187h-77l427 700h529v-64h-406v-249h363v-63h-363v-260zM228 247h251v389h-15z" />
    <glyph glyph-name="aeacute" unicode="&#x1fd;" horiz-adv-x="986" 
d="M628 731l-162 -124h-70l137 124h95zM940 267q0 -8 -2 -24h-441q5 -83 62 -134t145 -51q100 0 161 69l40 -46q-72 -86 -203 -86q-161 0 -235 121q-28 -62 -85 -91.5t-128 -29.5q-93 0 -146 42.5t-53 112.5q0 64 48.5 105t154.5 41h167v33q0 68 -38 103.5t-111 35.5
q-105 0 -175 -62l-32 53q84 71 213 71q152 0 193 -108q73 108 209 108q111 0 183.5 -74.5t72.5 -188.5zM683 469q-73 0 -125.5 -47t-60.5 -126h373q-7 78 -60.5 125.5t-126.5 47.5zM259 51q76 0 121 40.5t45 109.5v42h-165q-135 0 -135 -91q0 -47 35.5 -74t98.5 -27z" />
    <glyph glyph-name="Oslashacute" unicode="&#x1fe;" horiz-adv-x="839" 
d="M587 881l-162 -124h-70l137 124h95zM652 631q64 -49 99.5 -121.5t35.5 -159.5q0 -154 -104.5 -255t-262.5 -101q-107 0 -192 48l-81 -112h-60l100 139q-64 49 -99.5 121.5t-35.5 159.5q0 153 104.5 254.5t263.5 101.5q105 0 192 -49l82 113h59zM125 350q0 -141 103 -225
l344 476q-69 39 -152 39q-127 0 -211 -82.5t-84 -207.5zM420 60q126 0 209.5 82.5t83.5 207.5q0 139 -101 224l-344 -476q70 -38 152 -38z" />
    <glyph glyph-name="oslashacute" unicode="&#x1ff;" horiz-adv-x="627" 
d="M479 731l-162 -124h-70l137 124h95zM479 477q102 -76 102 -214q0 -117 -75.5 -192.5t-191.5 -75.5q-72 0 -134 32l-65 -98h-48l80 120q-101 77 -101 214q0 117 76 192t192 75q74 0 132 -32l64 96h47zM118 263q0 -100 66 -158l226 339q-42 24 -96 24q-85 0 -140.5 -57
t-55.5 -148zM314 58q85 0 140 57t55 148q0 101 -66 159l-226 -340q42 -24 97 -24z" />
    <glyph glyph-name="uni0200" unicode="&#x200;" horiz-adv-x="717" 
d="M309 757h-63l-112 124h79zM472 757h-63l-113 124h79zM637 0l-84 187h-390l-84 -187h-77l320 700h73l320 -700h-78zM190 247h336l-168 376z" />
    <glyph glyph-name="uni0201" unicode="&#x201;" horiz-adv-x="590" 
d="M235 607h-63l-112 124h79zM398 607h-63l-113 124h79zM283 530q103 0 158 -51.5t55 -152.5v-326h-68v82q-52 -87 -181 -87q-88 0 -140 42t-52 111q0 67 48.5 108t154.5 41h167v32q0 68 -38 103.5t-111 35.5q-105 0 -175 -62l-32 53q84 71 214 71zM258 51q124 0 167 107v86
h-165q-135 0 -135 -94q0 -46 35 -72.5t98 -26.5z" />
    <glyph glyph-name="uni0202" unicode="&#x202;" horiz-adv-x="717" 
d="M359 842q-43 0 -72 -23.5t-30 -61.5h-50q2 59 45 93.5t107 34.5t107 -34.5t45 -93.5h-50q-1 38 -30 61.5t-72 23.5zM637 0l-84 187h-390l-84 -187h-77l320 700h73l320 -700h-78zM190 247h336l-168 376z" />
    <glyph glyph-name="uni0203" unicode="&#x203;" horiz-adv-x="590" 
d="M285 692q-43 0 -72 -23.5t-30 -61.5h-50q2 59 45 93.5t107 34.5t107 -34.5t45 -93.5h-50q-1 38 -30 61.5t-72 23.5zM283 530q103 0 158 -51.5t55 -152.5v-326h-68v82q-52 -87 -181 -87q-88 0 -140 42t-52 111q0 67 48.5 108t154.5 41h167v32q0 68 -38 103.5t-111 35.5
q-105 0 -175 -62l-32 53q84 71 214 71zM258 51q124 0 167 107v86h-165q-135 0 -135 -94q0 -46 35 -72.5t98 -26.5z" />
    <glyph glyph-name="uni0204" unicode="&#x204;" horiz-adv-x="669" 
d="M305 757h-63l-112 124h79zM468 757h-63l-113 124h79zM188 64h421v-64h-495v700h480v-64h-406v-249h362v-63h-362v-260z" />
    <glyph glyph-name="uni0205" unicode="&#x205;" horiz-adv-x="604" 
d="M253 607h-63l-112 124h79zM416 607h-63l-113 124h79zM558 263q0 -3 -0.5 -10.5t-0.5 -11.5h-440q6 -82 63 -132.5t144 -50.5q101 0 161 69l40 -46q-72 -86 -203 -86q-122 0 -199 75t-77 193q0 117 73 192t184 75q112 0 183.5 -74.5t71.5 -192.5zM303 469
q-76 0 -127.5 -48.5t-58.5 -126.5h373q-7 78 -58.5 126.5t-128.5 48.5z" />
    <glyph glyph-name="uni0206" unicode="&#x206;" horiz-adv-x="669" 
d="M355 842q-43 0 -72 -23.5t-30 -61.5h-50q2 59 45 93.5t107 34.5t107 -34.5t45 -93.5h-50q-1 38 -30 61.5t-72 23.5zM188 64h421v-64h-495v700h480v-64h-406v-249h362v-63h-362v-260z" />
    <glyph glyph-name="uni0207" unicode="&#x207;" horiz-adv-x="604" 
d="M303 692q-43 0 -72 -23.5t-30 -61.5h-50q2 59 45 93.5t107 34.5t107 -34.5t45 -93.5h-50q-1 38 -30 61.5t-72 23.5zM558 263q0 -3 -0.5 -10.5t-0.5 -11.5h-440q6 -82 63 -132.5t144 -50.5q101 0 161 69l40 -46q-72 -86 -203 -86q-122 0 -199 75t-77 193q0 117 73 192
t184 75q112 0 183.5 -74.5t71.5 -192.5zM303 469q-76 0 -127.5 -48.5t-58.5 -126.5h373q-7 78 -58.5 126.5t-128.5 48.5z" />
    <glyph glyph-name="uni0208" unicode="&#x208;" horiz-adv-x="302" 
d="M38 757l-112 124h79l96 -124h-63zM201 757l-113 124h79l97 -124h-63zM114 0v700h74v-700h-74z" />
    <glyph glyph-name="uni0209" unicode="&#x209;" horiz-adv-x="269" 
d="M22 607l-112 124h79l96 -124h-63zM185 607l-113 124h79l97 -124h-63zM99 0v526h71v-526h-71z" />
    <glyph glyph-name="uni020A" unicode="&#x20a;" horiz-adv-x="302" 
d="M-1 757q2 59 45 93.5t107 34.5t107 -34.5t45 -93.5h-50q-1 38 -30 61.5t-72 23.5t-72 -23.5t-30 -61.5h-50zM114 0v700h74v-700h-74z" />
    <glyph glyph-name="uni020B" unicode="&#x20b;" horiz-adv-x="269" 
d="M8 607q0 59 35.5 93.5t91.5 34.5t91.5 -34.5t35.5 -93.5h-47q0 39 -22 62t-58 23t-57.5 -23t-21.5 -62h-48zM99 0v526h71v-526h-71z" />
    <glyph glyph-name="uni020C" unicode="&#x20c;" horiz-adv-x="839" 
d="M307 757l-112 124h79l96 -124h-63zM470 757l-113 124h79l97 -124h-63zM420 -6q-159 0 -263.5 101.5t-104.5 254.5t104.5 254.5t263.5 101.5q158 0 262.5 -101t104.5 -255t-104.5 -255t-262.5 -101zM420 60q126 0 209.5 82.5t83.5 207.5t-83.5 207.5t-209.5 82.5
q-127 0 -211 -82.5t-84 -207.5t84 -207.5t211 -82.5z" />
    <glyph glyph-name="uni020D" unicode="&#x20d;" horiz-adv-x="627" 
d="M200 607l-112 124h79l96 -124h-63zM363 607l-113 124h79l97 -124h-63zM314 -5q-116 0 -192 75.5t-76 192.5t76 192t192 75t191.5 -75t75.5 -192t-75.5 -192.5t-191.5 -75.5zM314 58q85 0 140 57t55 148t-55 148t-140 57t-140.5 -57t-55.5 -148t55.5 -148t140.5 -57z" />
    <glyph glyph-name="uni020E" unicode="&#x20e;" horiz-adv-x="839" 
d="M268 757q2 59 45 93.5t107 34.5t107 -34.5t45 -93.5h-50q-1 38 -30 61.5t-72 23.5t-72 -23.5t-30 -61.5h-50zM420 -6q-159 0 -263.5 101.5t-104.5 254.5t104.5 254.5t263.5 101.5q158 0 262.5 -101t104.5 -255t-104.5 -255t-262.5 -101zM420 60q126 0 209.5 82.5
t83.5 207.5t-83.5 207.5t-209.5 82.5q-127 0 -211 -82.5t-84 -207.5t84 -207.5t211 -82.5z" />
    <glyph glyph-name="uni020F" unicode="&#x20f;" horiz-adv-x="627" 
d="M161 607q2 59 45 93.5t107 34.5t107 -34.5t45 -93.5h-50q-1 38 -30 61.5t-72 23.5t-72 -23.5t-30 -61.5h-50zM314 -5q-116 0 -192 75.5t-76 192.5t76 192t192 75t191.5 -75t75.5 -192t-75.5 -192.5t-191.5 -75.5zM314 58q85 0 140 57t55 148t-55 148t-140 57t-140.5 -57
t-55.5 -148t55.5 -148t140.5 -57z" />
    <glyph glyph-name="uni0210" unicode="&#x210;" horiz-adv-x="723" 
d="M319 757h-63l-112 124h79zM482 757h-63l-113 124h79zM673 0h-81l-160 225q-27 -3 -56 -3h-188v-222h-74v700h262q134 0 210 -64t76 -176q0 -82 -41.5 -138.5t-118.5 -81.5zM374 285q104 0 159 46t55 129q0 85 -55 130.5t-159 45.5h-186v-351h186z" />
    <glyph glyph-name="uni0211" unicode="&#x211;" horiz-adv-x="401" 
d="M182 607h-63l-112 124h79zM345 607h-63l-113 124h79zM167 423q50 107 197 107v-69q-3 0 -9 0.5t-8 0.5q-83 0 -130 -51t-47 -143v-268h-71v526h68v-103z" />
    <glyph glyph-name="uni0212" unicode="&#x212;" horiz-adv-x="723" 
d="M369 842q-43 0 -72 -23.5t-30 -61.5h-50q2 59 45 93.5t107 34.5t107 -34.5t45 -93.5h-50q-1 38 -30 61.5t-72 23.5zM673 0h-81l-160 225q-27 -3 -56 -3h-188v-222h-74v700h262q134 0 210 -64t76 -176q0 -82 -41.5 -138.5t-118.5 -81.5zM374 285q104 0 159 46t55 129
q0 85 -55 130.5t-159 45.5h-186v-351h186z" />
    <glyph glyph-name="uni0213" unicode="&#x213;" horiz-adv-x="401" 
d="M232 692q-43 0 -72 -23.5t-30 -61.5h-50q2 59 45 93.5t107 34.5t107 -34.5t45 -93.5h-50q-1 38 -30 61.5t-72 23.5zM167 423q50 107 197 107v-69q-3 0 -9 0.5t-8 0.5q-83 0 -130 -51t-47 -143v-268h-71v526h68v-103z" />
    <glyph glyph-name="uni0214" unicode="&#x214;" horiz-adv-x="792" 
d="M283 757l-112 124h79l96 -124h-63zM446 757l-113 124h79l97 -124h-63zM396 -6q-136 0 -212 78t-76 227v401h74v-398q0 -242 214 -242q215 0 215 242v398h72v-401q0 -149 -75.5 -227t-211.5 -78z" />
    <glyph glyph-name="uni0215" unicode="&#x215;" horiz-adv-x="673" 
d="M284 607h-63l-112 124h79zM447 607h-63l-113 124h79zM502 526h71v-526h-68v96q-28 -48 -77 -74.5t-112 -26.5q-103 0 -162.5 57.5t-59.5 168.5v305h71v-298q0 -83 41 -126t117 -43q83 0 131 50.5t48 140.5v276z" />
    <glyph glyph-name="uni0216" unicode="&#x216;" horiz-adv-x="792" 
d="M244 757q2 59 45 93.5t107 34.5t107 -34.5t45 -93.5h-50q-1 38 -30 61.5t-72 23.5t-72 -23.5t-30 -61.5h-50zM396 -6q-136 0 -212 78t-76 227v401h74v-398q0 -242 214 -242q215 0 215 242v398h72v-401q0 -149 -75.5 -227t-211.5 -78z" />
    <glyph glyph-name="uni0217" unicode="&#x217;" horiz-adv-x="673" 
d="M334 692q-43 0 -72 -23.5t-30 -61.5h-50q2 59 45 93.5t107 34.5t107 -34.5t45 -93.5h-50q-1 38 -30 61.5t-72 23.5zM502 526h71v-526h-68v96q-28 -48 -77 -74.5t-112 -26.5q-103 0 -162.5 57.5t-59.5 168.5v305h71v-298q0 -83 41 -126t117 -43q83 0 131 50.5t48 140.5
v276z" />
    <glyph glyph-name="Scommaaccent" unicode="&#x218;" horiz-adv-x="615" 
d="M137 516q0 -52 44.5 -82.5t107.5 -44.5t126.5 -31.5t108 -60t44.5 -112.5q0 -83 -66.5 -137t-194.5 -54q-78 0 -149.5 25t-110.5 66l29 57q38 -38 101 -61.5t130 -23.5q94 0 141 34.5t47 89.5q0 45 -32 73.5t-80 40.5t-103.5 27.5t-103.5 32.5t-80 57.5t-32 101.5
q0 83 65.5 137.5t192.5 54.5q128 0 217 -62l-25 -59q-89 58 -192 58q-92 0 -138.5 -35.5t-46.5 -91.5zM321 -104q19 0 31 -11.5t12 -27.5q0 -20 -11 -45l-28 -74h-39l21 82q-29 6 -29 37q0 17 12 28t31 11z" />
    <glyph glyph-name="scommaaccent" unicode="&#x219;" horiz-adv-x="489" 
d="M116 382q0 -39 35 -59t85 -28.5t100.5 -19t85.5 -42.5t35 -88q0 -69 -57.5 -109.5t-159.5 -40.5q-64 0 -122.5 18.5t-91.5 46.5l32 56q75 -59 187 -59q141 0 141 86q0 32 -25.5 51t-63 25t-82 16t-82 21.5t-63 43t-25.5 80.5q0 66 55 108t153 42q114 0 186 -49l-31 -57
q-65 45 -155 45q-68 0 -102.5 -24t-34.5 -63zM243 -104q19 0 31 -11.5t12 -27.5q0 -20 -11 -45l-28 -74h-39l21 82q-29 6 -29 37q0 17 12 28t31 11z" />
    <glyph glyph-name="uni021A" unicode="&#x21a;" horiz-adv-x="574" 
d="M4 700h566v-64h-246v-636h-74v636h-246v64zM287 -104q19 0 31 -11.5t12 -27.5q0 -20 -11 -45l-28 -74h-39l21 82q-29 6 -29 37q0 17 12 28t31 11z" />
    <glyph glyph-name="uni021B" unicode="&#x21b;" horiz-adv-x="406" 
d="M376 32q-41 -37 -111 -37q-74 0 -114 40t-40 113v318h-94v60h94v115h71v-115h160v-60h-160v-314q0 -47 23.5 -71.5t67.5 -24.5q48 0 78 27zM249 -104q19 0 31 -11.5t12 -27.5q0 -20 -11 -45l-28 -74h-39l21 82q-29 6 -29 37q0 17 12 28t31 11z" />
    <glyph glyph-name="uni021E" unicode="&#x21e;" horiz-adv-x="813" 
d="M442 757h-72l-129 124h66l99 -82l99 82h66zM626 700h73v-700h-73v323h-438v-323h-74v700h74v-312h438v312z" />
    <glyph glyph-name="uni021F" unicode="&#x21f;" horiz-adv-x="677" 
d="M171 823h-72l-129 124h66l99 -82l99 82h66zM367 530q99 0 157.5 -57.5t58.5 -167.5v-305h-71v298q0 82 -41 125t-117 43q-85 0 -134.5 -50.5t-49.5 -139.5v-276h-71v742h71v-308q61 96 197 96z" />
    <glyph glyph-name="uni022A" unicode="&#x22a;" horiz-adv-x="839" 
d="M266 913v45h308v-45h-308zM332 780q-17 0 -29.5 12t-12.5 30q0 17 12.5 29t29.5 12t29.5 -12t12.5 -29q0 -18 -12.5 -30t-29.5 -12zM508 780q-17 0 -29.5 12t-12.5 30q0 17 12.5 29t29.5 12t29.5 -12t12.5 -29q0 -18 -12.5 -30t-29.5 -12zM420 -6q-159 0 -263.5 101.5
t-104.5 254.5t104.5 254.5t263.5 101.5q158 0 262.5 -101t104.5 -255t-104.5 -255t-262.5 -101zM420 60q126 0 209.5 82.5t83.5 207.5t-83.5 207.5t-209.5 82.5q-127 0 -211 -82.5t-84 -207.5t84 -207.5t211 -82.5z" />
    <glyph glyph-name="uni022B" unicode="&#x22b;" horiz-adv-x="627" 
d="M159 763v45h308v-45h-308zM225 630q-17 0 -29.5 12t-12.5 30q0 17 12.5 29t29.5 12t29.5 -12t12.5 -29q0 -18 -12.5 -30t-29.5 -12zM401 630q-17 0 -29.5 12t-12.5 30q0 17 12.5 29t29.5 12t29.5 -12t12.5 -29q0 -18 -12.5 -30t-29.5 -12zM314 -5q-116 0 -192 75.5
t-76 192.5t76 192t192 75t191.5 -75t75.5 -192t-75.5 -192.5t-191.5 -75.5zM314 58q85 0 140 57t55 148t-55 148t-140 57t-140.5 -57t-55.5 -148t55.5 -148t140.5 -57z" />
    <glyph glyph-name="uni022C" unicode="&#x22c;" horiz-adv-x="839" 
d="M266 913v45h308v-45h-308zM487 765q-33 0 -73.5 27t-57.5 27q-46 0 -48 -50h-43q1 43 25 67.5t64 24.5q32 0 72 -27t58 -27q47 0 49 49h42q-1 -42 -24.5 -66.5t-63.5 -24.5zM420 -6q-159 0 -263.5 101.5t-104.5 254.5t104.5 254.5t263.5 101.5q158 0 262.5 -101
t104.5 -255t-104.5 -255t-262.5 -101zM420 60q126 0 209.5 82.5t83.5 207.5t-83.5 207.5t-209.5 82.5q-127 0 -211 -82.5t-84 -207.5t84 -207.5t211 -82.5z" />
    <glyph glyph-name="uni022D" unicode="&#x22d;" horiz-adv-x="627" 
d="M159 763v45h308v-45h-308zM380 615q-33 0 -73.5 27t-57.5 27q-46 0 -48 -50h-43q1 43 25 67.5t64 24.5q32 0 72 -27t58 -27q47 0 49 49h42q-1 -42 -24.5 -66.5t-63.5 -24.5zM314 -5q-116 0 -192 75.5t-76 192.5t76 192t192 75t191.5 -75t75.5 -192t-75.5 -192.5
t-191.5 -75.5zM314 58q85 0 140 57t55 148t-55 148t-140 57t-140.5 -57t-55.5 -148t55.5 -148t140.5 -57z" />
    <glyph glyph-name="uni0230" unicode="&#x230;" horiz-adv-x="839" 
d="M266 916v45h308v-45h-308zM420 779q-18 0 -30.5 12t-12.5 31t12.5 31t30.5 12t30.5 -12t12.5 -31t-12.5 -31t-30.5 -12zM420 -6q-159 0 -263.5 101.5t-104.5 254.5t104.5 254.5t263.5 101.5q158 0 262.5 -101t104.5 -255t-104.5 -255t-262.5 -101zM420 60
q126 0 209.5 82.5t83.5 207.5t-83.5 207.5t-209.5 82.5q-127 0 -211 -82.5t-84 -207.5t84 -207.5t211 -82.5z" />
    <glyph glyph-name="uni0231" unicode="&#x231;" horiz-adv-x="627" 
d="M159 766v45h308v-45h-308zM313 629q-18 0 -30.5 12t-12.5 31t12.5 31t30.5 12t30.5 -12t12.5 -31t-12.5 -31t-30.5 -12zM314 -5q-116 0 -192 75.5t-76 192.5t76 192t192 75t191.5 -75t75.5 -192t-75.5 -192.5t-191.5 -75.5zM314 58q85 0 140 57t55 148t-55 148t-140 57
t-140.5 -57t-55.5 -148t55.5 -148t140.5 -57z" />
    <glyph glyph-name="uni0232" unicode="&#x232;" horiz-adv-x="635" 
d="M471 842v-47h-308v47h308zM634 700l-280 -458v-242h-73v242l-280 458h79l240 -393l240 393h74z" />
    <glyph glyph-name="uni0233" unicode="&#x233;" horiz-adv-x="542" 
d="M411 692v-47h-308v47h308zM471 526h70l-263 -589q-32 -74 -74 -105t-101 -31q-80 0 -128 48l33 53q40 -40 96 -40q36 0 61.5 20t47.5 68l23 51l-235 525h74l198 -447z" />
    <glyph glyph-name="uni0237" unicode="&#x237;" horiz-adv-x="274" 
d="M21 -199q-73 0 -111 34l25 54q31 -27 82 -27q87 0 87 99v565h71v-565q0 -74 -40 -117t-114 -43z" />
    <glyph glyph-name="uni0259" unicode="&#x259;" horiz-adv-x="604" 
d="M282 530q122 0 199 -75t77 -193q0 -117 -73 -192t-184 -75q-112 0 -183.5 74.5t-71.5 192.5q0 3 0.5 10.5t0.5 11.5h440q-6 82 -63 132.5t-144 50.5q-101 0 -161 -69l-40 46q72 86 203 86zM301 56q76 0 127.5 48.5t58.5 126.5h-373q7 -78 58.5 -126.5t128.5 -48.5z" />
    <glyph glyph-name="uni0292" unicode="&#x292;" horiz-adv-x="514" 
d="M249 217q112 -5 170.5 -60t58.5 -145q0 -94 -65.5 -153t-186.5 -59q-76 0 -143 25t-105 67l29 58q34 -38 92 -61t125 -23q87 0 134 39t47 107q0 69 -47 107.5t-142 38.5h-50v51l198 253h-362v64h447v-52z" />
    <glyph glyph-name="uni02B9" unicode="&#x2b9;" horiz-adv-x="202" 
d="M74 436l-5 264h63l-5 -264h-53z" />
    <glyph glyph-name="uni02BA" unicode="&#x2ba;" horiz-adv-x="373" 
d="M74 436l-5 264h63l-5 -264h-53zM245 436l-5 264h63l-5 -264h-53z" />
    <glyph glyph-name="uni02BB" unicode="&#x2bb;" horiz-adv-x="266" 
d="M145 696q36 -11 36 -51q0 -24 -15 -39t-37 -15q-24 0 -38.5 15.5t-14.5 38.5q0 19 13 57l42 138h48z" />
    <glyph glyph-name="uni02BC" unicode="&#x2bc;" horiz-adv-x="169" 
d="M57 440l4 260h51l-13 -260h-42z" />
    <glyph glyph-name="uni02BE" unicode="&#x2be;" horiz-adv-x="600" 
d="M299 595v36q30 0 49 18.5t19 47.5t-19.5 49t-48.5 20v36q46 0 76 -30.5t30 -74.5q0 -43 -30 -72.5t-76 -29.5z" />
    <glyph glyph-name="uni02BF" unicode="&#x2bf;" horiz-adv-x="600" 
d="M299 595q-45 0 -75.5 30t-30.5 72q0 43 30.5 74t75.5 31v-36q-29 0 -48 -20t-19 -49t18.5 -47.5t48.5 -18.5v-36z" />
    <glyph glyph-name="circumflex" unicode="&#x2c6;" horiz-adv-x="600" 
d="M465 607h-66l-99 83l-99 -83h-66l129 124h72z" />
    <glyph glyph-name="caron" unicode="&#x2c7;" horiz-adv-x="600" 
d="M399 731h66l-129 -124h-72l-129 124h66l99 -82z" />
    <glyph glyph-name="uni02C8" unicode="&#x2c8;" horiz-adv-x="166" 
d="M57 513v187h52v-187h-52z" />
    <glyph glyph-name="uni02C9" unicode="&#x2c9;" horiz-adv-x="600" 
d="M146 645v47h308v-47h-308z" />
    <glyph glyph-name="uni02CA" unicode="&#x2ca;" horiz-adv-x="600" 
d="M235 607l137 124h95l-162 -124h-70z" />
    <glyph glyph-name="uni02CB" unicode="&#x2cb;" horiz-adv-x="600" 
d="M295 607l-162 124h95l137 -124h-70z" />
    <glyph glyph-name="uni02CC" unicode="&#x2cc;" horiz-adv-x="166" 
d="M57 -217v187h52v-187h-52z" />
    <glyph glyph-name="breve" unicode="&#x2d8;" horiz-adv-x="600" 
d="M300 602q-64 0 -107 35t-45 94h50q1 -39 30 -62t72 -23t72 23t30 62h50q-2 -59 -45 -94t-107 -35z" />
    <glyph glyph-name="dotaccent" unicode="&#x2d9;" horiz-adv-x="600" 
d="M300 630q-20 0 -34 14t-14 34t14 34t34 14t34 -14t14 -34t-14 -34t-34 -14z" />
    <glyph glyph-name="ring" unicode="&#x2da;" horiz-adv-x="600" 
d="M299 595q-45 0 -74.5 29.5t-29.5 72.5t30 74t74 31t74.5 -31t30.5 -74q0 -42 -30 -72t-75 -30zM299 630q30 0 49 19t19 48t-19.5 49.5t-48.5 20.5t-48 -20t-19 -50q0 -29 18.5 -48t48.5 -19z" />
    <glyph glyph-name="ogonek" unicode="&#x2db;" horiz-adv-x="600" 
d="M237 -220q-50 0 -80 26t-30 69q0 93 141 152l33 -27q-122 -54 -122 -120q0 -27 18 -41.5t47 -14.5q39 0 62 19l16 -39q-36 -24 -85 -24z" />
    <glyph glyph-name="tilde" unicode="&#x2dc;" horiz-adv-x="600" 
d="M368 613q-26 0 -50.5 17t-44.5 34t-36 17q-23 0 -37 -17t-15 -47h-43q2 50 26 80t64 30q34 0 74 -34t57 -34q22 0 36 16.5t16 45.5h43q-2 -49 -26 -78.5t-64 -29.5z" />
    <glyph glyph-name="hungarumlaut" unicode="&#x2dd;" horiz-adv-x="600" 
d="M187 607l97 124h79l-113 -124h-63zM350 607l96 124h79l-112 -124h-63z" />
    <glyph glyph-name="gravecomb" unicode="&#x300;" 
d="M-305 607l-162 124h95l137 -124h-70z" />
    <glyph glyph-name="acutecomb" unicode="&#x301;" 
d="M-365 607l137 124h95l-162 -124h-70z" />
    <glyph glyph-name="uni0302" unicode="&#x302;" 
d="M-135 607h-66l-99 83l-99 -83h-66l129 124h72z" />
    <glyph glyph-name="tildecomb" unicode="&#x303;" 
d="M-232 613q-26 0 -50.5 17t-44.5 34t-36 17q-23 0 -37 -17t-15 -47h-43q2 50 26 80t64 30q34 0 74 -34t57 -34q22 0 36 16.5t16 45.5h43q-2 -49 -26 -78.5t-64 -29.5z" />
    <glyph glyph-name="uni0304" unicode="&#x304;" 
d="M-454 645v47h308v-47h-308z" />
    <glyph glyph-name="uni0306" unicode="&#x306;" 
d="M-300 602q-64 0 -107 35t-45 94h50q1 -39 30 -62t72 -23t72 23t30 62h50q-2 -59 -45 -94t-107 -35z" />
    <glyph glyph-name="uni0307" unicode="&#x307;" 
d="M-300 630q-20 0 -34 14t-14 34t14 34t34 14t34 -14t14 -34t-14 -34t-34 -14z" />
    <glyph glyph-name="uni0308" unicode="&#x308;" 
d="M-389 630q-18 0 -30.5 12t-12.5 31q0 18 12.5 30.5t30.5 12.5q17 0 30 -12.5t13 -30.5t-12.5 -30.5t-30.5 -12.5zM-211 630q-18 0 -30.5 12.5t-12.5 30.5t13 30.5t30 12.5q18 0 30.5 -12.5t12.5 -30.5q0 -19 -12.5 -31t-30.5 -12z" />
    <glyph glyph-name="hookabovecomb" unicode="&#x309;" 
d="M-287 600l-25 31q59 27 59 71q0 21 -15.5 35t-39.5 14q-31 0 -60 -19l-17 35q34 26 83 26q42 0 68.5 -23.5t26.5 -62.5q0 -70 -80 -107z" />
    <glyph glyph-name="uni030A" unicode="&#x30a;" 
d="M-301 595q-45 0 -74.5 29.5t-29.5 72.5t30 74t74 31t74.5 -31t30.5 -74q0 -42 -30 -72t-75 -30zM-301 630q30 0 49 19t19 48t-19.5 49.5t-48.5 20.5t-48 -20t-19 -50q0 -29 18.5 -48t48.5 -19z" />
    <glyph glyph-name="uni030B" unicode="&#x30b;" 
d="M-413 607l97 124h79l-113 -124h-63zM-250 607l96 124h79l-112 -124h-63z" />
    <glyph glyph-name="uni030C" unicode="&#x30c;" 
d="M-201 731h66l-129 -124h-72l-129 124h66l99 -82z" />
    <glyph glyph-name="uni030F" unicode="&#x30f;" 
d="M-413 607l-112 124h79l96 -124h-63zM-250 607l-113 124h79l97 -124h-63z" />
    <glyph glyph-name="uni0311" unicode="&#x311;" 
d="M-452 607q2 59 45 93.5t107 34.5t107 -34.5t45 -93.5h-50q-1 38 -30 61.5t-72 23.5t-72 -23.5t-30 -61.5h-50z" />
    <glyph glyph-name="uni0312" unicode="&#x312;" 
d="M-285 678q31 -7 31 -37q0 -17 -12.5 -28t-33.5 -11q-22 0 -34 11t-12 28q0 14 11 44l35 96h43z" />
    <glyph glyph-name="uni031B" unicode="&#x31b;" 
d="M-315 471v55h15q33 0 49.5 18.5t16.5 48.5q0 36 -20 64l47 18q26 -36 26 -84q0 -55 -31 -87.5t-88 -32.5h-15z" />
    <glyph glyph-name="dotbelowcomb" unicode="&#x323;" 
d="M-300 -190q-18 0 -30.5 12t-12.5 31t12.5 31t30.5 12t30.5 -12t12.5 -31t-12.5 -31t-30.5 -12z" />
    <glyph glyph-name="uni0324" unicode="&#x324;" 
d="M-383 -187q-17 0 -29 12t-12 30q0 17 12 29t29 12t30 -12t13 -29q0 -18 -12.5 -30t-30.5 -12zM-217 -187q-18 0 -30 12t-12 30q0 17 12.5 29t29.5 12t29.5 -12t12.5 -29q0 -18 -12.5 -30t-29.5 -12z" />
    <glyph glyph-name="uni0326" unicode="&#x326;" 
d="M-300 -104q19 0 31 -11.5t12 -27.5q0 -20 -11 -45l-28 -74h-39l21 82q-29 6 -29 37q0 17 12 28t31 11z" />
    <glyph glyph-name="uni0327" unicode="&#x327;" 
d="M-322 -220q-50 0 -84 23l17 38q29 -19 66 -19q62 0 62 47q0 46 -62 46h-23l24 91h43l-15 -58q41 -4 63 -25.5t22 -55.5q0 -40 -31 -63.5t-82 -23.5z" />
    <glyph glyph-name="uni0328" unicode="&#x328;" 
d="M-363 -220q-50 0 -80 26t-30 69q0 93 141 152l33 -27q-122 -54 -122 -120q0 -27 18 -41.5t47 -14.5q39 0 62 19l16 -39q-36 -24 -85 -24z" />
    <glyph glyph-name="uni032E" unicode="&#x32e;" 
d="M-300 -205q-64 0 -107 33t-45 88h48q1 -36 30.5 -58t73.5 -22t73.5 22t30.5 58h48q-2 -55 -45 -88t-107 -33z" />
    <glyph glyph-name="uni0331" unicode="&#x331;" 
d="M-454 -169v47h308v-47h-308z" />
    <glyph glyph-name="uni0335" unicode="&#x335;" 
d="M-495 413v52h390v-52h-390z" />
    <glyph glyph-name="uni0336" unicode="&#x336;" 
d="M-823 409v60h797v-60h-797z" />
    <glyph glyph-name="uni0337" unicode="&#x337;" 
d="M-306 271l-33 43l242 182l32 -44z" />
    <glyph glyph-name="uni0338" unicode="&#x338;" 
d="M-553 -70l443 665h47l-442 -665h-48z" />
    <glyph glyph-name="uni0394" unicode="&#x394;" horiz-adv-x="717" 
d="M395 700l320 -700h-713l320 700h73zM358 624l-251 -560h501z" />
    <glyph glyph-name="uni03A9" unicode="&#x3a9;" horiz-adv-x="902" 
d="M9 0v65h224q-72 51 -110.5 126.5t-38.5 164.5q0 153 104.5 251.5t262.5 98.5t262.5 -98.5t104.5 -251.5q0 -89 -38.5 -164.5t-110.5 -126.5h224v-65h-338v60q92 47 140.5 124t48.5 169q0 126 -82.5 206.5t-210.5 80.5t-210.5 -80.5t-82.5 -206.5q0 -92 48.5 -169
t140.5 -124v-60h-338z" />
    <glyph glyph-name="uni03BC" unicode="&#x3bc;" horiz-adv-x="678" 
d="M508 526h71v-526h-68v98q-26 -51 -74 -77t-107 -26q-109 0 -160 75v-264h-71v720h71v-298q0 -83 41 -126t118 -43q82 0 130.5 51t48.5 140v276z" />
    <glyph glyph-name="pi" unicode="&#x3c0;" horiz-adv-x="722" 
d="M714 526l-1 -60h-158v-466h-71v466h-180l-54 -466h-71l54 466h-57q-117 0 -117 -101q0 -40 30 -83l-55 -19q-40 50 -40 113q0 66 46.5 108t127.5 42h546z" />
    <glyph glyph-name="uni0400" unicode="&#x400;" horiz-adv-x="659" 
d="M424 757h-70l-162 124h95zM192 64h421v-64h-495v700h480v-64h-406v-249h362v-63h-362v-260z" />
    <glyph glyph-name="uni0401" unicode="&#x401;" horiz-adv-x="659" 
d="M270 780q-18 0 -30.5 12t-12.5 31q0 18 12.5 30.5t30.5 12.5q17 0 30 -12.5t13 -30.5t-12.5 -30.5t-30.5 -12.5zM448 780q-18 0 -30.5 12.5t-12.5 30.5t13 30.5t30 12.5q18 0 30.5 -12.5t12.5 -30.5q0 -19 -12.5 -31t-30.5 -12zM192 64h421v-64h-495v700h480v-64h-406
v-249h362v-63h-362v-260z" />
    <glyph glyph-name="uni0402" unicode="&#x402;" horiz-adv-x="825" 
d="M332 378q115 44 213 44q109 0 173.5 -54.5t64.5 -158.5q0 -105 -65 -159.5t-164 -54.5q-37 0 -84 10l10 62q29 -8 67 -8q71 0 117 37t46 111q0 75 -48.5 113.5t-130.5 38.5q-91 0 -199 -47v-312h-73v636h-247v64h586v-64h-266v-258z" />
    <glyph glyph-name="uni0403" unicode="&#x403;" horiz-adv-x="572" 
d="M500 881l-162 -124h-70l137 124h95zM563 700v-64h-373l1 -636h-73v700h445z" />
    <glyph glyph-name="uni0404" unicode="&#x404;" horiz-adv-x="707" 
d="M410 60q132 0 215 84l46 -47q-94 -103 -264 -103q-149 0 -248.5 101t-99.5 255t99.5 255t248.5 101q171 0 264 -103l-46 -47q-83 84 -215 84q-112 0 -190 -75t-86 -191h361v-61h-360q12 -111 89 -182t186 -71z" />
    <glyph glyph-name="uni0405" unicode="&#x405;" horiz-adv-x="627" 
d="M314 -6q-78 0 -149.5 25t-110.5 66l29 57q38 -38 101 -61.5t130 -23.5q94 0 141 34.5t47 89.5q0 45 -32 73.5t-80 40.5t-103.5 27.5t-103.5 32.5t-80 57.5t-32 101.5q0 83 65.5 137.5t192.5 54.5q128 0 217 -62l-25 -59q-89 58 -192 58q-92 0 -138.5 -35.5t-46.5 -91.5
q0 -52 44.5 -82.5t107.5 -44.5t126.5 -31.5t108 -60t44.5 -112.5q0 -83 -66.5 -137t-194.5 -54z" />
    <glyph glyph-name="uni0406" unicode="&#x406;" horiz-adv-x="309" 
d="M118 0v700h73v-700h-73z" />
    <glyph glyph-name="uni0407" unicode="&#x407;" horiz-adv-x="302" 
d="M62 780q-18 0 -30.5 12t-12.5 31q0 18 12.5 30.5t30.5 12.5q17 0 30 -12.5t13 -30.5t-12.5 -30.5t-30.5 -12.5zM240 780q-18 0 -30.5 12.5t-12.5 30.5t13 30.5t30 12.5q18 0 30.5 -12.5t12.5 -30.5q0 -19 -12.5 -31t-30.5 -12zM114 0v700h74v-700h-74z" />
    <glyph glyph-name="uni0408" unicode="&#x408;" horiz-adv-x="527" 
d="M215 -6q-60 0 -111 26t-83 74l44 50q58 -86 151 -86q130 0 130 154v424h-256v64h329v-485q0 -221 -204 -221z" />
    <glyph glyph-name="uni0409" unicode="&#x409;" horiz-adv-x="1186" 
d="M887 450q124 0 189.5 -56t65.5 -164q0 -113 -69.5 -171.5t-200.5 -58.5h-278v636h-338l-8 -234q-8 -217 -48 -313t-133 -96q-27 0 -56 7l6 66q17 -4 33 -4q66 0 95.5 79t36.5 259l10 300h475v-250h220zM870 59q97 0 147.5 43t50.5 127q0 161 -198 161h-203v-331h203z" />
    <glyph glyph-name="uni040A" unicode="&#x40a;" horiz-adv-x="1184" 
d="M905 415q113 0 176 -53t63 -149q0 -100 -67 -156.5t-186 -56.5h-277v348h-423v-348h-73v700h73v-288h423v288h73v-285h218zM887 59q87 0 135 40t48 111q0 70 -47.5 107.5t-135.5 37.5h-200v-296h200z" />
    <glyph glyph-name="uni040B" unicode="&#x40b;" horiz-adv-x="835" 
d="M542 420q112 0 176 -57t64 -168v-195h-73v187q0 81 -48 124t-133 43q-87 0 -198 -49v-305h-73v636h-246v64h583v-64h-264v-263q113 47 212 47z" />
    <glyph glyph-name="uni040C" unicode="&#x40c;" horiz-adv-x="702" 
d="M519 881l-162 -124h-70l137 124h95zM597 0l-247 321h-160v-321h-72v700h72v-314h160l237 314h80l-260 -340l275 -360h-85z" />
    <glyph glyph-name="uni040D" unicode="&#x40d;" horiz-adv-x="824" 
d="M405 757l-162 124h95l137 -124h-70zM118 0v700h73v-580l448 580h67v-700h-73v579l-448 -579h-67z" />
    <glyph glyph-name="uni040E" unicode="&#x40e;" horiz-adv-x="680" 
d="M333 751q-75 0 -118.5 34t-44.5 95h55q1 -40 30 -63t78 -23q48 0 77.5 23t30.5 63h55q-1 -61 -45 -95t-118 -34zM594 700h74l-318 -589q-66 -124 -179 -124q-40 0 -86 19l21 60q36 -14 66 -14q69 0 113 75l20 34l-284 539h79l244 -474z" />
    <glyph glyph-name="uni040F" unicode="&#x40f;" horiz-adv-x="806" 
d="M687 700v-700h-250v-164h-69v164h-250v700h73v-636h423v636h73z" />
    <glyph glyph-name="uni0410" unicode="&#x410;" horiz-adv-x="744" 
d="M650 0l-84 187h-390l-84 -187h-77l320 700h73l320 -700h-78zM203 247h336l-168 376z" />
    <glyph glyph-name="uni0411" unicode="&#x411;" horiz-adv-x="727" 
d="M118 0v700h512v-63h-439v-229h229q124 0 188.5 -51t64.5 -148q0 -101 -69.5 -155t-199.5 -54h-286zM191 59h212q196 0 196 147q0 143 -196 143h-212v-290z" />
    <glyph glyph-name="uni0412" unicode="&#x412;" horiz-adv-x="749" 
d="M533 361q149 -30 149 -172q0 -91 -64.5 -140t-189.5 -49h-310v700h291q112 0 175 -46t63 -133q0 -118 -114 -160zM191 641v-258h214q81 0 124.5 33t43.5 96t-43.5 96t-124.5 33h-214zM428 59q181 0 181 135q0 132 -181 132h-237v-267h237z" />
    <glyph glyph-name="uni0413" unicode="&#x413;" horiz-adv-x="572" 
d="M563 700v-64h-373l1 -636h-73v700h445z" />
    <glyph glyph-name="uni0414" unicode="&#x414;" horiz-adv-x="794" 
d="M656 64h105v-221h-69v157h-611l-1 -157h-69l1 221h35q36 2 61 33.5t38.5 91t20 125.5t9.5 159l8 227h472v-636zM242 466q-5 -160 -24.5 -263.5t-65.5 -138.5h431v572h-335z" />
    <glyph glyph-name="uni0415" unicode="&#x415;" horiz-adv-x="659" 
d="M192 64h421v-64h-495v700h480v-64h-406v-249h362v-63h-362v-260z" />
    <glyph glyph-name="uni0416" unicode="&#x416;" horiz-adv-x="1011" 
d="M901 0l-214 321h-145v-321h-72v321h-146l-214 -321h-86l240 361l-222 339h80l201 -314h147v314h72v-314h145l202 314h80l-222 -339l240 -361h-86z" />
    <glyph glyph-name="uni0417" unicode="&#x417;" horiz-adv-x="636" 
d="M422 366q69 -17 108.5 -62t39.5 -108q0 -92 -80.5 -147t-195.5 -55q-152 0 -259 90l27 53q93 -80 224 -80q88 0 149 40t61 109q0 61 -48 94t-135 33h-150v60h146q74 0 115.5 31.5t41.5 87.5q0 62 -53 97.5t-133 35.5q-107 0 -198 -58l-25 61q104 62 225 62
q109 0 183.5 -51.5t74.5 -138.5q0 -56 -31 -96.5t-87 -57.5z" />
    <glyph glyph-name="uni0418" unicode="&#x418;" horiz-adv-x="824" 
d="M118 0v700h73v-580l448 580h67v-700h-73v579l-448 -579h-67z" />
    <glyph glyph-name="uni0419" unicode="&#x419;" horiz-adv-x="824" 
d="M410 751q-75 0 -118.5 34t-44.5 95h55q1 -40 30 -63t78 -23q48 0 77.5 23t30.5 63h55q-1 -61 -45 -95t-118 -34zM118 0v700h73v-580l448 580h67v-700h-73v579l-448 -579h-67z" />
    <glyph glyph-name="uni041A" unicode="&#x41a;" horiz-adv-x="702" 
d="M597 0l-247 321h-160v-321h-72v700h72v-314h160l237 314h80l-260 -340l275 -360h-85z" />
    <glyph glyph-name="uni041B" unicode="&#x41b;" horiz-adv-x="785" 
d="M192 700h475v-700h-73v636h-338l-8 -234q-8 -217 -48 -313t-133 -96q-27 0 -56 7l6 66q17 -4 33 -4q66 0 95.5 79t36.5 259z" />
    <glyph glyph-name="uni041C" unicode="&#x41c;" horiz-adv-x="963" 
d="M784 700h61v-700h-71v560l-275 -471h-35l-275 468v-557h-71v700h61l304 -519z" />
    <glyph glyph-name="uni041D" unicode="&#x41d;" horiz-adv-x="821" 
d="M630 700h73v-700h-73v323h-438v-323h-74v700h74v-312h438v312z" />
    <glyph glyph-name="uni041E" unicode="&#x41e;" horiz-adv-x="851" 
d="M425 -6q-159 0 -263.5 101.5t-104.5 254.5t104.5 254.5t263.5 101.5q158 0 262.5 -101t104.5 -255t-104.5 -255t-262.5 -101zM425 60q126 0 209.5 82.5t83.5 207.5t-83.5 207.5t-209.5 82.5q-127 0 -211 -82.5t-84 -207.5t84 -207.5t211 -82.5z" />
    <glyph glyph-name="uni041F" unicode="&#x41f;" horiz-adv-x="825" 
d="M118 700h589v-700h-73v636h-443v-636h-73v700z" />
    <glyph glyph-name="uni0420" unicode="&#x420;" horiz-adv-x="710" 
d="M380 700q134 0 210 -64t76 -176t-76 -175.5t-210 -63.5h-188v-221h-74v700h262zM378 286q104 0 159 45.5t55 128.5q0 85 -55 130.5t-159 45.5h-186v-350h186z" />
    <glyph glyph-name="uni0421" unicode="&#x421;" horiz-adv-x="716" 
d="M424 -6q-158 0 -262 101t-104 255t104.5 255t262.5 101q163 0 256 -102l-47 -47q-82 83 -207 83q-127 0 -211.5 -83t-84.5 -207t84.5 -207t211.5 -83q126 0 207 84l47 -47q-94 -103 -257 -103z" />
    <glyph glyph-name="uni0422" unicode="&#x422;" horiz-adv-x="588" 
d="M576 700v-64h-246v-636h-73v636h-246v64h565z" />
    <glyph glyph-name="uni0423" unicode="&#x423;" horiz-adv-x="680" 
d="M594 700h74l-318 -589q-66 -124 -179 -124q-40 0 -86 19l21 60q36 -14 66 -14q69 0 113 75l20 34l-284 539h79l244 -474z" />
    <glyph glyph-name="uni0424" unicode="&#x424;" horiz-adv-x="917" 
d="M867 351q0 -139 -98.5 -218.5t-275.5 -84.5v-72h-69v72q-177 6 -275.5 85t-98.5 218t98.5 218t275.5 85v70h69v-70q176 -6 275 -85.5t99 -217.5zM493 107q145 6 224 69t79 175t-79.5 175t-223.5 68v-487zM121 351q0 -112 79.5 -174.5t223.5 -69.5v487
q-146 -6 -224.5 -68.5t-78.5 -174.5z" />
    <glyph glyph-name="uni0425" unicode="&#x425;" horiz-adv-x="650" 
d="M40 700h85l199 -277l198 277h87l-239 -336l258 -364h-87l-217 301l-217 -301h-85l257 361z" />
    <glyph glyph-name="uni0426" unicode="&#x426;" horiz-adv-x="827" 
d="M687 64h111v-228h-69v164h-611v700h73v-636h423v636h73v-636z" />
    <glyph glyph-name="uni0427" unicode="&#x427;" horiz-adv-x="731" 
d="M540 700h72v-700h-72v290q-114 -49 -221 -49q-123 0 -191.5 60t-68.5 168v231h73v-223q0 -81 51 -126t143 -45q105 0 214 50v344z" />
    <glyph glyph-name="uni0428" unicode="&#x428;" horiz-adv-x="1094" 
d="M903 700h73v-700h-858v700h73v-636h320v636h73v-636h319v636z" />
    <glyph glyph-name="uni0429" unicode="&#x429;" horiz-adv-x="1117" 
d="M976 64h109v-221h-69v157h-898v700h73v-636h320v636h73v-636h319v636h73v-636z" />
    <glyph glyph-name="uni042A" unicode="&#x42a;" horiz-adv-x="820" 
d="M522 450q124 0 189 -56t65 -164q0 -113 -69.5 -171.5t-200.5 -58.5h-277v636h-218v64h291v-250h220zM505 59q97 0 147.5 43t50.5 127q0 161 -198 161h-203v-331h203z" />
    <glyph glyph-name="uni042B" unicode="&#x42b;" horiz-adv-x="978" 
d="M411 450q124 0 189.5 -56t65.5 -164q0 -113 -69.5 -171.5t-200.5 -58.5h-278v700h73v-250h220zM787 0v700h73v-700h-73zM394 59q97 0 147.5 43t50.5 127q0 161 -198 161h-203v-331h203z" />
    <glyph glyph-name="uni042C" unicode="&#x42c;" horiz-adv-x="710" 
d="M411 450q124 0 189.5 -56t65.5 -164q0 -113 -69.5 -171.5t-200.5 -58.5h-278v700h73v-250h220zM394 59q97 0 147.5 43t50.5 127q0 161 -198 161h-203v-331h203z" />
    <glyph glyph-name="uni042D" unicode="&#x42d;" horiz-adv-x="706" 
d="M299 706q149 0 248.5 -101t99.5 -255t-99.5 -255t-248.5 -101q-171 0 -264 103l46 47q83 -84 215 -84q112 0 190 75t86 191h-361v61h360q-12 111 -89 182t-186 71q-132 0 -215 -84l-46 47q94 103 264 103z" />
    <glyph glyph-name="uni042E" unicode="&#x42e;" horiz-adv-x="1092" 
d="M683 706q150 0 250 -101.5t100 -254.5t-100 -254.5t-250 -101.5q-143 0 -240.5 92.5t-107.5 235.5h-144v-322h-73v700h73v-311h145q13 139 110 228t237 89zM683 60q118 0 197 82.5t79 207.5t-79 207.5t-197 82.5t-196.5 -82.5t-78.5 -207.5t78.5 -207.5t196.5 -82.5z" />
    <glyph glyph-name="uni042F" unicode="&#x42f;" horiz-adv-x="732" 
d="M342 700h272v-700h-73v212h-209q-14 0 -40 2l-147 -214h-79l159 227q-77 23 -118 81.5t-41 143.5q0 118 74.5 183t201.5 65zM140 454q0 -86 50.5 -132.5t147.5 -46.5h203v361h-196q-98 0 -151.5 -46.5t-53.5 -135.5z" />
    <glyph glyph-name="uni0430" unicode="&#x430;" horiz-adv-x="583" 
d="M282 530q103 0 158 -51.5t55 -152.5v-326h-68v82q-52 -87 -181 -87q-88 0 -140 42t-52 111q0 67 48.5 108t154.5 41h167v32q0 68 -38 103.5t-111 35.5q-105 0 -175 -62l-32 53q84 71 214 71zM257 51q124 0 167 107v86h-165q-135 0 -135 -94q0 -46 35 -72.5t98 -26.5z" />
    <glyph glyph-name="uni0431" unicode="&#x431;" horiz-adv-x="659" 
d="M356 513q111 0 181.5 -71.5t70.5 -185.5q0 -116 -73.5 -189t-191.5 -73q-131 0 -203 92t-72 254q0 169 64.5 259t201.5 122l236 54l12 -65l-222 -51q-113 -25 -166 -88.5t-58 -187.5q32 61 89 95.5t131 34.5zM345 53q84 0 137.5 56.5t53.5 144.5q0 87 -53 141t-138 54
t-138.5 -54t-53.5 -141q0 -88 54 -144.5t138 -56.5z" />
    <glyph glyph-name="uni0432" unicode="&#x432;" horiz-adv-x="608" 
d="M436 272q107 -25 107 -129q0 -143 -203 -143h-239v526h232q90 0 141 -35t51 -100q0 -87 -89 -119zM170 470v-178h158q126 0 126 90q0 88 -126 88h-158zM337 56q136 0 136 91q0 47 -31 69.5t-98 22.5h-174v-183h167z" />
    <glyph glyph-name="uni0433" unicode="&#x433;" horiz-adv-x="475" 
d="M473 526v-63h-301v-463h-71v526h372z" />
    <glyph glyph-name="uni0434" unicode="&#x434;" horiz-adv-x="651" 
d="M532 62h82v-189h-67v127h-471v-127h-67v189h30q28 2 47 25.5t29 69t14.5 87.5t7.5 106l7 176h388v-464zM202 346q-5 -112 -19 -184.5t-50 -99.5h328v401h-253z" />
    <glyph glyph-name="uni0435" unicode="&#x435;" horiz-adv-x="618" 
d="M562 263q0 -3 -0.5 -10.5t-0.5 -11.5h-440q6 -82 63 -132.5t144 -50.5q101 0 161 69l40 -46q-72 -86 -203 -86q-122 0 -199 75t-77 193q0 117 73 192t184 75q112 0 183.5 -74.5t71.5 -192.5zM307 469q-76 0 -127.5 -48.5t-58.5 -126.5h373q-7 78 -58.5 126.5t-128.5 48.5
z" />
    <glyph glyph-name="uni0436" unicode="&#x436;" horiz-adv-x="826" 
d="M724 0l-162 234h-114v-234h-71v234h-114l-161 -234h-85l189 271l-174 255h77l154 -231h114v231h71v-231h114l155 231h77l-174 -256l189 -270h-85z" />
    <glyph glyph-name="uni0437" unicode="&#x437;" horiz-adv-x="534" 
d="M357 274q56 -13 86.5 -45t30.5 -78q0 -70 -68 -113.5t-168 -43.5q-123 0 -208 65l24 53q75 -57 181 -57q73 0 119.5 27.5t46.5 74.5q0 42 -38 65.5t-104 23.5h-90v52h86q59 0 95 22.5t36 60.5q0 42 -40.5 66t-105.5 24q-85 0 -168 -43l-20 55q94 49 195 49q92 0 152 -39
t60 -102q0 -40 -27.5 -71t-74.5 -46z" />
    <glyph glyph-name="uni0438" unicode="&#x438;" horiz-adv-x="688" 
d="M101 0v526h71v-418l351 418h63v-526h-71v418l-350 -418h-64z" />
    <glyph glyph-name="uni0439" unicode="&#x439;" horiz-adv-x="688" 
d="M340 601q-68 0 -108 34t-41 96h51q1 -39 28 -62.5t70 -23.5t70.5 23.5t28.5 62.5h51q-1 -62 -41.5 -96t-108.5 -34zM101 0v526h71v-418l351 418h63v-526h-71v418l-350 -418h-64z" />
    <glyph glyph-name="uni043A" unicode="&#x43a;" horiz-adv-x="581" 
d="M486 0l-194 234h-120v-234h-71v526h71v-231h121l185 231h77l-207 -255l222 -271h-84z" />
    <glyph glyph-name="uni043B" unicode="&#x43b;" horiz-adv-x="632" 
d="M146 526h385v-526h-71v463h-252l-7 -130q-3 -62 -7.5 -107t-15 -91.5t-25.5 -75.5t-39.5 -47.5t-57.5 -18.5q-21 0 -51 8l5 61q18 -4 25 -4q21 0 37 10t26.5 32.5t17.5 44t11 60t6 63.5t4 70z" />
    <glyph glyph-name="uni043C" unicode="&#x43c;" horiz-adv-x="790" 
d="M623 526h66v-526h-65v416l-213 -352h-32l-213 353v-417h-65v526h72l223 -379z" />
    <glyph glyph-name="uni043D" unicode="&#x43d;" horiz-adv-x="675" 
d="M101 0v526h71v-233h331v233h71v-526h-71v232h-331v-232h-71z" />
    <glyph glyph-name="uni043E" unicode="&#x43e;" horiz-adv-x="636" 
d="M318 -5q-116 0 -192 75.5t-76 192.5t76 192t192 75t191.5 -75t75.5 -192t-75.5 -192.5t-191.5 -75.5zM318 58q85 0 140 57t55 148t-55 148t-140 57t-140.5 -57t-55.5 -148t55.5 -148t140.5 -57z" />
    <glyph glyph-name="uni043F" unicode="&#x43f;" horiz-adv-x="674" 
d="M101 526h472v-526h-71v463h-330v-463h-71v526z" />
    <glyph glyph-name="uni0440" unicode="&#x440;" horiz-adv-x="686" 
d="M372 530q114 0 188 -74.5t74 -192.5q0 -119 -74 -193.5t-188 -74.5q-133 0 -200 104v-293h-71v720h68v-104q66 108 203 108zM367 58q84 0 140 57t56 148q0 90 -56 147.5t-140 57.5q-85 0 -140.5 -57t-55.5 -148t55.5 -148t140.5 -57z" />
    <glyph glyph-name="uni0441" unicode="&#x441;" horiz-adv-x="563" 
d="M321 -5q-118 0 -194.5 75.5t-76.5 192.5t76.5 192t194.5 75q143 0 206 -104l-53 -36q-53 78 -153 78q-87 0 -143 -57t-56 -148q0 -92 56 -148.5t143 -56.5q101 0 153 77l53 -36q-64 -104 -206 -104z" />
    <glyph glyph-name="uni0442" unicode="&#x442;" horiz-adv-x="473" 
d="M471 526v-63h-199v-463h-71v463h-199v63h469z" />
    <glyph glyph-name="uni0443" unicode="&#x443;" horiz-adv-x="558" 
d="M478 526h70l-263 -589q-32 -74 -74 -105t-101 -31q-80 0 -128 48l33 53q40 -40 96 -40q36 0 61.5 20t47.5 68l23 51l-235 525h74l198 -447z" />
    <glyph glyph-name="uni0444" unicode="&#x444;" horiz-adv-x="785" 
d="M736 264q0 -123 -81 -193t-229 -76v-189h-69v188q-147 6 -227.5 76.5t-80.5 193.5q0 122 80.5 191t227.5 75v212h69v-212q148 -7 229 -76t81 -190zM119 264q0 -94 60.5 -147t177.5 -60v410q-116 -6 -177 -58.5t-61 -144.5zM426 57q117 6 178.5 59t61.5 148
q0 93 -61.5 145t-178.5 58v-410z" />
    <glyph glyph-name="uni0445" unicode="&#x445;" horiz-adv-x="526" 
d="M511 0h-81l-167 220l-168 -220h-80l208 270l-198 256h80l158 -206l158 206h78l-198 -256z" />
    <glyph glyph-name="uni0446" unicode="&#x446;" horiz-adv-x="684" 
d="M564 62h85v-194h-67v132h-481v526h71v-464h321v464h71v-464z" />
    <glyph glyph-name="uni0447" unicode="&#x447;" horiz-adv-x="599" 
d="M427 526h71v-526h-71v219q-91 -40 -179 -40q-95 0 -148 43.5t-53 130.5v173h71v-169q0 -59 38 -89.5t105 -30.5q74 0 166 39v250z" />
    <glyph glyph-name="uni0448" unicode="&#x448;" horiz-adv-x="929" 
d="M756 526h71v-526h-726v526h71v-464h258v464h71v-464h255v464z" />
    <glyph glyph-name="uni0449" unicode="&#x449;" horiz-adv-x="929" 
d="M827 62h81v-177h-67v115h-740v526h71v-464h258v464h71v-464h255v464h71v-464z" />
    <glyph glyph-name="uni044A" unicode="&#x44a;" horiz-adv-x="621" 
d="M388 342q97 0 148 -44t51 -124q0 -85 -55 -129.5t-158 -44.5h-208v463h-164v63h235v-184h151zM373 55q142 0 142 119q0 114 -142 114h-136v-233h136z" />
    <glyph glyph-name="uni044B" unicode="&#x44b;" horiz-adv-x="785" 
d="M322 340q99 -1 151 -44t52 -124q0 -84 -56 -129t-160 -44l-208 1v526h71v-184zM613 0v526h71v-526h-71zM305 53q148 -2 148 119q0 113 -148 115l-133 2v-234z" />
    <glyph glyph-name="uni044C" unicode="&#x44c;" horiz-adv-x="563" 
d="M327 340q99 -1 150.5 -44t51.5 -124q0 -84 -55.5 -129t-160.5 -44l-212 1v526h71v-184zM309 53q148 -2 148 119q0 113 -148 115l-137 2v-234z" />
    <glyph glyph-name="uni044D" unicode="&#x44d;" horiz-adv-x="571" 
d="M244 530q120 0 199.5 -75.5t79.5 -191.5t-79.5 -192.5t-199.5 -76.5q-137 0 -214 80l42 42q67 -63 169 -63q86 0 146 53t68 134h-281v54h280q-11 79 -70 128.5t-143 49.5q-102 0 -169 -63l-42 41q77 80 214 80z" />
    <glyph glyph-name="uni044E" unicode="&#x44e;" horiz-adv-x="865" 
d="M553 530q113 0 187 -75t74 -192t-74 -192.5t-187 -75.5q-106 0 -178.5 66.5t-82.5 172.5h-120v-234h-71v526h71v-227h121q12 103 84 167t176 64zM553 57q82 0 136.5 57.5t54.5 148.5t-54.5 148t-136.5 57q-83 0 -137 -57t-54 -148t54 -148.5t137 -57.5z" />
    <glyph glyph-name="uni044F" unicode="&#x44f;" horiz-adv-x="606" 
d="M284 526h221v-526h-65v174h-165h-20l-122 -174h-77l131 184q-127 34 -127 162q0 88 60 134t164 46zM132 344q0 -117 149 -117h159v236h-154q-154 0 -154 -119z" />
    <glyph glyph-name="uni0450" unicode="&#x450;" horiz-adv-x="618" 
d="M372 607h-70l-162 124h95zM562 263q0 -3 -0.5 -10.5t-0.5 -11.5h-440q6 -82 63 -132.5t144 -50.5q101 0 161 69l40 -46q-72 -86 -203 -86q-122 0 -199 75t-77 193q0 117 73 192t184 75q112 0 183.5 -74.5t71.5 -192.5zM307 469q-76 0 -127.5 -48.5t-58.5 -126.5h373
q-7 78 -58.5 126.5t-128.5 48.5z" />
    <glyph glyph-name="uni0451" unicode="&#x451;" horiz-adv-x="618" 
d="M218 630q-18 0 -30.5 12t-12.5 31q0 18 12.5 30.5t30.5 12.5q17 0 30 -12.5t13 -30.5t-12.5 -30.5t-30.5 -12.5zM396 630q-18 0 -30.5 12.5t-12.5 30.5t13 30.5t30 12.5q18 0 30.5 -12.5t12.5 -30.5q0 -19 -12.5 -31t-30.5 -12zM562 263q0 -3 -0.5 -10.5t-0.5 -11.5h-440
q6 -82 63 -132.5t144 -50.5q101 0 161 69l40 -46q-72 -86 -203 -86q-122 0 -199 75t-77 193q0 117 73 192t184 75q112 0 183.5 -74.5t71.5 -192.5zM307 469q-76 0 -127.5 -48.5t-58.5 -126.5h373q-7 78 -58.5 126.5t-128.5 48.5z" />
    <glyph glyph-name="uni0452" unicode="&#x452;" horiz-adv-x="671" 
d="M369 530q99 0 157.5 -57.5t58.5 -167.5v-344q0 -74 -40 -117t-113 -43q-74 0 -112 34l25 54q31 -27 82 -27q87 0 87 99v337q0 82 -41 125t-116 43q-85 0 -134.5 -50.5t-49.5 -139.5v-276h-71v607h-109v52h109v83h68v-83h249v-52h-249v-177q59 100 199 100z" />
    <glyph glyph-name="uni0453" unicode="&#x453;" horiz-adv-x="475" 
d="M457 729l-162 -124h-70l137 124h95zM473 526v-63h-301v-463h-71v526h372z" />
    <glyph glyph-name="uni0454" unicode="&#x454;" horiz-adv-x="572" 
d="M331 54q102 0 169 63l42 -41q-77 -80 -214 -80q-120 0 -199.5 75.5t-79.5 191.5t79.5 192.5t199.5 76.5q137 0 214 -80l-42 -42q-67 63 -169 63q-86 0 -146 -53t-68 -134h281v-54h-280q11 -79 70 -128.5t143 -49.5z" />
    <glyph glyph-name="uni0455" unicode="&#x455;" horiz-adv-x="528" 
d="M261 -5q-64 0 -122.5 18.5t-91.5 46.5l32 56q75 -59 187 -59q141 0 141 86q0 32 -25.5 51t-63 25t-82 16t-82 21.5t-63 43t-25.5 80.5q0 66 55 108t153 42q114 0 186 -49l-31 -57q-65 45 -155 45q-68 0 -102.5 -24t-34.5 -63t35 -59t85.5 -28.5t100.5 -19t85 -42.5
t35 -88q0 -69 -57.5 -109.5t-159.5 -40.5z" />
    <glyph glyph-name="uni0456" unicode="&#x456;" horiz-adv-x="273" 
d="M137 641q-22 0 -37 15t-15 36q0 20 15 35t37 15t37 -14.5t15 -34.5q0 -22 -15 -37t-37 -15zM101 0v526h71v-526h-71z" />
    <glyph glyph-name="uni0457" unicode="&#x457;" horiz-adv-x="269" 
d="M69 630q-18 0 -30 12.5t-12 30.5q0 17 12 29.5t30 12.5q17 0 29 -12t12 -30q0 -19 -12 -31t-29 -12zM201 630q-17 0 -29 12.5t-12 30.5q0 17 12 29.5t29 12.5q18 0 30 -12t12 -30q0 -19 -12 -31t-30 -12zM99 0v526h71v-526h-71z" />
    <glyph glyph-name="uni0458" unicode="&#x458;" horiz-adv-x="274" 
d="M138 641q-22 0 -37 15t-15 36q0 20 15 35t37 15t37 -14.5t15 -34.5q0 -22 -15 -37t-37 -15zM19 -199q-73 0 -111 34l25 54q31 -27 82 -27q87 0 87 99v565h71v-565q0 -74 -40 -117t-114 -43z" />
    <glyph glyph-name="uni0459" unicode="&#x459;" horiz-adv-x="922" 
d="M686 340q99 -1 150.5 -44t51.5 -124q0 -84 -55.5 -129t-160.5 -44l-212 1v463h-252l-7 -130q-3 -62 -7.5 -107t-15 -91.5t-25.5 -75.5t-39.5 -47.5t-57.5 -18.5q-21 0 -51 8l5 61q18 -4 25 -4q21 0 37 10t26.5 32.5t17.5 44t11 60t6 63.5t4 70l9 188h385v-184zM668 53
q148 -2 148 119q0 113 -148 115l-137 2v-234z" />
    <glyph glyph-name="uni045A" unicode="&#x45a;" horiz-adv-x="944" 
d="M724 314q92 0 141.5 -39.5t49.5 -112.5q0 -76 -54 -119t-151 -43h-218v253h-320v-253h-71v526h71v-212h320v212h71v-212h161zM708 54q64 0 99.5 27t35.5 77q0 48 -35 73t-100 25h-145v-202h145z" />
    <glyph glyph-name="uni045B" unicode="&#x45b;" horiz-adv-x="670" 
d="M369 530q99 0 157.5 -57.5t58.5 -167.5v-305h-71v298q0 82 -41 125t-116 43q-85 0 -134.5 -50.5t-49.5 -139.5v-276h-71v610h-135v45h135v87h71v-87h249v-45h-249v-175q60 95 196 95z" />
    <glyph glyph-name="uni045C" unicode="&#x45c;" horiz-adv-x="581" 
d="M466 731l-162 -124h-70l137 124h95zM486 0l-194 234h-120v-234h-71v526h71v-231h121l185 231h77l-207 -255l222 -271h-84z" />
    <glyph glyph-name="uni045D" unicode="&#x45d;" horiz-adv-x="688" 
d="M335 607l-162 124h95l137 -124h-70zM101 0v526h71v-418l351 418h63v-526h-71v418l-350 -418h-64z" />
    <glyph glyph-name="uni045E" unicode="&#x45e;" horiz-adv-x="558" 
d="M264 601q-68 0 -108 34t-41 96h51q1 -39 28 -62.5t70 -23.5t70.5 23.5t28.5 62.5h51q-1 -62 -41.5 -96t-108.5 -34zM478 526h70l-263 -589q-32 -74 -74 -105t-101 -31q-80 0 -128 48l33 53q40 -40 96 -40q36 0 61.5 20t47.5 68l23 51l-235 525h74l198 -447z" />
    <glyph glyph-name="uni045F" unicode="&#x45f;" horiz-adv-x="639" 
d="M538 526v-526h-184v-132h-68v132h-185v526h71v-464h295v464h71z" />
    <glyph glyph-name="uni0462" unicode="&#x462;" horiz-adv-x="802" 
d="M505 447q124 0 188.5 -56t64.5 -163q0 -110 -69.5 -169t-199.5 -59h-280v563h-190v56h190v123h73v-123h219v-56h-219v-116h223zM488 59q195 0 195 167q0 162 -195 162h-206v-329h206z" />
    <glyph glyph-name="uni0463" unicode="&#x463;" horiz-adv-x="596" 
d="M360 340q99 -1 151 -44t52 -124q0 -84 -56 -129t-160 -44l-212 1v491h-133v54h133v197h71v-197h197v-54h-197v-149zM343 53q148 -2 148 119q0 113 -148 115l-137 2v-234z" />
    <glyph glyph-name="uni046A" unicode="&#x46a;" horiz-adv-x="884" 
d="M789 163l73 -163h-77l-63 144q-68 169 -207 169h-38v-313h-69v313h-37q-141 0 -209 -169l-63 -144h-77l74 163q87 206 259 206h10l-264 280v51h682v-48l-264 -283h11q173 0 259 -206zM185 642l257 -273l257 273h-514z" />
    <glyph glyph-name="uni046B" unicode="&#x46b;" horiz-adv-x="680" 
d="M609 120l52 -120h-71l-44 103q-47 125 -145 125h-31v-228h-62v228h-27q-100 0 -147 -125l-43 -103h-71l52 120q34 82 81.5 120.5t113.5 38.5h1l-190 200v47h522v-47l-190 -200h4q129 0 195 -159zM154 475l185 -196l186 196h-371z" />
    <glyph glyph-name="uni0472" unicode="&#x472;" horiz-adv-x="851" 
d="M425 706q158 0 263 -101t105 -255t-105 -255t-263 -101t-263 101.5t-105 254.5t105 254.5t263 101.5zM425 640q-118 0 -200 -73t-93 -187h586q-11 114 -93 187t-200 73zM425 60q118 0 200 73.5t93 187.5h-586q11 -114 93 -187.5t200 -73.5z" />
    <glyph glyph-name="uni0473" unicode="&#x473;" horiz-adv-x="646" 
d="M323 530q118 0 195.5 -75t77.5 -192t-77.5 -192.5t-195.5 -75.5q-119 0 -196 75.5t-77 192.5t77 192t196 75zM323 473q-83 0 -139.5 -50.5t-64.5 -133.5h408q-9 83 -65 133.5t-139 50.5zM323 53q83 0 139.5 51t64.5 134h-408q8 -83 64.5 -134t139.5 -51z" />
    <glyph glyph-name="uni0474" unicode="&#x474;" horiz-adv-x="748" 
d="M307 0l-288 700h80l245 -594l160 442q29 83 70 122t102 39q26 0 61 -8l-9 -73q-22 6 -42 6q-43 0 -70.5 -30.5t-52.5 -98.5l-183 -505h-73z" />
    <glyph glyph-name="uni0475" unicode="&#x475;" horiz-adv-x="576" 
d="M397 413q24 63 52.5 91t70.5 28q21 0 53 -8l-8 -70q-19 6 -35 6q-24 0 -40 -20t-37 -73l-142 -367h-71l-230 526h78l188 -435z" />
    <glyph glyph-name="uni048A" unicode="&#x48a;" horiz-adv-x="848" 
d="M410 751q-75 0 -118.5 34t-44.5 95h55q1 -40 30 -63t78 -23q48 0 77.5 23t30.5 63h55q-1 -61 -45 -95t-118 -34zM706 64h99l-67 -221h-59l41 157h-87v579l-448 -579h-67v700h73v-580l448 580h67v-636z" />
    <glyph glyph-name="uni048B" unicode="&#x48b;" horiz-adv-x="708" 
d="M340 602q-64 0 -107 35t-45 94h50q1 -39 30 -62t72 -23t72 23t30 62h50q-2 -59 -45 -94t-107 -35zM586 62h86l-55 -177h-58l32 115h-76v418l-350 -418h-64v526h71v-418l351 418h63v-464z" />
    <glyph glyph-name="uni048C" unicode="&#x48c;" horiz-adv-x="735" 
d="M438 447q124 0 188.5 -56t64.5 -163q0 -110 -69.5 -169t-199.5 -59h-279v563h-110v56h110v123h73v-123h223v-56h-223v-116h222zM422 59q195 0 195 167q0 162 -195 162h-206v-329h206z" />
    <glyph glyph-name="uni048D" unicode="&#x48d;" horiz-adv-x="593" 
d="M358 332q202 -3 202 -163q0 -84 -56 -128t-160 -42l-212 1v405h-109v53h109v68h71v-68h197v-53h-197v-72zM340 53q148 -2 148 117q0 57 -36 82t-112 27l-137 1v-225z" />
    <glyph glyph-name="uni048E" unicode="&#x48e;" horiz-adv-x="732" 
d="M666 458q0 -139 -110 -202l98 -128l-42 -34l-107 140q-54 -18 -125 -18h-188v-216h-74v700h262q134 0 210 -64t76 -178zM378 280q50 0 84 10l-113 148l41 34l124 -162q78 46 78 148q0 86 -55 132t-159 46h-186v-356h186z" />
    <glyph glyph-name="uni048F" unicode="&#x48f;" horiz-adv-x="697" 
d="M636 262q0 -127 -84 -203l70 -89l-41 -32l-71 90q-60 -33 -129 -33q-71 0 -125 32.5t-83 92.5v-314h-71v720h68v-127q29 63 83.5 97t127.5 34q109 0 182 -75t73 -193zM369 57q53 0 98 24l-77 98l42 33l78 -99q56 58 56 149t-56 148.5t-141 57.5q-86 0 -141.5 -57.5
t-55.5 -148.5t55.5 -148t141.5 -57z" />
    <glyph glyph-name="uni0490" unicode="&#x490;" horiz-adv-x="575" 
d="M118 0v700h376v144h69v-208h-372v-636h-73z" />
    <glyph glyph-name="uni0491" unicode="&#x491;" horiz-adv-x="449" 
d="M101 0v526h279v108h66v-171h-274v-463h-71z" />
    <glyph glyph-name="uni0492" unicode="&#x492;" horiz-adv-x="608" 
d="M587 636h-373v-283h302v-56h-301v-297h-73v297h-107v56h107v347h445v-64z" />
    <glyph glyph-name="uni0493" unicode="&#x493;" horiz-adv-x="502" 
d="M488 463h-301v-204h230v-52h-230v-207h-71v207h-70v52h70v267h372v-63z" />
    <glyph glyph-name="uni0494" unicode="&#x494;" horiz-adv-x="701" 
d="M191 341q99 57 200 57q112 0 184.5 -69t72.5 -187q0 -124 -74.5 -203t-188.5 -79q-25 0 -64 7l13 62q27 -5 48 -5q84 0 139 59.5t55 153.5q0 93 -56.5 146.5t-143.5 53.5q-93 0 -185 -62v-275h-73v700h465v-64h-392v-295z" />
    <glyph glyph-name="uni0495" unicode="&#x495;" horiz-adv-x="592" 
d="M172 238q82 43 164 43q99 0 163.5 -61.5t64.5 -170.5q0 -112 -68 -180t-180 -68q-36 0 -71 7l16 62q30 -5 52 -5q82 0 130.5 49t48.5 132q0 86 -48.5 130.5t-121.5 44.5q-76 0 -150 -47v-174h-71v526h359v-63h-288v-225z" />
    <glyph glyph-name="uni0496" unicode="&#x496;" horiz-adv-x="1052" 
d="M944 64h94v-221h-69v157h-68l-214 321h-145v-321h-72v321h-146l-214 -321h-86l240 361l-222 339h80l201 -314h147v314h72v-314h145l202 314h80l-222 -339z" />
    <glyph glyph-name="uni0497" unicode="&#x497;" horiz-adv-x="862" 
d="M766 61h90v-177h-65v116h-67l-162 234h-114v-234h-71v234h-114l-161 -234h-85l189 271l-174 255h77l154 -231h114v231h71v-231h114l155 231h77l-174 -256z" />
    <glyph glyph-name="uni0498" unicode="&#x498;" horiz-adv-x="636" 
d="M570 196q0 -83 -67.5 -137t-167.5 -63v-153h-68v152q-136 8 -232 89l27 53q93 -80 224 -80q88 0 149 40t61 109q0 61 -48 94t-135 33h-150v60h146q74 0 115.5 31.5t41.5 87.5q0 62 -53 97.5t-133 35.5q-107 0 -198 -58l-25 61q104 62 225 62q109 0 183.5 -51.5
t74.5 -138.5q0 -56 -31 -96.5t-87 -57.5q69 -17 108.5 -62t39.5 -108z" />
    <glyph glyph-name="uni0499" unicode="&#x499;" horiz-adv-x="534" 
d="M474 151q0 -63 -55 -105t-140 -50v-111h-67v110q-108 6 -182 64l24 53q75 -57 181 -57q73 0 119.5 27.5t46.5 74.5q0 42 -38 65.5t-104 23.5h-90v52h86q59 0 95 22.5t36 60.5q0 42 -40.5 66t-105.5 24q-85 0 -168 -43l-20 55q94 49 195 49q92 0 152 -39t60 -102
q0 -40 -27.5 -71t-74.5 -46q56 -13 86.5 -45t30.5 -78z" />
    <glyph glyph-name="uni049A" unicode="&#x49a;" horiz-adv-x="748" 
d="M633 64h101v-221h-69v157h-68l-247 321h-160v-321h-72v700h72v-314h160l237 314h80l-260 -340z" />
    <glyph glyph-name="uni049B" unicode="&#x49b;" horiz-adv-x="581" 
d="M520 61h98v-177h-65v116h-67l-194 234h-120v-234h-71v526h71v-231h121l185 231h77l-207 -255z" />
    <glyph glyph-name="uni049C" unicode="&#x49c;" horiz-adv-x="728" 
d="M619 0l-227 321h-59v-150h-57v150h-86v-321h-72v700h72v-314h86v152h57v-152h59l214 314h80l-236 -341l255 -359h-86z" />
    <glyph glyph-name="uni049D" unicode="&#x49d;" horiz-adv-x="597" 
d="M498 0l-170 234h-41v-106h-53v106h-64v-234h-71v526h71v-231h64v108h53v-108h41l162 231h76l-183 -255l199 -271h-84z" />
    <glyph glyph-name="uni049E" unicode="&#x49e;" horiz-adv-x="724" 
d="M619 0l-247 321h-160v-321h-72v552h-103v54h103v94h72v-94h183v-54h-183v-166h160l237 314h80l-260 -340l275 -360h-85z" />
    <glyph glyph-name="uni049F" unicode="&#x49f;" horiz-adv-x="581" 
d="M486 0l-194 234h-119v-234h-71v607h-101v53h101v82h71v-83h158v-52h-158v-312h120l185 231h78l-208 -255l222 -271h-84z" />
    <glyph glyph-name="uni04A0" unicode="&#x4a0;" horiz-adv-x="813" 
d="M709 0l-248 321h-159v-321h-72v636h-219v64h291v-314h160l236 314h80l-260 -340l275 -360h-84z" />
    <glyph glyph-name="uni04A1" unicode="&#x4a1;" horiz-adv-x="646" 
d="M551 0l-194 234h-120v-234h-71v464h-164v62h235v-231h121l185 231h77l-207 -255l222 -271h-84z" />
    <glyph glyph-name="uni04A2" unicode="&#x4a2;" horiz-adv-x="845" 
d="M703 64h112v-221h-69v157h-116v323h-438v-323h-74v700h74v-312h438v312h73v-636z" />
    <glyph glyph-name="uni04A3" unicode="&#x4a3;" horiz-adv-x="694" 
d="M574 62h85v-177h-67v115h-89v232h-331v-232h-71v526h71v-233h331v233h71v-464z" />
    <glyph glyph-name="uni04A4" unicode="&#x4a4;" horiz-adv-x="1088" 
d="M1077 700v-64h-373l1 -636h-75v323h-438v-323h-74v700h74v-312h438v312h447z" />
    <glyph glyph-name="uni04A5" unicode="&#x4a5;" horiz-adv-x="877" 
d="M875 526v-63h-301v-463h-71v232h-331v-232h-71v526h71v-233h331v233h372z" />
    <glyph glyph-name="uni04A6" unicode="&#x4a6;" horiz-adv-x="1204" 
d="M707 344q100 55 196 55q112 0 185 -69.5t73 -187.5q0 -123 -75 -202.5t-187 -79.5q-34 0 -66 7l13 62q26 -6 49 -6q83 0 138 60t55 154q0 93 -56 146.5t-142 53.5q-92 0 -183 -60v-277h-73v636h-443v-636h-73v700h589v-356z" />
    <glyph glyph-name="uni04A7" unicode="&#x4a7;" horiz-adv-x="969" 
d="M557 240q82 41 160 41q99 0 164 -61.5t65 -170.5q0 -112 -68.5 -180t-180.5 -68q-36 0 -71 7l15 62q30 -5 53 -5q82 0 130.5 49t48.5 132q0 86 -48.5 130.5t-121.5 44.5q-76 0 -146 -44v-177h-71v463h-314v-463h-71v526h456v-286z" />
    <glyph glyph-name="uni04A8" unicode="&#x4a8;" horiz-adv-x="972" 
d="M897 5q-67 -18 -131 -18q-87 0 -164 31q-73 -26 -156 -26q-170 0 -276.5 104t-106.5 270q0 109 48.5 199.5t135.5 144.5l55 -36q-78 -49 -121.5 -131t-43.5 -179q0 -141 89 -228.5t233 -87.5q37 0 72 6q-84 54 -132.5 144t-48.5 200q0 140 75.5 227.5t196.5 87.5
q118 0 191.5 -83t73.5 -217q0 -114 -56 -208.5t-151 -150.5q40 -10 88 -10q62 0 120 17zM424 398q0 -110 50.5 -194t136.5 -125q93 40 147.5 126.5t54.5 199.5q0 109 -52.5 175t-139.5 66q-89 0 -143 -68t-54 -180z" />
    <glyph glyph-name="uni04A9" unicode="&#x4a9;" horiz-adv-x="794" 
d="M727 2q-56 -14 -106 -14q-71 0 -133 24q-62 -19 -125 -19q-139 0 -225 78.5t-86 205.5q0 81 38 149t106 108l54 -33q-127 -82 -127 -226q0 -102 69 -165t181 -63q23 0 44 3q-61 42 -96 106.5t-35 142.5q0 106 61 171t160 65q95 0 154.5 -61.5t59.5 -161.5
q0 -82 -41 -151.5t-113 -112.5q24 -5 59 -5q47 0 95 12zM356 300q0 -78 38 -138t103 -91q71 30 112.5 92.5t41.5 144.5q0 74 -40.5 120.5t-104.5 46.5q-68 0 -109 -48t-41 -127z" />
    <glyph glyph-name="uni04AA" unicode="&#x4aa;" horiz-adv-x="716" 
d="M427 60q126 0 207 84l47 -47q-86 -95 -237 -103v-151h-68v154q-140 16 -229 114t-89 239q0 154 104.5 255t262.5 101q163 0 256 -102l-47 -47q-82 83 -207 83q-127 0 -211.5 -83t-84.5 -207t84.5 -207t211.5 -83z" />
    <glyph glyph-name="uni04AB" unicode="&#x4ab;" horiz-adv-x="563" 
d="M321 58q101 0 153 77l53 -36q-57 -92 -178 -103v-111h-67v112q-103 13 -167.5 86t-64.5 180q0 117 76.5 192t194.5 75q143 0 206 -104l-53 -36q-53 78 -153 78q-87 0 -143 -57t-56 -148q0 -92 56 -148.5t143 -56.5z" />
    <glyph glyph-name="uni04AC" unicode="&#x4ac;" horiz-adv-x="588" 
d="M576 636h-246v-572h110v-221h-69v157h-114v636h-246v64h565v-64z" />
    <glyph glyph-name="uni04AD" unicode="&#x4ad;" horiz-adv-x="473" 
d="M471 463h-199v-401h84v-177h-67v115h-88v463h-199v63h469v-63z" />
    <glyph glyph-name="uni04AE" unicode="&#x4ae;" horiz-adv-x="652" 
d="M642 700l-279 -458v-242h-74v242l-280 458h79l240 -393l240 393h74z" />
    <glyph glyph-name="uni04AF" unicode="&#x4af;" horiz-adv-x="559" 
d="M550 526l-235 -529v-191h-71v191l-234 529h75l196 -448l199 448h70z" />
    <glyph glyph-name="uni04B0" unicode="&#x4b0;" horiz-adv-x="652" 
d="M642 700l-261 -428h154v-52h-172v-220h-74v220h-176v52h158l-262 428h79l240 -393l240 393h74z" />
    <glyph glyph-name="uni04B1" unicode="&#x4b1;" horiz-adv-x="559" 
d="M550 526l-220 -495h156v-52h-171v-173h-71v173h-171v52h156l-219 495h75l196 -448l199 448h70z" />
    <glyph glyph-name="uni04B2" unicode="&#x4b2;" horiz-adv-x="690" 
d="M583 64h95v-221h-69v157h-68l-217 301l-217 -301h-85l257 361l-239 339h85l199 -277l198 277h87l-239 -336z" />
    <glyph glyph-name="uni04B3" unicode="&#x4b3;" horiz-adv-x="526" 
d="M464 61h97v-177h-65v116h-67v1l-166 219l-168 -220h-80l208 270l-198 256h80l158 -206l158 206h78l-198 -256z" />
    <glyph glyph-name="uni04B4" unicode="&#x4b4;" horiz-adv-x="967" 
d="M827 63h111v-228h-69v164h-611v637h-246v64h543v-64h-224v-573h423v636h73v-636z" />
    <glyph glyph-name="uni04B5" unicode="&#x4b5;" horiz-adv-x="757" 
d="M639 62h78v-177h-67v115h-449v463h-199v63h440v-63h-170v-401h296v464h71v-464z" />
    <glyph glyph-name="uni04B6" unicode="&#x4b6;" horiz-adv-x="755" 
d="M612 64h111v-221h-69v157h-114v290q-114 -49 -221 -49q-123 0 -191.5 60t-68.5 168v231h73v-223q0 -81 51 -126t143 -45q105 0 214 50v344h72v-636z" />
    <glyph glyph-name="uni04B7" unicode="&#x4b7;" horiz-adv-x="620" 
d="M498 62h85v-177h-67v115h-89v219q-91 -40 -179 -40q-95 0 -148 43.5t-53 130.5v173h71v-169q0 -59 38 -89.5t105 -30.5q74 0 166 39v250h71v-464z" />
    <glyph glyph-name="uni04B8" unicode="&#x4b8;" horiz-adv-x="731" 
d="M539 700h72v-700h-72v290q-89 -39 -181 -47v-151h-56v149q-116 5 -180 64.5t-64 163.5v231h73v-223q0 -76 45 -120.5t126 -49.5v151h56v-151q93 8 181 49v344z" />
    <glyph glyph-name="uni04B9" unicode="&#x4b9;" horiz-adv-x="599" 
d="M426 526h71v-526h-71v219q-63 -28 -129 -37v-108h-52v105q-94 1 -146.5 44.5t-52.5 129.5v173h71v-169q0 -55 33.5 -85.5t94.5 -34.5v115h52v-113q58 7 129 37v250z" />
    <glyph glyph-name="uni04BA" unicode="&#x4ba;" horiz-adv-x="731" 
d="M411 459q124 0 192.5 -59.5t68.5 -168.5v-231h-73v223q0 82 -51.5 126.5t-143.5 44.5q-104 0 -213 -50v-344h-73v700h73v-290q114 49 220 49z" />
    <glyph glyph-name="uni04BB" unicode="&#x4bb;" horiz-adv-x="670" 
d="M369 530q99 0 157.5 -57.5t58.5 -167.5v-305h-71v298q0 82 -41 125t-117 43q-85 0 -134.5 -50.5t-49.5 -139.5v-276h-71v742h71v-308q61 96 197 96z" />
    <glyph glyph-name="uni04BC" unicode="&#x4bc;" horiz-adv-x="974" 
d="M931 352q0 -4 -3 -40h-630q12 -113 94 -182.5t191 -69.5q121 0 223 87l54 -48q-122 -105 -278 -105q-139 0 -242.5 86.5t-115.5 231.5h-28q-77 0 -119.5 42.5t-42.5 106.5q0 54 30 108l68 -15q-28 -41 -28 -85q0 -41 26.5 -67.5t74.5 -26.5h18q10 147 111.5 239t243.5 92
q149 0 251 -99t102 -255zM578 641q-112 0 -192 -74.5t-89 -191.5h558q-7 117 -86 191.5t-191 74.5z" />
    <glyph glyph-name="uni04BD" unicode="&#x4bd;" horiz-adv-x="752" 
d="M707 263q0 -6 -2 -22h-456q7 -82 66.5 -132.5t148.5 -50.5q106 0 167 69l41 -46q-74 -86 -210 -86q-119 0 -197.5 68.5t-86.5 177.5h-21q-64 0 -99 29t-35 77q0 39 24 84l60 -15q-21 -32 -21 -60t20.5 -45t58.5 -17h14q10 105 83.5 170.5t180.5 65.5q115 0 189.5 -74.5
t74.5 -192.5zM443 469q-79 0 -132.5 -48.5t-61.5 -126.5h387q-6 77 -60 126t-133 49z" />
    <glyph glyph-name="uni04BE" unicode="&#x4be;" horiz-adv-x="974" 
d="M931 352q0 -4 -3 -40h-630q12 -113 94 -182.5t191 -69.5q121 0 223 87l54 -48q-107 -91 -243 -104v-152h-68v152q-129 11 -221 96t-104 221h-28q-77 0 -119.5 42.5t-42.5 106.5q0 54 30 108l68 -15q-28 -41 -28 -85q0 -41 26.5 -67.5t74.5 -26.5h18q10 147 111.5 239
t243.5 92q149 0 251 -99t102 -255zM578 641q-112 0 -192 -74.5t-89 -191.5h558q-7 117 -86 191.5t-191 74.5z" />
    <glyph glyph-name="uni04BF" unicode="&#x4bf;" horiz-adv-x="752" 
d="M707 263q0 -6 -2 -22h-456q7 -82 66.5 -132.5t148.5 -50.5q106 0 167 69l41 -46q-68 -79 -189 -85v-111h-67v113q-101 13 -166 79t-72 164h-21q-64 0 -99 29t-35 77q0 39 24 84l60 -15q-21 -32 -21 -60t20.5 -45t58.5 -17h14q10 105 83.5 170.5t180.5 65.5
q115 0 189.5 -74.5t74.5 -192.5zM443 469q-79 0 -132.5 -48.5t-61.5 -126.5h387q-6 77 -60 126t-133 49z" />
    <glyph glyph-name="uni04C0" unicode="&#x4c0;" horiz-adv-x="310" 
d="M118 0v700h74v-700h-74z" />
    <glyph glyph-name="uni04C1" unicode="&#x4c1;" horiz-adv-x="1011" 
d="M507 751q-75 0 -118.5 34t-44.5 95h55q1 -40 30 -63t78 -23q48 0 77.5 23t30.5 63h55q-1 -61 -45 -95t-118 -34zM901 0l-214 321h-145v-321h-72v321h-146l-214 -321h-86l240 361l-222 339h80l201 -314h147v314h72v-314h145l202 314h80l-222 -339l240 -361h-86z" />
    <glyph glyph-name="uni04C2" unicode="&#x4c2;" horiz-adv-x="826" 
d="M413 601q-68 0 -108 34t-41 96h51q1 -39 28 -62.5t70 -23.5t70.5 23.5t28.5 62.5h51q-1 -62 -41.5 -96t-108.5 -34zM724 0l-162 234h-114v-234h-71v234h-114l-161 -234h-85l189 271l-174 255h77l154 -231h114v231h71v-231h114l155 231h77l-174 -256l189 -270h-85z" />
    <glyph glyph-name="uni04C3" unicode="&#x4c3;" horiz-adv-x="702" 
d="M408 359q124 -113 194.5 -218t70.5 -185q0 -72 -41.5 -114t-110.5 -42q-57 0 -112 29l21 57q42 -22 77 -22q40 0 63.5 24.5t23.5 69.5q0 69 -68.5 169t-176.5 194h-159v-321h-72v700h72v-314h161l235 314h80z" />
    <glyph glyph-name="uni04C4" unicode="&#x4c4;" horiz-adv-x="581" 
d="M353 277q93 -77 147 -164.5t54 -162.5q0 -67 -41.5 -108t-109.5 -41q-54 0 -110 29l21 54q43 -23 79 -23q41 0 65.5 25t24.5 67q0 61 -49.5 138.5t-129.5 142.5h-132v-234h-71v526h71v-231h121l185 231h77z" />
    <glyph glyph-name="uni04C6" unicode="&#x4c6;" horiz-adv-x="652" 
d="M531 62h86l-55 -177h-58l32 115h-76v463h-252l-7 -130q-3 -62 -7.5 -107t-15 -91.5t-25.5 -75.5t-39.5 -47.5t-57.5 -18.5q-21 0 -51 8l5 61q18 -4 25 -4q21 0 37 10t26.5 32.5t17.5 44t11 60t6 63.5t4 70l9 188h385v-464z" />
    <glyph glyph-name="uni04C7" unicode="&#x4c7;" horiz-adv-x="816" 
d="M432 -165l24 54q38 -27 80 -27q38 0 63.5 23.5t25.5 66.5v367h-434v-319h-73v700h73v-316h434v316h73v-752q0 -71 -44.5 -109.5t-108.5 -38.5q-61 0 -113 35z" />
    <glyph glyph-name="uni04C8" unicode="&#x4c8;" horiz-adv-x="682" 
d="M430 -199q-74 0 -112 34l24 54q30 -27 79 -27q89 0 89 99v271h-338v-232h-71v526h71v-233h338v233h71v-569q0 -72 -39.5 -114t-111.5 -42z" />
    <glyph glyph-name="uni04C9" unicode="&#x4c9;" horiz-adv-x="845" 
d="M703 64h101l-67 -221h-59l41 157h-89v323h-438v-323h-74v700h74v-312h438v312h73v-636z" />
    <glyph glyph-name="uni04CA" unicode="&#x4ca;" horiz-adv-x="695" 
d="M574 62h86l-55 -177h-58l32 115h-76v232h-331v-232h-71v526h71v-233h331v233h71v-464z" />
    <glyph glyph-name="uni04CB" unicode="&#x4cb;" horiz-adv-x="728" 
d="M537 700h73v-700h-124v-157h-69v221h120v239q-115 -49 -219 -49q-124 0 -192 58.5t-68 164.5v223h72v-215q0 -79 51 -122.5t143 -43.5q100 0 213 50v331z" />
    <glyph glyph-name="uni04CC" unicode="&#x4cc;" horiz-adv-x="597" 
d="M425 526h71v-526h-95v-115h-68v174h92v172q-90 -41 -180 -41q-95 0 -148 44t-53 130v162h71v-158q0 -58 38 -88.5t106 -30.5q80 0 166 38v239z" />
    <glyph glyph-name="uni04CD" unicode="&#x4cd;" horiz-adv-x="992" 
d="M845 64h106l-67 -221h-59l41 157h-92v560l-275 -471h-35l-275 468v-557h-71v700h61l304 -519l301 519h61v-636z" />
    <glyph glyph-name="uni04CE" unicode="&#x4ce;" horiz-adv-x="816" 
d="M689 62h92l-55 -177h-58l32 115h-76v416l-213 -352h-32l-213 353v-417h-65v526h72l223 -379l227 379h66v-464z" />
    <glyph glyph-name="uni04CF" unicode="&#x4cf;" horiz-adv-x="274" 
d="M102 0v742h71v-742h-71z" />
    <glyph glyph-name="uni04D0" unicode="&#x4d0;" horiz-adv-x="744" 
d="M372 751q-75 0 -118.5 34t-44.5 95h55q1 -40 30 -63t78 -23q48 0 77.5 23t30.5 63h55q-1 -61 -45 -95t-118 -34zM650 0l-84 187h-390l-84 -187h-77l320 700h73l320 -700h-78zM203 247h336l-168 376z" />
    <glyph glyph-name="uni04D1" unicode="&#x4d1;" horiz-adv-x="583" 
d="M284 601q-68 0 -108 34t-41 96h51q1 -39 28 -62.5t70 -23.5t70.5 23.5t28.5 62.5h51q-1 -62 -41.5 -96t-108.5 -34zM282 530q103 0 158 -51.5t55 -152.5v-326h-68v82q-52 -87 -181 -87q-88 0 -140 42t-52 111q0 67 48.5 108t154.5 41h167v32q0 68 -38 103.5t-111 35.5
q-105 0 -175 -62l-32 53q84 71 214 71zM257 51q124 0 167 107v86h-165q-135 0 -135 -94q0 -46 35 -72.5t98 -26.5z" />
    <glyph glyph-name="uni04D2" unicode="&#x4d2;" horiz-adv-x="744" 
d="M283 780q-18 0 -30.5 12t-12.5 31q0 18 12.5 30.5t30.5 12.5q17 0 30 -12.5t13 -30.5t-12.5 -30.5t-30.5 -12.5zM461 780q-18 0 -30.5 12.5t-12.5 30.5t13 30.5t30 12.5q18 0 30.5 -12.5t12.5 -30.5q0 -19 -12.5 -31t-30.5 -12zM650 0l-84 187h-390l-84 -187h-77l320 700
h73l320 -700h-78zM203 247h336l-168 376z" />
    <glyph glyph-name="uni04D3" unicode="&#x4d3;" horiz-adv-x="583" 
d="M195 630q-18 0 -30.5 12t-12.5 31q0 18 12.5 30.5t30.5 12.5q17 0 30 -12.5t13 -30.5t-12.5 -30.5t-30.5 -12.5zM373 630q-18 0 -30.5 12.5t-12.5 30.5t13 30.5t30 12.5q18 0 30.5 -12.5t12.5 -30.5q0 -19 -12.5 -31t-30.5 -12zM282 530q103 0 158 -51.5t55 -152.5v-326
h-68v82q-52 -87 -181 -87q-88 0 -140 42t-52 111q0 67 48.5 108t154.5 41h167v32q0 68 -38 103.5t-111 35.5q-105 0 -175 -62l-32 53q84 71 214 71zM257 51q124 0 167 107v86h-165q-135 0 -135 -94q0 -46 35 -72.5t98 -26.5z" />
    <glyph glyph-name="uni04D4" unicode="&#x4d4;" horiz-adv-x="1026" 
d="M559 64h421v-64h-494v187h-287l-113 -187h-77l427 700h529v-64h-406v-249h363v-63h-363v-260zM235 247h251v389h-15z" />
    <glyph glyph-name="uni04D5" unicode="&#x4d5;" horiz-adv-x="990" 
d="M939 267q0 -8 -2 -24h-441q5 -83 62 -134t145 -51q99 0 161 69l40 -46q-72 -86 -203 -86q-161 0 -235 121q-28 -62 -85 -91.5t-128 -29.5q-93 0 -146 42.5t-53 112.5q0 64 48.5 105t154.5 41h167v33q0 68 -38 103.5t-111 35.5q-105 0 -175 -62l-32 53q84 71 213 71
q152 0 193 -108q73 108 209 108q111 0 183.5 -74.5t72.5 -188.5zM682 469q-73 0 -125.5 -47t-60.5 -126h373q-7 78 -60.5 125.5t-126.5 47.5zM258 51q76 0 121 40.5t45 109.5v42h-165q-135 0 -135 -91q0 -47 35.5 -74t98.5 -27z" />
    <glyph glyph-name="uni04D6" unicode="&#x4d6;" horiz-adv-x="659" 
d="M359 751q-75 0 -118.5 34t-44.5 95h55q1 -40 30 -63t78 -23q48 0 77.5 23t30.5 63h55q-1 -61 -45 -95t-118 -34zM192 64h421v-64h-495v700h480v-64h-406v-249h362v-63h-362v-260z" />
    <glyph glyph-name="uni04D7" unicode="&#x4d7;" horiz-adv-x="618" 
d="M307 601q-68 0 -108 34t-41 96h51q1 -39 28 -62.5t70 -23.5t70.5 23.5t28.5 62.5h51q-1 -62 -41.5 -96t-108.5 -34zM562 263q0 -3 -0.5 -10.5t-0.5 -11.5h-440q6 -82 63 -132.5t144 -50.5q101 0 161 69l40 -46q-72 -86 -203 -86q-122 0 -199 75t-77 193q0 117 73 192
t184 75q112 0 183.5 -74.5t71.5 -192.5zM307 469q-76 0 -127.5 -48.5t-58.5 -126.5h373q-7 78 -58.5 126.5t-128.5 48.5z" />
    <glyph glyph-name="uni04D8" unicode="&#x4d8;" horiz-adv-x="824" 
d="M399 706q151 0 259 -97t108 -257q0 -158 -106 -258t-258 -100t-255.5 99t-103.5 255q0 18 3 36h644q-12 116 -96 186t-197 70q-125 0 -228 -87l-53 48q124 105 283 105zM402 59q116 0 199 75.5t90 194.5h-573q7 -119 87.5 -194.5t196.5 -75.5z" />
    <glyph glyph-name="uni04D9" unicode="&#x4d9;" horiz-adv-x="617" 
d="M291 531q122 0 199 -75t77 -193q0 -117 -73 -192t-184 -75q-112 0 -183.5 74.5t-71.5 192.5q0 3 0.5 10.5t0.5 11.5h440q-6 82 -63 132.5t-144 50.5q-101 0 -161 -69l-40 46q72 86 203 86zM310 57q76 0 127.5 48.5t58.5 126.5h-373q7 -78 58.5 -126.5t128.5 -48.5z" />
    <glyph glyph-name="uni04DA" unicode="&#x4da;" horiz-adv-x="824" 
d="M324 780q-18 0 -30.5 12t-12.5 31q0 18 12.5 30.5t30.5 12.5q17 0 30 -12.5t13 -30.5t-12.5 -30.5t-30.5 -12.5zM502 780q-18 0 -30.5 12.5t-12.5 30.5t13 30.5t30 12.5q18 0 30.5 -12.5t12.5 -30.5q0 -19 -12.5 -31t-30.5 -12zM399 706q151 0 259 -97t108 -257
q0 -158 -106 -258t-258 -100t-255.5 99t-103.5 255q0 18 3 36h644q-12 116 -96 186t-197 70q-125 0 -228 -87l-53 48q124 105 283 105zM402 59q116 0 199 75.5t90 194.5h-573q7 -119 87.5 -194.5t196.5 -75.5z" />
    <glyph glyph-name="uni04DB" unicode="&#x4db;" horiz-adv-x="617" 
d="M221 630q-18 0 -30.5 12t-12.5 31q0 18 12.5 30.5t30.5 12.5q17 0 30 -12.5t13 -30.5t-12.5 -30.5t-30.5 -12.5zM399 630q-18 0 -30.5 12.5t-12.5 30.5t13 30.5t30 12.5q18 0 30.5 -12.5t12.5 -30.5q0 -19 -12.5 -31t-30.5 -12zM291 531q122 0 199 -75t77 -193
q0 -117 -73 -192t-184 -75q-112 0 -183.5 74.5t-71.5 192.5q0 3 0.5 10.5t0.5 11.5h440q-6 82 -63 132.5t-144 50.5q-101 0 -161 -69l-40 46q72 86 203 86zM310 57q76 0 127.5 48.5t58.5 126.5h-373q7 -78 58.5 -126.5t128.5 -48.5z" />
    <glyph glyph-name="uni04DC" unicode="&#x4dc;" horiz-adv-x="1011" 
d="M418 780q-18 0 -30.5 12t-12.5 31q0 18 12.5 30.5t30.5 12.5q17 0 30 -12.5t13 -30.5t-12.5 -30.5t-30.5 -12.5zM596 780q-18 0 -30.5 12.5t-12.5 30.5t13 30.5t30 12.5q18 0 30.5 -12.5t12.5 -30.5q0 -19 -12.5 -31t-30.5 -12zM901 0l-214 321h-145v-321h-72v321h-146
l-214 -321h-86l240 361l-222 339h80l201 -314h147v314h72v-314h145l202 314h80l-222 -339l240 -361h-86z" />
    <glyph glyph-name="uni04DD" unicode="&#x4dd;" horiz-adv-x="826" 
d="M324 630q-18 0 -30.5 12t-12.5 31q0 18 12.5 30.5t30.5 12.5q17 0 30 -12.5t13 -30.5t-12.5 -30.5t-30.5 -12.5zM502 630q-18 0 -30.5 12.5t-12.5 30.5t13 30.5t30 12.5q18 0 30.5 -12.5t12.5 -30.5q0 -19 -12.5 -31t-30.5 -12zM724 0l-162 234h-114v-234h-71v234h-114
l-161 -234h-85l189 271l-174 255h77l154 -231h114v231h71v-231h114l155 231h77l-174 -256l189 -270h-85z" />
    <glyph glyph-name="uni04DE" unicode="&#x4de;" horiz-adv-x="636" 
d="M227 780q-18 0 -30.5 12t-12.5 31q0 18 12.5 30.5t30.5 12.5q17 0 30 -12.5t13 -30.5t-12.5 -30.5t-30.5 -12.5zM405 780q-18 0 -30.5 12.5t-12.5 30.5t13 30.5t30 12.5q18 0 30.5 -12.5t12.5 -30.5q0 -19 -12.5 -31t-30.5 -12zM422 366q69 -17 108.5 -62t39.5 -108
q0 -92 -80.5 -147t-195.5 -55q-152 0 -259 90l27 53q93 -80 224 -80q88 0 149 40t61 109q0 61 -48 94t-135 33h-150v60h146q74 0 115.5 31.5t41.5 87.5q0 62 -53 97.5t-133 35.5q-107 0 -198 -58l-25 61q104 62 225 62q109 0 183.5 -51.5t74.5 -138.5q0 -56 -31 -96.5
t-87 -57.5z" />
    <glyph glyph-name="uni04DF" unicode="&#x4df;" horiz-adv-x="534" 
d="M167 630q-18 0 -30.5 12t-12.5 31q0 18 12.5 30.5t30.5 12.5q17 0 30 -12.5t13 -30.5t-12.5 -30.5t-30.5 -12.5zM345 630q-18 0 -30.5 12.5t-12.5 30.5t13 30.5t30 12.5q18 0 30.5 -12.5t12.5 -30.5q0 -19 -12.5 -31t-30.5 -12zM357 274q56 -13 86.5 -45t30.5 -78
q0 -70 -68 -113.5t-168 -43.5q-123 0 -208 65l24 53q75 -57 181 -57q73 0 119.5 27.5t46.5 74.5q0 42 -38 65.5t-104 23.5h-90v52h86q59 0 95 22.5t36 60.5q0 42 -40.5 66t-105.5 24q-85 0 -168 -43l-20 55q94 49 195 49q92 0 152 -39t60 -102q0 -40 -27.5 -71t-74.5 -46z
" />
    <glyph glyph-name="uni04E0" unicode="&#x4e0;" horiz-adv-x="615" 
d="M316 400q119 -4 181.5 -58t62.5 -141q0 -92 -68.5 -149.5t-196.5 -57.5q-82 0 -153 24t-110 64l29 58q36 -36 98 -58.5t134 -22.5q92 0 142.5 37.5t50.5 104.5q0 66 -50.5 103t-151.5 37h-52v52l210 244h-384v63h471v-51z" />
    <glyph glyph-name="uni04E1" unicode="&#x4e1;" horiz-adv-x="514" 
d="M249 217q112 -5 170.5 -60t58.5 -145q0 -94 -65.5 -153t-186.5 -59q-76 0 -143 25t-105 67l29 58q34 -38 92 -61t125 -23q87 0 134 39t47 107q0 69 -47 107.5t-142 38.5h-50v51l198 253h-362v64h447v-52z" />
    <glyph glyph-name="uni04E2" unicode="&#x4e2;" horiz-adv-x="824" 
d="M256 795v47h308v-47h-308zM118 0v700h73v-580l448 580h67v-700h-73v579l-448 -579h-67z" />
    <glyph glyph-name="uni04E3" unicode="&#x4e3;" horiz-adv-x="688" 
d="M186 645v47h308v-47h-308zM101 0v526h71v-418l351 418h63v-526h-71v418l-350 -418h-64z" />
    <glyph glyph-name="uni04E4" unicode="&#x4e4;" horiz-adv-x="824" 
d="M321 780q-18 0 -30.5 12t-12.5 31q0 18 12.5 30.5t30.5 12.5q17 0 30 -12.5t13 -30.5t-12.5 -30.5t-30.5 -12.5zM499 780q-18 0 -30.5 12.5t-12.5 30.5t13 30.5t30 12.5q18 0 30.5 -12.5t12.5 -30.5q0 -19 -12.5 -31t-30.5 -12zM118 0v700h73v-580l448 580h67v-700h-73
v579l-448 -579h-67z" />
    <glyph glyph-name="uni04E5" unicode="&#x4e5;" horiz-adv-x="688" 
d="M251 630q-18 0 -30.5 12t-12.5 31q0 18 12.5 30.5t30.5 12.5q17 0 30 -12.5t13 -30.5t-12.5 -30.5t-30.5 -12.5zM429 630q-18 0 -30.5 12.5t-12.5 30.5t13 30.5t30 12.5q18 0 30.5 -12.5t12.5 -30.5q0 -19 -12.5 -31t-30.5 -12zM101 0v526h71v-418l351 418h63v-526h-71
v418l-350 -418h-64z" />
    <glyph glyph-name="uni04E6" unicode="&#x4e6;" horiz-adv-x="851" 
d="M336 780q-18 0 -30.5 12t-12.5 31q0 18 12.5 30.5t30.5 12.5q17 0 30 -12.5t13 -30.5t-12.5 -30.5t-30.5 -12.5zM514 780q-18 0 -30.5 12.5t-12.5 30.5t13 30.5t30 12.5q18 0 30.5 -12.5t12.5 -30.5q0 -19 -12.5 -31t-30.5 -12zM425 -6q-159 0 -263.5 101.5t-104.5 254.5
t104.5 254.5t263.5 101.5q158 0 262.5 -101t104.5 -255t-104.5 -255t-262.5 -101zM425 60q126 0 209.5 82.5t83.5 207.5t-83.5 207.5t-209.5 82.5q-127 0 -211 -82.5t-84 -207.5t84 -207.5t211 -82.5z" />
    <glyph glyph-name="uni04E7" unicode="&#x4e7;" horiz-adv-x="636" 
d="M228 630q-18 0 -30.5 12t-12.5 31q0 18 12.5 30.5t30.5 12.5q17 0 30 -12.5t13 -30.5t-12.5 -30.5t-30.5 -12.5zM406 630q-18 0 -30.5 12.5t-12.5 30.5t13 30.5t30 12.5q18 0 30.5 -12.5t12.5 -30.5q0 -19 -12.5 -31t-30.5 -12zM318 -5q-116 0 -192 75.5t-76 192.5
t76 192t192 75t191.5 -75t75.5 -192t-75.5 -192.5t-191.5 -75.5zM318 58q85 0 140 57t55 148t-55 148t-140 57t-140.5 -57t-55.5 -148t55.5 -148t140.5 -57z" />
    <glyph glyph-name="uni04E8" unicode="&#x4e8;" horiz-adv-x="851" 
d="M425 706q158 0 263 -101t105 -255t-105 -255t-263 -101t-263 101.5t-105 254.5t105 254.5t263 101.5zM425 640q-118 0 -200 -73t-93 -187h586q-11 114 -93 187t-200 73zM425 60q118 0 200 73.5t93 187.5h-586q11 -114 93 -187.5t200 -73.5z" />
    <glyph glyph-name="uni04E9" unicode="&#x4e9;" horiz-adv-x="646" 
d="M323 530q118 0 195.5 -75t77.5 -192t-77.5 -192.5t-195.5 -75.5q-119 0 -196 75.5t-77 192.5t77 192t196 75zM323 473q-83 0 -139.5 -50.5t-64.5 -133.5h408q-9 83 -65 133.5t-139 50.5zM323 53q83 0 139.5 51t64.5 134h-408q8 -83 64.5 -134t139.5 -51z" />
    <glyph glyph-name="uni04EA" unicode="&#x4ea;" horiz-adv-x="851" 
d="M336 780q-18 0 -30.5 12t-12.5 31q0 18 12.5 30.5t30.5 12.5q17 0 30 -12.5t13 -30.5t-12.5 -30.5t-30.5 -12.5zM514 780q-18 0 -30.5 12.5t-12.5 30.5t13 30.5t30 12.5q18 0 30.5 -12.5t12.5 -30.5q0 -19 -12.5 -31t-30.5 -12zM425 706q158 0 263 -101t105 -255
t-105 -255t-263 -101t-263 101.5t-105 254.5t105 254.5t263 101.5zM425 640q-118 0 -200 -73t-93 -187h586q-11 114 -93 187t-200 73zM425 60q118 0 200 73.5t93 187.5h-586q11 -114 93 -187.5t200 -73.5z" />
    <glyph glyph-name="uni04EB" unicode="&#x4eb;" horiz-adv-x="646" 
d="M234 630q-18 0 -30.5 12t-12.5 31q0 18 12.5 30.5t30.5 12.5q17 0 30 -12.5t13 -30.5t-12.5 -30.5t-30.5 -12.5zM412 630q-18 0 -30.5 12.5t-12.5 30.5t13 30.5t30 12.5q18 0 30.5 -12.5t12.5 -30.5q0 -19 -12.5 -31t-30.5 -12zM323 530q118 0 195.5 -75t77.5 -192
t-77.5 -192.5t-195.5 -75.5q-119 0 -196 75.5t-77 192.5t77 192t196 75zM323 473q-83 0 -139.5 -50.5t-64.5 -133.5h408q-9 83 -65 133.5t-139 50.5zM323 53q83 0 139.5 51t64.5 134h-408q8 -83 64.5 -134t139.5 -51z" />
    <glyph glyph-name="uni04EC" unicode="&#x4ec;" horiz-adv-x="706" 
d="M228 780q-18 0 -30.5 12t-12.5 31q0 18 12.5 30.5t30.5 12.5q17 0 30 -12.5t13 -30.5t-12.5 -30.5t-30.5 -12.5zM406 780q-18 0 -30.5 12.5t-12.5 30.5t13 30.5t30 12.5q18 0 30.5 -12.5t12.5 -30.5q0 -19 -12.5 -31t-30.5 -12zM299 706q149 0 248.5 -101t99.5 -255
t-99.5 -255t-248.5 -101q-171 0 -264 103l46 47q83 -84 215 -84q112 0 190 75t86 191h-361v61h360q-12 111 -89 182t-186 71q-132 0 -215 -84l-46 47q94 103 264 103z" />
    <glyph glyph-name="uni04ED" unicode="&#x4ed;" horiz-adv-x="571" 
d="M170 630q-18 0 -30.5 12t-12.5 31q0 18 12.5 30.5t30.5 12.5q17 0 30 -12.5t13 -30.5t-12.5 -30.5t-30.5 -12.5zM348 630q-18 0 -30.5 12.5t-12.5 30.5t13 30.5t30 12.5q18 0 30.5 -12.5t12.5 -30.5q0 -19 -12.5 -31t-30.5 -12zM244 530q120 0 199.5 -75.5t79.5 -191.5
t-79.5 -192.5t-199.5 -76.5q-137 0 -214 80l42 42q67 -63 169 -63q86 0 146 53t68 134h-281v54h280q-11 79 -70 128.5t-143 49.5q-102 0 -169 -63l-42 41q77 80 214 80z" />
    <glyph glyph-name="uni04EE" unicode="&#x4ee;" horiz-adv-x="680" 
d="M487 842v-47h-308v47h308zM594 700h74l-318 -589q-66 -124 -179 -124q-40 0 -86 19l21 60q36 -14 66 -14q69 0 113 75l20 34l-284 539h79l244 -474z" />
    <glyph glyph-name="uni04EF" unicode="&#x4ef;" horiz-adv-x="558" 
d="M418 692v-47h-308v47h308zM478 526h70l-263 -589q-32 -74 -74 -105t-101 -31q-80 0 -128 48l33 53q40 -40 96 -40q36 0 61.5 20t47.5 68l23 51l-235 525h74l198 -447z" />
    <glyph glyph-name="uni04F0" unicode="&#x4f0;" horiz-adv-x="680" 
d="M244 780q-18 0 -30.5 12t-12.5 31q0 18 12.5 30.5t30.5 12.5q17 0 30 -12.5t13 -30.5t-12.5 -30.5t-30.5 -12.5zM422 780q-18 0 -30.5 12.5t-12.5 30.5t13 30.5t30 12.5q18 0 30.5 -12.5t12.5 -30.5q0 -19 -12.5 -31t-30.5 -12zM594 700h74l-318 -589q-66 -124 -179 -124
q-40 0 -86 19l21 60q36 -14 66 -14q69 0 113 75l20 34l-284 539h79l244 -474z" />
    <glyph glyph-name="uni04F1" unicode="&#x4f1;" horiz-adv-x="558" 
d="M175 630q-18 0 -30.5 12t-12.5 31q0 18 12.5 30.5t30.5 12.5q17 0 30 -12.5t13 -30.5t-12.5 -30.5t-30.5 -12.5zM353 630q-18 0 -30.5 12.5t-12.5 30.5t13 30.5t30 12.5q18 0 30.5 -12.5t12.5 -30.5q0 -19 -12.5 -31t-30.5 -12zM478 526h70l-263 -589q-32 -74 -74 -105
t-101 -31q-80 0 -128 48l33 53q40 -40 96 -40q36 0 61.5 20t47.5 68l23 51l-235 525h74l198 -447z" />
    <glyph glyph-name="uni04F2" unicode="&#x4f2;" horiz-adv-x="680" 
d="M396 881l-113 -124h-63l97 124h79zM446 757h-63l96 124h79zM594 700h74l-318 -589q-66 -124 -179 -124q-40 0 -86 19l21 60q36 -14 66 -14q69 0 113 75l20 34l-284 539h79l244 -474z" />
    <glyph glyph-name="uni04F3" unicode="&#x4f3;" horiz-adv-x="558" 
d="M327 731l-113 -124h-63l97 124h79zM377 607h-63l96 124h79zM478 526h70l-263 -589q-32 -74 -74 -105t-101 -31q-80 0 -128 48l33 53q40 -40 96 -40q36 0 61.5 20t47.5 68l23 51l-235 525h74l198 -447z" />
    <glyph glyph-name="uni04F4" unicode="&#x4f4;" horiz-adv-x="731" 
d="M248 780q-18 0 -30.5 12t-12.5 31q0 18 12.5 30.5t30.5 12.5q17 0 30 -12.5t13 -30.5t-12.5 -30.5t-30.5 -12.5zM426 780q-18 0 -30.5 12.5t-12.5 30.5t13 30.5t30 12.5q18 0 30.5 -12.5t12.5 -30.5q0 -19 -12.5 -31t-30.5 -12zM540 700h72v-700h-72v290
q-114 -49 -221 -49q-123 0 -191.5 60t-68.5 168v231h73v-223q0 -81 51 -126t143 -45q105 0 214 50v344z" />
    <glyph glyph-name="uni04F5" unicode="&#x4f5;" horiz-adv-x="599" 
d="M181 630q-18 0 -30.5 12t-12.5 31q0 18 12.5 30.5t30.5 12.5q17 0 30 -12.5t13 -30.5t-12.5 -30.5t-30.5 -12.5zM359 630q-18 0 -30.5 12.5t-12.5 30.5t13 30.5t30 12.5q18 0 30.5 -12.5t12.5 -30.5q0 -19 -12.5 -31t-30.5 -12zM427 526h71v-526h-71v219
q-91 -40 -179 -40q-95 0 -148 43.5t-53 130.5v173h71v-169q0 -59 38 -89.5t105 -30.5q74 0 166 39v250z" />
    <glyph glyph-name="uni04F6" unicode="&#x4f6;" horiz-adv-x="572" 
d="M563 636h-373l1 -572h110v-221h-69v157h-114v700h445v-64z" />
    <glyph glyph-name="uni04F7" unicode="&#x4f7;" horiz-adv-x="475" 
d="M473 463h-301v-401h85v-177h-67v115h-89v526h372v-63z" />
    <glyph glyph-name="uni04F8" unicode="&#x4f8;" horiz-adv-x="978" 
d="M401 780q-18 0 -30.5 12t-12.5 31q0 18 12.5 30.5t30.5 12.5q17 0 30 -12.5t13 -30.5t-12.5 -30.5t-30.5 -12.5zM579 780q-18 0 -30.5 12.5t-12.5 30.5t13 30.5t30 12.5q18 0 30.5 -12.5t12.5 -30.5q0 -19 -12.5 -31t-30.5 -12zM411 450q124 0 189.5 -56t65.5 -164
q0 -113 -69.5 -171.5t-200.5 -58.5h-278v700h73v-250h220zM787 0v700h73v-700h-73zM394 59q97 0 147.5 43t50.5 127q0 161 -198 161h-203v-331h203z" />
    <glyph glyph-name="uni04F9" unicode="&#x4f9;" horiz-adv-x="785" 
d="M319 630q-18 0 -30.5 12t-12.5 31q0 18 12.5 30.5t30.5 12.5q17 0 30 -12.5t13 -30.5t-12.5 -30.5t-30.5 -12.5zM497 630q-18 0 -30.5 12.5t-12.5 30.5t13 30.5t30 12.5q18 0 30.5 -12.5t12.5 -30.5q0 -19 -12.5 -31t-30.5 -12zM322 340q99 -1 151 -44t52 -124
q0 -84 -56 -129t-160 -44l-208 1v526h71v-184zM613 0v526h71v-526h-71zM305 53q148 -2 148 119q0 113 -148 115l-133 2v-234z" />
    <glyph glyph-name="uni04FA" unicode="&#x4fa;" horiz-adv-x="609" 
d="M588 636h-373v-283h301v-56h-301v-233h105v-114q0 -69 -41.5 -109t-108.5 -40q-65 0 -115 35l24 52q33 -26 80 -26q42 0 66 25t24 73v40h-107v297h-107v56h107v347h446v-64z" />
    <glyph glyph-name="uni04FB" unicode="&#x4fb;" horiz-adv-x="478" 
d="M454 463h-262v-189h221v-52h-221v-160h84v-108q0 -70 -39.5 -111.5t-111.5 -41.5t-112 35l23 52q33 -27 81 -27q88 0 88 101v38h-84v222h-81v52h81v252h333v-63z" />
    <glyph glyph-name="uni04FC" unicode="&#x4fc;" horiz-adv-x="651" 
d="M370 363l53 -67l54 -69l44 -58.5t42.5 -62.5l28 -52.5t22.5 -55.5t6 -47q0 -70 -43 -110.5t-109 -40.5q-56 0 -111 29l20 53q40 -22 77 -22q40 0 63.5 24.5t23.5 69.5q0 32 -16 71t-54 93t-64 87.5l-81 101.5l-220 -307h-86l262 360l-245 340h85l206 -285l205 285h81z
" />
    <glyph glyph-name="uni04FD" unicode="&#x4fd;" horiz-adv-x="524" 
d="M305 273q118 -140 161.5 -208t43.5 -124q0 -63 -42 -101.5t-108 -38.5q-55 0 -111 31l23 54q39 -25 79 -25q39 0 63.5 24t24.5 60q0 43 -38 100.5t-137 173.5l-166 -219h-81l205 270l-193 256h80l154 -204l156 204h79z" />
    <glyph glyph-name="uni04FE" unicode="&#x4fe;" horiz-adv-x="668" 
d="M403 331l235 -331h-87l-217 301l-216 -301h-86l237 331h-171v56h174l-222 313h85l199 -277l199 277h86l-223 -313h166v-56h-159z" />
    <glyph glyph-name="uni04FF" unicode="&#x4ff;" horiz-adv-x="555" 
d="M526 0h-84l-165 219l-168 -219h-80l185 240h-121v52h124l-177 234h82l156 -206l159 206h77l-180 -234h129v-52h-120z" />
    <glyph glyph-name="uni0510" unicode="&#x510;" horiz-adv-x="635" 
d="M573 137l27 -53q-107 -90 -259 -90q-115 0 -195.5 55t-80.5 147q0 63 39.5 108t108.5 62q-56 17 -87 57.5t-31 96.5q0 87 74.5 138.5t183.5 51.5q121 0 225 -62l-24 -61q-91 58 -198 58q-80 0 -133.5 -35.5t-53.5 -97.5q0 -56 41.5 -87.5t115.5 -31.5h146v-60h-150
q-87 0 -134.5 -33t-47.5 -94q0 -69 61 -109t149 -40q130 0 223 80z" />
    <glyph glyph-name="uni0511" unicode="&#x511;" horiz-adv-x="534" 
d="M480 112l24 -53q-85 -65 -208 -65q-100 0 -168 43.5t-68 113.5q0 46 30.5 78t86.5 45q-47 15 -74.5 46t-27.5 71q0 63 60 102t152 39q101 0 195 -49l-20 -55q-83 43 -168 43q-65 0 -105.5 -24t-40.5 -66q0 -38 36 -60.5t95 -22.5h86v-52h-90q-66 0 -104 -23.5t-38 -65.5
q0 -47 46.5 -74.5t119.5 -27.5q106 0 181 57z" />
    <glyph glyph-name="uni0512" unicode="&#x512;" horiz-adv-x="787" 
d="M402 -165l24 54q37 -27 80 -27q38 0 63.5 23.5t25.5 66.5v684h-338l-9 -234q-9 -217 -48.5 -313t-132.5 -96q-25 0 -56 7l6 66q17 -4 33 -4q66 0 95.5 79t36.5 259l11 300h475v-752q0 -71 -44.5 -109.5t-108.5 -38.5q-61 0 -113 35z" />
    <glyph glyph-name="uni0513" unicode="&#x513;" horiz-adv-x="632" 
d="M146 526h385v-568q0 -72 -40 -114.5t-112 -42.5t-112 34l24 54q32 -27 79 -27q90 0 90 99v502h-252l-7 -130q-3 -62 -7.5 -107t-15 -91.5t-25.5 -75.5t-39.5 -47.5t-57.5 -18.5q-21 0 -51 8l5 61q18 -4 25 -4q21 0 37 10t26.5 32.5t17.5 44t11 60t6 63.5t4 70z" />
    <glyph glyph-name="uni051A" unicode="&#x51a;" horiz-adv-x="855" 
d="M788 -16l36 -43q-66 -80 -170 -80q-62 0 -117.5 30.5t-124.5 102.5q-154 5 -254.5 105.5t-100.5 250.5q0 153 104.5 254.5t263.5 101.5q158 0 262.5 -101t104.5 -255q0 -133 -80 -228.5t-209 -120.5q77 -81 152 -81q78 0 133 64zM130 350q0 -125 84 -207.5t211 -82.5
q126 0 209.5 82.5t83.5 207.5t-83.5 207.5t-209.5 82.5q-127 0 -211 -82.5t-84 -207.5z" />
    <glyph glyph-name="uni051B" unicode="&#x51b;" horiz-adv-x="686" 
d="M516 526h68v-720h-71v293q-67 -104 -200 -104q-114 0 -188 74.5t-74 193.5q0 118 74 192.5t188 74.5q137 0 203 -108v104zM319 58q84 0 139.5 57t55.5 148t-55.5 148t-139.5 57q-85 0 -140.5 -57t-55.5 -148t55.5 -148t140.5 -57z" />
    <glyph glyph-name="uni051C" unicode="&#x51c;" horiz-adv-x="1072" 
d="M975 700h71l-232 -700h-77l-199 594l-202 -594h-77l-233 700h77l198 -598l204 598h68l201 -600z" />
    <glyph glyph-name="uni051D" unicode="&#x51d;" horiz-adv-x="928" 
d="M844 526h69l-205 -526h-73l-171 432l-171 -432h-73l-206 526h74l170 -443l175 443h66l172 -444z" />
    <glyph glyph-name="uni0524" unicode="&#x524;" horiz-adv-x="849" 
d="M707 64h110v-221h-69v157h-114v636h-443v-636h-73v700h589v-636z" />
    <glyph glyph-name="uni0525" unicode="&#x525;" horiz-adv-x="674" 
d="M573 62h85v-177h-67v115h-89v463h-330v-463h-71v526h472v-464z" />
    <glyph glyph-name="uni0526" unicode="&#x526;" horiz-adv-x="798" 
d="M672 64h110v-221h-69v157h-114v223q0 82 -51.5 126.5t-143.5 44.5q-104 0 -213 -50v-344h-73v700h73v-290q114 49 220 49q124 0 192.5 -59.5t68.5 -168.5v-167z" />
    <glyph glyph-name="uni0527" unicode="&#x527;" horiz-adv-x="692" 
d="M585 62h78v-177h-67v115h-82v296q0 83 -41 125.5t-116 42.5q-86 0 -135.5 -51t-49.5 -139v-274h-71v742h71v-320q60 108 202 108q97 0 154 -57t57 -166v-245z" />
    <glyph glyph-name="uni0528" unicode="&#x528;" horiz-adv-x="817" 
d="M-73 -165l24 54q38 -27 80 -27q38 0 63.5 23.5t25.5 66.5v748h72v-316h434v316h73v-700h-73v319h-434v-371q0 -71 -44 -109.5t-108 -38.5q-61 0 -113 35z" />
    <glyph glyph-name="uni0529" unicode="&#x529;" horiz-adv-x="675" 
d="M503 526h71v-526h-71v233h-330v-276q0 -72 -39.5 -114t-110.5 -42q-73 0 -113 34l24 54q30 -27 79 -27q89 0 89 99v565h71v-231h330v231z" />
    <glyph glyph-name="uni052E" unicode="&#x52e;" horiz-adv-x="809" 
d="M667 64h110v-221h-69v157h-114v636h-338l-8 -234q-8 -217 -48 -313t-133 -96q-27 0 -56 7l6 66q17 -4 33 -4q66 0 95.5 79t36.5 259l10 300h475v-636z" />
    <glyph glyph-name="uni052F" unicode="&#x52f;" horiz-adv-x="651" 
d="M531 62h85v-177h-67v115h-89v463h-252l-7 -130q-3 -62 -7.5 -107t-15 -91.5t-25.5 -75.5t-39.5 -47.5t-57.5 -18.5q-21 0 -51 8l5 61q18 -4 25 -4q21 0 37 10t26.5 32.5t17.5 44t11 60t6 63.5t4 70l9 188h385v-464z" />
    <glyph glyph-name="uni1E08" unicode="&#x1e08;" horiz-adv-x="719" 
d="M577 881l-162 -124h-70l137 124h95zM421 60q126 0 207 84l47 -47q-92 -101 -253 -103l-12 -46q41 -4 63 -25.5t22 -55.5q0 -40 -31 -63.5t-82 -23.5q-50 0 -84 23l17 38q29 -19 66 -19q62 0 62 47q0 46 -62 46h-23l21 81q-143 13 -235 112t-92 242q0 154 104.5 255
t262.5 101q163 0 256 -102l-47 -47q-82 83 -207 83q-127 0 -211.5 -83t-84.5 -207t84.5 -207t211.5 -83z" />
    <glyph glyph-name="uni1E09" unicode="&#x1e09;" horiz-adv-x="563" 
d="M466 731l-162 -124h-70l137 124h95zM317 58q101 0 153 77l53 -36q-64 -104 -206 -104h-2l-12 -47q41 -4 63 -25.5t22 -55.5q0 -40 -31 -63.5t-82 -23.5q-49 0 -84 23l17 38q29 -19 66 -19q62 0 62 47q0 46 -62 46h-23l22 83q-101 14 -164 86.5t-63 178.5q0 117 76.5 192
t194.5 75q143 0 206 -104l-53 -36q-53 78 -153 78q-87 0 -143 -57t-56 -148q0 -92 56 -148.5t143 -56.5z" />
    <glyph glyph-name="uni1E0C" unicode="&#x1e0c;" horiz-adv-x="826" 
d="M114 0v700h285q167 0 271 -97.5t104 -252.5t-104 -252.5t-271 -97.5h-285zM188 64h207q138 0 222 79.5t84 206.5t-84 206.5t-222 79.5h-207v-572zM388 -190q-18 0 -30.5 12t-12.5 31t12.5 31t30.5 12t30.5 -12t12.5 -31t-12.5 -31t-30.5 -12z" />
    <glyph glyph-name="uni1E0D" unicode="&#x1e0d;" horiz-adv-x="678" 
d="M508 742h71v-742h-68v104q-66 -109 -203 -109q-113 0 -187.5 75t-74.5 193t74 192.5t188 74.5q133 0 200 -104v316zM314 58q84 0 139.5 57t55.5 148t-55.5 148t-139.5 57q-85 0 -140.5 -57t-55.5 -148t55.5 -148t140.5 -57zM340 -104q18 0 30.5 -12t12.5 -31t-12.5 -31
t-30.5 -12t-30.5 12t-12.5 31t12.5 31t30.5 12z" />
    <glyph glyph-name="uni1E0E" unicode="&#x1e0e;" horiz-adv-x="826" 
d="M114 0v700h285q167 0 271 -97.5t104 -252.5t-104 -252.5t-271 -97.5h-285zM188 64h207q138 0 222 79.5t84 206.5t-84 206.5t-222 79.5h-207v-572zM234 -169v47h308v-47h-308z" />
    <glyph glyph-name="uni1E0F" unicode="&#x1e0f;" horiz-adv-x="678" 
d="M508 742h71v-742h-68v104q-66 -109 -203 -109q-113 0 -187.5 75t-74.5 193t74 192.5t188 74.5q133 0 200 -104v316zM314 58q84 0 139.5 57t55.5 148t-55.5 148t-139.5 57q-85 0 -140.5 -57t-55.5 -148t55.5 -148t140.5 -57zM186 -169v47h308v-47h-308z" />
    <glyph glyph-name="uni1E14" unicode="&#x1e14;" horiz-adv-x="669" 
d="M416 889h-62l-145 109h87zM509 826v-45h-308v45h308zM188 64h421v-64h-495v700h480v-64h-406v-249h362v-63h-362v-260z" />
    <glyph glyph-name="uni1E15" unicode="&#x1e15;" horiz-adv-x="604" 
d="M364 739h-62l-145 109h87zM457 676v-45h-308v45h308zM558 263q0 -3 -0.5 -10.5t-0.5 -11.5h-440q6 -82 63 -132.5t144 -50.5q101 0 161 69l40 -46q-72 -86 -203 -86q-122 0 -199 75t-77 193q0 117 73 192t184 75q112 0 183.5 -74.5t71.5 -192.5zM303 469
q-76 0 -127.5 -48.5t-58.5 -126.5h373q-7 78 -58.5 126.5t-128.5 48.5z" />
    <glyph glyph-name="uni1E16" unicode="&#x1e16;" horiz-adv-x="669" 
d="M501 998l-144 -109h-63l121 109h86zM509 826v-45h-308v45h308zM188 64h421v-64h-495v700h480v-64h-406v-249h362v-63h-362v-260z" />
    <glyph glyph-name="uni1E17" unicode="&#x1e17;" horiz-adv-x="604" 
d="M449 848l-144 -109h-63l121 109h86zM457 676v-45h-308v45h308zM558 263q0 -3 -0.5 -10.5t-0.5 -11.5h-440q6 -82 63 -132.5t144 -50.5q101 0 161 69l40 -46q-72 -86 -203 -86q-122 0 -199 75t-77 193q0 117 73 192t184 75q112 0 183.5 -74.5t71.5 -192.5zM303 469
q-76 0 -127.5 -48.5t-58.5 -126.5h373q-7 78 -58.5 126.5t-128.5 48.5z" />
    <glyph glyph-name="uni1E1C" unicode="&#x1e1c;" horiz-adv-x="669" 
d="M355 752q-64 0 -107 35t-45 94h50q1 -39 30 -62t72 -23t72 23t30 62h50q-2 -59 -45 -94t-107 -35zM609 0h-222l-13 -52q41 -4 63 -25.5t22 -55.5q0 -40 -31 -63.5t-82 -23.5q-50 0 -84 23l17 38q29 -19 66 -19q62 0 62 47q0 46 -62 46h-23l22 85h-230v700h480v-64h-406
v-249h362v-63h-362v-260h421v-64z" />
    <glyph glyph-name="uni1E1D" unicode="&#x1e1d;" horiz-adv-x="604" 
d="M303 602q-64 0 -107 35t-45 94h50q1 -39 30 -62t72 -23t72 23t30 62h50q-2 -59 -45 -94t-107 -35zM558 263q0 -3 -0.5 -10.5t-0.5 -11.5h-440q6 -82 63 -132.5t144 -50.5q101 0 161 69l40 -46q-72 -86 -203 -86h-1l-12 -47q41 -4 63 -25.5t22 -55.5q0 -40 -31 -63.5
t-82 -23.5q-49 0 -84 23l17 38q29 -19 66 -19q62 0 62 47q0 46 -62 46h-23l22 83q-105 14 -169 86.5t-64 178.5q0 117 73 192t184 75q112 0 183.5 -74.5t71.5 -192.5zM303 469q-76 0 -127.5 -48.5t-58.5 -126.5h373q-7 78 -58.5 126.5t-128.5 48.5z" />
    <glyph glyph-name="uni1E20" unicode="&#x1e20;" horiz-adv-x="773" 
d="M562 842v-47h-308v47h308zM607 114v236h71v-267q-100 -89 -257 -89q-160 0 -264.5 101t-104.5 255t105 255t265 101q167 0 260 -101l-46 -47q-83 82 -211 82q-130 0 -215 -82.5t-85 -207.5t85 -207.5t214 -82.5q108 0 183 54z" />
    <glyph glyph-name="uni1E21" unicode="&#x1e21;" horiz-adv-x="686" 
d="M479 692v-47h-308v47h308zM518 526h68v-462q0 -134 -65.5 -198.5t-197.5 -64.5q-73 0 -138.5 21.5t-106.5 59.5l36 54q80 -72 207 -72q100 0 147 46.5t47 144.5v67q-67 -102 -205 -102q-114 0 -189 72t-75 184t75 183t189 71q141 0 208 -105v101zM317 83q87 0 143.5 54
t56.5 139t-56.5 138.5t-143.5 53.5t-143 -53.5t-56 -138.5t56 -139t143 -54z" />
    <glyph glyph-name="uni1E24" unicode="&#x1e24;" horiz-adv-x="813" 
d="M626 700h73v-700h-73v323h-438v-323h-74v700h74v-312h438v312zM406 -104q18 0 30.5 -12t12.5 -31t-12.5 -31t-30.5 -12t-30.5 12t-12.5 31t12.5 31t30.5 12z" />
    <glyph glyph-name="uni1E25" unicode="&#x1e25;" horiz-adv-x="677" 
d="M367 530q99 0 157.5 -57.5t58.5 -167.5v-305h-71v298q0 82 -41 125t-117 43q-85 0 -134.5 -50.5t-49.5 -139.5v-276h-71v742h71v-308q61 96 197 96zM340 -104q18 0 30.5 -12t12.5 -31t-12.5 -31t-30.5 -12t-30.5 12t-12.5 31t12.5 31t30.5 12z" />
    <glyph glyph-name="uni1E2A" unicode="&#x1e2a;" horiz-adv-x="813" 
d="M626 700h73v-700h-73v323h-438v-323h-74v700h74v-312h438v312zM406 -164q44 0 73.5 22t30.5 58h48q-2 -55 -45 -88t-107 -33t-107 33t-45 88h48q1 -36 30.5 -58t73.5 -22z" />
    <glyph glyph-name="uni1E2B" unicode="&#x1e2b;" horiz-adv-x="677" 
d="M367 530q99 0 157.5 -57.5t58.5 -167.5v-305h-71v298q0 82 -41 125t-117 43q-85 0 -134.5 -50.5t-49.5 -139.5v-276h-71v742h71v-308q61 96 197 96zM340 -164q44 0 73.5 22t30.5 58h48q-2 -55 -45 -88t-107 -33t-107 33t-45 88h48q1 -36 30.5 -58t73.5 -22z" />
    <glyph glyph-name="uni1E2E" unicode="&#x1e2e;" horiz-adv-x="302" 
d="M90 889l121 109h86l-144 -109h-63zM63 780q-17 0 -29.5 12t-12.5 30q0 17 12.5 29t29.5 12t29.5 -12t12.5 -29q0 -18 -12.5 -30t-29.5 -12zM239 780q-17 0 -29.5 12t-12.5 30q0 17 12.5 29t29.5 12t29.5 -12t12.5 -29q0 -18 -12.5 -30t-29.5 -12zM114 0v700h74v-700h-74z
" />
    <glyph glyph-name="uni1E2F" unicode="&#x1e2f;" horiz-adv-x="269" 
d="M74 739l121 109h86l-144 -109h-63zM47 630q-17 0 -29.5 12t-12.5 30q0 17 12.5 29t29.5 12t29.5 -12t12.5 -29q0 -18 -12.5 -30t-29.5 -12zM223 630q-17 0 -29.5 12t-12.5 30q0 17 12.5 29t29.5 12t29.5 -12t12.5 -29q0 -18 -12.5 -30t-29.5 -12zM99 0v526h71v-526h-71z
" />
    <glyph glyph-name="uni1E36" unicode="&#x1e36;" horiz-adv-x="589" 
d="M114 0v700h74v-636h392v-64h-466zM358 -190q-18 0 -30.5 12t-12.5 31t12.5 31t30.5 12t30.5 -12t12.5 -31t-12.5 -31t-30.5 -12z" />
    <glyph glyph-name="uni1E37" unicode="&#x1e37;" horiz-adv-x="269" 
d="M99 0v742h71v-742h-71zM135 -190q-18 0 -30.5 12t-12.5 31t12.5 31t30.5 12t30.5 -12t12.5 -31t-12.5 -31t-30.5 -12z" />
    <glyph glyph-name="uni1E3A" unicode="&#x1e3a;" horiz-adv-x="589" 
d="M114 0v700h74v-636h392v-64h-466zM204 -169v47h308v-47h-308z" />
    <glyph glyph-name="uni1E3B" unicode="&#x1e3b;" horiz-adv-x="269" 
d="M99 0v742h71v-742h-71zM-19 -169v47h308v-47h-308z" />
    <glyph glyph-name="uni1E42" unicode="&#x1e42;" horiz-adv-x="955" 
d="M780 700h61v-700h-71v560l-275 -471h-35l-275 468v-557h-71v700h61l304 -519zM477 -104q18 0 30.5 -12t12.5 -31t-12.5 -31t-30.5 -12t-30.5 12t-12.5 31t12.5 31t30.5 12z" />
    <glyph glyph-name="uni1E43" unicode="&#x1e43;" horiz-adv-x="1061" 
d="M755 530q99 0 155.5 -57t56.5 -168v-305h-71v298q0 82 -39.5 125t-111.5 43q-82 0 -129 -50.5t-47 -139.5v-276h-71v298q0 82 -39.5 125t-112.5 43q-81 0 -128.5 -50.5t-47.5 -139.5v-276h-71v526h68v-96q59 100 193 100q139 0 187 -111q29 52 83.5 81.5t124.5 29.5z
M532 -104q18 0 30.5 -12t12.5 -31t-12.5 -31t-30.5 -12t-30.5 12t-12.5 31t12.5 31t30.5 12z" />
    <glyph glyph-name="uni1E44" unicode="&#x1e44;" horiz-adv-x="813" 
d="M406 780q-20 0 -34 14t-14 34t14 34t34 14t34 -14t14 -34t-14 -34t-34 -14zM626 700h73v-700h-61l-450 568v-568h-74v700h61l451 -568v568z" />
    <glyph glyph-name="uni1E45" unicode="&#x1e45;" horiz-adv-x="677" 
d="M340 630q-20 0 -34 14t-14 34t14 34t34 14t34 -14t14 -34t-14 -34t-34 -14zM367 530q99 0 157.5 -57.5t58.5 -167.5v-305h-71v298q0 82 -41 125t-117 43q-85 0 -134.5 -50.5t-49.5 -139.5v-276h-71v526h68v-97q60 101 200 101z" />
    <glyph glyph-name="uni1E46" unicode="&#x1e46;" horiz-adv-x="813" 
d="M626 700h73v-700h-61l-450 568v-568h-74v700h61l451 -568v568zM406 -104q18 0 30.5 -12t12.5 -31t-12.5 -31t-30.5 -12t-30.5 12t-12.5 31t12.5 31t30.5 12z" />
    <glyph glyph-name="uni1E47" unicode="&#x1e47;" horiz-adv-x="677" 
d="M367 530q99 0 157.5 -57.5t58.5 -167.5v-305h-71v298q0 82 -41 125t-117 43q-85 0 -134.5 -50.5t-49.5 -139.5v-276h-71v526h68v-97q60 101 200 101zM340 -104q18 0 30.5 -12t12.5 -31t-12.5 -31t-30.5 -12t-30.5 12t-12.5 31t12.5 31t30.5 12z" />
    <glyph glyph-name="uni1E48" unicode="&#x1e48;" horiz-adv-x="813" 
d="M626 700h73v-700h-61l-450 568v-568h-74v700h61l451 -568v568zM252 -169v47h308v-47h-308z" />
    <glyph glyph-name="uni1E49" unicode="&#x1e49;" horiz-adv-x="677" 
d="M367 530q99 0 157.5 -57.5t58.5 -167.5v-305h-71v298q0 82 -41 125t-117 43q-85 0 -134.5 -50.5t-49.5 -139.5v-276h-71v526h68v-97q60 101 200 101zM186 -169v47h308v-47h-308z" />
    <glyph glyph-name="uni1E4C" unicode="&#x1e4c;" horiz-adv-x="839" 
d="M359 889l121 109h86l-144 -109h-63zM487 765q-33 0 -73.5 27t-57.5 27q-46 0 -48 -50h-43q1 43 25 67.5t64 24.5q32 0 72 -27t58 -27q47 0 49 49h42q-1 -42 -24.5 -66.5t-63.5 -24.5zM420 -6q-159 0 -263.5 101.5t-104.5 254.5t104.5 254.5t263.5 101.5q158 0 262.5 -101
t104.5 -255t-104.5 -255t-262.5 -101zM420 60q126 0 209.5 82.5t83.5 207.5t-83.5 207.5t-209.5 82.5q-127 0 -211 -82.5t-84 -207.5t84 -207.5t211 -82.5z" />
    <glyph glyph-name="uni1E4D" unicode="&#x1e4d;" horiz-adv-x="627" 
d="M252 739l121 109h86l-144 -109h-63zM380 615q-33 0 -73.5 27t-57.5 27q-46 0 -48 -50h-43q1 43 25 67.5t64 24.5q32 0 72 -27t58 -27q47 0 49 49h42q-1 -42 -24.5 -66.5t-63.5 -24.5zM314 -5q-116 0 -192 75.5t-76 192.5t76 192t192 75t191.5 -75t75.5 -192t-75.5 -192.5
t-191.5 -75.5zM314 58q85 0 140 57t55 148t-55 148t-140 57t-140.5 -57t-55.5 -148t55.5 -148t140.5 -57z" />
    <glyph glyph-name="uni1E4E" unicode="&#x1e4e;" horiz-adv-x="839" 
d="M332 912q-17 0 -29.5 12t-12.5 30q0 17 12.5 29t29.5 12t29.5 -12t12.5 -29q0 -18 -12.5 -30t-29.5 -12zM508 912q-17 0 -29.5 12t-12.5 30q0 17 12.5 29t29.5 12t29.5 -12t12.5 -29q0 -18 -12.5 -30t-29.5 -12zM487 765q-33 0 -73.5 27t-57.5 27q-46 0 -48 -50h-43
q1 43 25 67.5t64 24.5q32 0 72 -27t58 -27q47 0 49 49h42q-1 -42 -24.5 -66.5t-63.5 -24.5zM420 -6q-159 0 -263.5 101.5t-104.5 254.5t104.5 254.5t263.5 101.5q158 0 262.5 -101t104.5 -255t-104.5 -255t-262.5 -101zM420 60q126 0 209.5 82.5t83.5 207.5t-83.5 207.5
t-209.5 82.5q-127 0 -211 -82.5t-84 -207.5t84 -207.5t211 -82.5z" />
    <glyph glyph-name="uni1E4F" unicode="&#x1e4f;" horiz-adv-x="627" 
d="M225 762q-17 0 -29.5 12t-12.5 30q0 17 12.5 29t29.5 12t29.5 -12t12.5 -29q0 -18 -12.5 -30t-29.5 -12zM401 762q-17 0 -29.5 12t-12.5 30q0 17 12.5 29t29.5 12t29.5 -12t12.5 -29q0 -18 -12.5 -30t-29.5 -12zM380 615q-33 0 -73.5 27t-57.5 27q-46 0 -48 -50h-43
q1 43 25 67.5t64 24.5q32 0 72 -27t58 -27q47 0 49 49h42q-1 -42 -24.5 -66.5t-63.5 -24.5zM314 -5q-116 0 -192 75.5t-76 192.5t76 192t192 75t191.5 -75t75.5 -192t-75.5 -192.5t-191.5 -75.5zM314 58q85 0 140 57t55 148t-55 148t-140 57t-140.5 -57t-55.5 -148
t55.5 -148t140.5 -57z" />
    <glyph glyph-name="uni1E50" unicode="&#x1e50;" horiz-adv-x="839" 
d="M419 889l-145 109h87l120 -109h-62zM266 781v45h308v-45h-308zM420 -6q-159 0 -263.5 101.5t-104.5 254.5t104.5 254.5t263.5 101.5q158 0 262.5 -101t104.5 -255t-104.5 -255t-262.5 -101zM420 60q126 0 209.5 82.5t83.5 207.5t-83.5 207.5t-209.5 82.5
q-127 0 -211 -82.5t-84 -207.5t84 -207.5t211 -82.5z" />
    <glyph glyph-name="uni1E51" unicode="&#x1e51;" horiz-adv-x="627" 
d="M312 739l-145 109h87l120 -109h-62zM159 631v45h308v-45h-308zM314 -5q-116 0 -192 75.5t-76 192.5t76 192t192 75t191.5 -75t75.5 -192t-75.5 -192.5t-191.5 -75.5zM314 58q85 0 140 57t55 148t-55 148t-140 57t-140.5 -57t-55.5 -148t55.5 -148t140.5 -57z" />
    <glyph glyph-name="uni1E52" unicode="&#x1e52;" horiz-adv-x="839" 
d="M359 889l121 109h86l-144 -109h-63zM266 781v45h308v-45h-308zM420 -6q-159 0 -263.5 101.5t-104.5 254.5t104.5 254.5t263.5 101.5q158 0 262.5 -101t104.5 -255t-104.5 -255t-262.5 -101zM420 60q126 0 209.5 82.5t83.5 207.5t-83.5 207.5t-209.5 82.5
q-127 0 -211 -82.5t-84 -207.5t84 -207.5t211 -82.5z" />
    <glyph glyph-name="uni1E53" unicode="&#x1e53;" horiz-adv-x="627" 
d="M252 739l121 109h86l-144 -109h-63zM159 631v45h308v-45h-308zM314 -5q-116 0 -192 75.5t-76 192.5t76 192t192 75t191.5 -75t75.5 -192t-75.5 -192.5t-191.5 -75.5zM314 58q85 0 140 57t55 148t-55 148t-140 57t-140.5 -57t-55.5 -148t55.5 -148t140.5 -57z" />
    <glyph glyph-name="uni1E5A" unicode="&#x1e5a;" horiz-adv-x="723" 
d="M673 0h-81l-160 225q-27 -3 -56 -3h-188v-222h-74v700h262q134 0 210 -64t76 -176q0 -82 -41.5 -138.5t-118.5 -81.5zM374 285q104 0 159 46t55 129q0 85 -55 130.5t-159 45.5h-186v-351h186zM369 -104q18 0 30.5 -12t12.5 -31t-12.5 -31t-30.5 -12t-30.5 12t-12.5 31
t12.5 31t30.5 12z" />
    <glyph glyph-name="uni1E5B" unicode="&#x1e5b;" horiz-adv-x="401" 
d="M167 423q50 107 197 107v-69q-3 0 -9 0.5t-8 0.5q-83 0 -130 -51t-47 -143v-268h-71v526h68v-103zM135 -104q18 0 30.5 -12t12.5 -31t-12.5 -31t-30.5 -12t-30.5 12t-12.5 31t12.5 31t30.5 12z" />
    <glyph glyph-name="uni1E5E" unicode="&#x1e5e;" horiz-adv-x="723" 
d="M502 240l171 -240h-81l-160 225q-27 -3 -56 -3h-188v-222h-74v700h262q134 0 210 -64t76 -176q0 -82 -41.5 -138.5t-118.5 -81.5zM374 285q104 0 159 46t55 129q0 85 -55 130.5t-159 45.5h-186v-351h186zM215 -169v47h308v-47h-308z" />
    <glyph glyph-name="uni1E5F" unicode="&#x1e5f;" horiz-adv-x="401" 
d="M167 423q50 107 197 107v-69q-3 0 -9 0.5t-8 0.5q-83 0 -130 -51t-47 -143v-268h-71v526h68v-103zM-19 -169v47h308v-47h-308z" />
    <glyph glyph-name="uni1E60" unicode="&#x1e60;" horiz-adv-x="615" 
d="M321 780q-20 0 -34 14t-14 34t14 34t34 14t34 -14t14 -34t-14 -34t-34 -14zM307 -6q-78 0 -149.5 25t-110.5 66l29 57q38 -38 101 -61.5t130 -23.5q94 0 141 34.5t47 89.5q0 45 -32 73.5t-80 40.5t-103.5 27.5t-103.5 32.5t-80 57.5t-32 101.5q0 83 65.5 137.5
t192.5 54.5q128 0 217 -62l-25 -59q-89 58 -192 58q-92 0 -138.5 -35.5t-46.5 -91.5q0 -52 44.5 -82.5t107.5 -44.5t126.5 -31.5t108 -60t44.5 -112.5q0 -83 -66.5 -137t-194.5 -54z" />
    <glyph glyph-name="uni1E61" unicode="&#x1e61;" horiz-adv-x="489" 
d="M243 630q-20 0 -34 14t-14 34t14 34t34 14t34 -14t14 -34t-14 -34t-34 -14zM240 -5q-64 0 -122.5 18.5t-91.5 46.5l32 56q75 -59 187 -59q141 0 141 86q0 32 -25.5 51t-63 25t-82 16t-82 21.5t-63 43t-25.5 80.5q0 66 55 108t153 42q114 0 186 -49l-31 -57
q-65 45 -155 45q-68 0 -102.5 -24t-34.5 -63t35 -59t85 -28.5t100.5 -19t85.5 -42.5t35 -88q0 -69 -57.5 -109.5t-159.5 -40.5z" />
    <glyph glyph-name="uni1E62" unicode="&#x1e62;" horiz-adv-x="615" 
d="M307 -6q-78 0 -149.5 25t-110.5 66l29 57q38 -38 101 -61.5t130 -23.5q94 0 141 34.5t47 89.5q0 45 -32 73.5t-80 40.5t-103.5 27.5t-103.5 32.5t-80 57.5t-32 101.5q0 83 65.5 137.5t192.5 54.5q128 0 217 -62l-25 -59q-89 58 -192 58q-92 0 -138.5 -35.5t-46.5 -91.5
q0 -52 44.5 -82.5t107.5 -44.5t126.5 -31.5t108 -60t44.5 -112.5q0 -83 -66.5 -137t-194.5 -54zM321 -190q-18 0 -30.5 12t-12.5 31t12.5 31t30.5 12t30.5 -12t12.5 -31t-12.5 -31t-30.5 -12z" />
    <glyph glyph-name="uni1E63" unicode="&#x1e63;" horiz-adv-x="489" 
d="M240 -5q-64 0 -122.5 18.5t-91.5 46.5l32 56q75 -59 187 -59q141 0 141 86q0 32 -25.5 51t-63 25t-82 16t-82 21.5t-63 43t-25.5 80.5q0 66 55 108t153 42q114 0 186 -49l-31 -57q-65 45 -155 45q-68 0 -102.5 -24t-34.5 -63t35 -59t85 -28.5t100.5 -19t85.5 -42.5
t35 -88q0 -69 -57.5 -109.5t-159.5 -40.5zM243 -190q-18 0 -30.5 12t-12.5 31t12.5 31t30.5 12t30.5 -12t12.5 -31t-12.5 -31t-30.5 -12z" />
    <glyph glyph-name="uni1E64" unicode="&#x1e64;" horiz-adv-x="615" 
d="M321 911q-18 0 -30.5 12t-12.5 31t12.5 31t30.5 12t30.5 -12t12.5 -31t-12.5 -31t-30.5 -12zM260 757l121 109h86l-144 -109h-63zM307 -6q-78 0 -149.5 25t-110.5 66l29 57q38 -38 101 -61.5t130 -23.5q94 0 141 34.5t47 89.5q0 45 -32 73.5t-80 40.5t-103.5 27.5
t-103.5 32.5t-80 57.5t-32 101.5q0 83 65.5 137.5t192.5 54.5q128 0 217 -62l-25 -59q-89 58 -192 58q-92 0 -138.5 -35.5t-46.5 -91.5q0 -52 44.5 -82.5t107.5 -44.5t126.5 -31.5t108 -60t44.5 -112.5q0 -83 -66.5 -137t-194.5 -54z" />
    <glyph glyph-name="uni1E65" unicode="&#x1e65;" horiz-adv-x="489" 
d="M243 761q-18 0 -30.5 12t-12.5 31t12.5 31t30.5 12t30.5 -12t12.5 -31t-12.5 -31t-30.5 -12zM182 607l121 109h86l-144 -109h-63zM240 -5q-64 0 -122.5 18.5t-91.5 46.5l32 56q75 -59 187 -59q141 0 141 86q0 32 -25.5 51t-63 25t-82 16t-82 21.5t-63 43t-25.5 80.5
q0 66 55 108t153 42q114 0 186 -49l-31 -57q-65 45 -155 45q-68 0 -102.5 -24t-34.5 -63t35 -59t85 -28.5t100.5 -19t85.5 -42.5t35 -88q0 -69 -57.5 -109.5t-159.5 -40.5z" />
    <glyph glyph-name="uni1E66" unicode="&#x1e66;" horiz-adv-x="615" 
d="M321 888q-18 0 -30.5 12t-12.5 31t12.5 31t30.5 12t30.5 -12t12.5 -31t-12.5 -31t-30.5 -12zM356 757h-70l-130 94h68l97 -59l97 59h68zM137 516q0 -52 44.5 -82.5t107.5 -44.5t126.5 -31.5t108 -60t44.5 -112.5q0 -83 -66.5 -137t-194.5 -54q-78 0 -149.5 25t-110.5 66
l29 57q38 -38 101 -61.5t130 -23.5q94 0 141 34.5t47 89.5q0 45 -32 73.5t-80 40.5t-103.5 27.5t-103.5 32.5t-80 57.5t-32 101.5q0 83 65.5 137.5t192.5 54.5q128 0 217 -62l-25 -59q-89 58 -192 58q-92 0 -138.5 -35.5t-46.5 -91.5z" />
    <glyph glyph-name="uni1E67" unicode="&#x1e67;" horiz-adv-x="489" 
d="M243 738q-18 0 -30.5 12t-12.5 31t12.5 31t30.5 12t30.5 -12t12.5 -31t-12.5 -31t-30.5 -12zM278 607h-70l-130 94h68l97 -59l97 59h68zM116 382q0 -39 35 -59t85 -28.5t100.5 -19t85.5 -42.5t35 -88q0 -69 -57.5 -109.5t-159.5 -40.5q-64 0 -122.5 18.5t-91.5 46.5
l32 56q75 -59 187 -59q141 0 141 86q0 32 -25.5 51t-63 25t-82 16t-82 21.5t-63 43t-25.5 80.5q0 66 55 108t153 42q114 0 186 -49l-31 -57q-65 45 -155 45q-68 0 -102.5 -24t-34.5 -63z" />
    <glyph glyph-name="uni1E68" unicode="&#x1e68;" horiz-adv-x="615" 
d="M321 780q-20 0 -34 14t-14 34t14 34t34 14t34 -14t14 -34t-14 -34t-34 -14zM307 -6q-78 0 -149.5 25t-110.5 66l29 57q38 -38 101 -61.5t130 -23.5q94 0 141 34.5t47 89.5q0 45 -32 73.5t-80 40.5t-103.5 27.5t-103.5 32.5t-80 57.5t-32 101.5q0 83 65.5 137.5
t192.5 54.5q128 0 217 -62l-25 -59q-89 58 -192 58q-92 0 -138.5 -35.5t-46.5 -91.5q0 -52 44.5 -82.5t107.5 -44.5t126.5 -31.5t108 -60t44.5 -112.5q0 -83 -66.5 -137t-194.5 -54zM321 -190q-18 0 -30.5 12t-12.5 31t12.5 31t30.5 12t30.5 -12t12.5 -31t-12.5 -31
t-30.5 -12z" />
    <glyph glyph-name="uni1E69" unicode="&#x1e69;" horiz-adv-x="489" 
d="M243 630q-20 0 -34 14t-14 34t14 34t34 14t34 -14t14 -34t-14 -34t-34 -14zM240 -5q-64 0 -122.5 18.5t-91.5 46.5l32 56q75 -59 187 -59q141 0 141 86q0 32 -25.5 51t-63 25t-82 16t-82 21.5t-63 43t-25.5 80.5q0 66 55 108t153 42q114 0 186 -49l-31 -57
q-65 45 -155 45q-68 0 -102.5 -24t-34.5 -63t35 -59t85 -28.5t100.5 -19t85.5 -42.5t35 -88q0 -69 -57.5 -109.5t-159.5 -40.5zM243 -190q-18 0 -30.5 12t-12.5 31t12.5 31t30.5 12t30.5 -12t12.5 -31t-12.5 -31t-30.5 -12z" />
    <glyph glyph-name="uni1E6C" unicode="&#x1e6c;" horiz-adv-x="574" 
d="M250 0v636h-246v64h566v-64h-246v-636h-74zM287 -190q-18 0 -30.5 12t-12.5 31t12.5 31t30.5 12t30.5 -12t12.5 -31t-12.5 -31t-30.5 -12z" />
    <glyph glyph-name="uni1E6D" unicode="&#x1e6d;" horiz-adv-x="406" 
d="M376 32q-41 -37 -111 -37q-74 0 -114 40t-40 113v318h-94v60h94v115h71v-115h160v-60h-160v-314q0 -47 23.5 -71.5t67.5 -24.5q48 0 78 27zM249 -104q18 0 30.5 -12t12.5 -31t-12.5 -31t-30.5 -12t-30.5 12t-12.5 31t12.5 31t30.5 12z" />
    <glyph glyph-name="uni1E6E" unicode="&#x1e6e;" horiz-adv-x="574" 
d="M250 0v636h-246v64h566v-64h-246v-636h-74zM133 -169v47h308v-47h-308z" />
    <glyph glyph-name="uni1E6F" unicode="&#x1e6f;" horiz-adv-x="406" 
d="M111 148v318h-94v60h94v115h71v-115h160v-60h-160v-314q0 -47 23.5 -71.5t67.5 -24.5q48 0 78 27l25 -51q-41 -37 -111 -37q-74 0 -114 40t-40 113zM95 -122h308v-47h-308v47z" />
    <glyph glyph-name="uni1E78" unicode="&#x1e78;" horiz-adv-x="792" 
d="M335 889l121 109h86l-144 -109h-63zM463 765q-33 0 -73.5 27t-57.5 27q-46 0 -48 -50h-43q1 43 25 67.5t64 24.5q32 0 72 -27t58 -27q47 0 49 49h42q-1 -42 -24.5 -66.5t-63.5 -24.5zM396 -6q-136 0 -212 78t-76 227v401h74v-398q0 -242 214 -242q215 0 215 242v398h72
v-401q0 -149 -75.5 -227t-211.5 -78z" />
    <glyph glyph-name="uni1E79" unicode="&#x1e79;" horiz-adv-x="673" 
d="M480 848l-144 -109h-63l121 109h86zM270 669q-46 0 -48 -50h-43q1 43 25 67.5t64 24.5q32 0 72 -27t58 -27q47 0 49 49h42q-1 -42 -24.5 -66.5t-63.5 -24.5q-33 0 -73.5 27t-57.5 27zM502 526h71v-526h-68v96q-28 -48 -77 -74.5t-112 -26.5q-103 0 -162.5 57.5
t-59.5 168.5v305h71v-298q0 -83 41 -126t117 -43q83 0 131 50.5t48 140.5v276z" />
    <glyph glyph-name="uni1E7A" unicode="&#x1e7a;" horiz-adv-x="792" 
d="M308 913q-17 0 -29.5 12t-12.5 30q0 17 12.5 29t29.5 12t29.5 -12t12.5 -29q0 -18 -12.5 -30t-29.5 -12zM484 913q-17 0 -29.5 12t-12.5 30q0 17 12.5 29t29.5 12t29.5 -12t12.5 -29q0 -18 -12.5 -30t-29.5 -12zM242 782v45h308v-45h-308zM396 -6q-136 0 -212 78t-76 227
v401h74v-398q0 -242 214 -242q215 0 215 242v398h72v-401q0 -149 -75.5 -227t-211.5 -78z" />
    <glyph glyph-name="uni1E7B" unicode="&#x1e7b;" horiz-adv-x="673" 
d="M246 762q-17 0 -29.5 12t-12.5 30q0 17 12.5 29t29.5 12t29.5 -12t12.5 -29q0 -18 -12.5 -30t-29.5 -12zM422 762q-17 0 -29.5 12t-12.5 30q0 17 12.5 29t29.5 12t29.5 -12t12.5 -29q0 -18 -12.5 -30t-29.5 -12zM488 676v-45h-308v45h308zM502 526h71v-526h-68v96
q-28 -48 -77 -74.5t-112 -26.5q-103 0 -162.5 57.5t-59.5 168.5v305h71v-298q0 -83 41 -126t117 -43q83 0 131 50.5t48 140.5v276z" />
    <glyph glyph-name="Wgrave" unicode="&#x1e80;" horiz-adv-x="1111" 
d="M621 757h-70l-162 124h95zM1004 700h71l-236 -700h-78l-205 597l-206 -597h-77l-236 700h76l202 -602l209 602h69l206 -605z" />
    <glyph glyph-name="wgrave" unicode="&#x1e81;" horiz-adv-x="879" 
d="M503 605h-70l-162 124h95zM806 526h65l-199 -526h-67l-166 431l-166 -431h-67l-198 526h68l165 -447l169 447h61l168 -447z" />
    </font>
</defs>
</svg>
